#TITLE:GingaMingaYo (the strange world);
#SUBTITLE:;
#ARTIST:Billlie;
#TITLETRANSLIT:;
#SUBTITLETRANSLIT:;
#ARTISTTRANSLIT:;
#CREDIT:;
#BANNER:GingaMingaYo (the strange world) banner.png;
#BACKGROUND:GingaMingaYo (the strange world) bg.png;
#LYRICSPATH:;
#CDTITLE:;
#MUSIC:GingaMingaYo (the strange world).mp3;
#OFFSET:-8.000;
#SAMPLESTART:55.180;
#SAMPLELENGTH:15.000;
#SELECTABLE:YES;
#BPMS:0.000=122.000,230.000=115.180,230.500=106.760,231.000=94.340,231.500=81.920,232.000=72.000,232.500=122.000;
#STOPS:160.000=0.120
,160.250=0.120
,160.500=0.120
,160.750=0.120
,161.000=0.120
,161.250=0.120
,161.500=0.120
,161.750=0.140
,232.500=2.040
,265.000=0.120
,265.250=0.120
,265.500=0.120
,265.750=0.120
,266.000=0.120
,266.250=0.120
,266.500=0.120
,266.750=0.140
;
#BGCHANGES:;

//---------------dance-single - ----------------
#NOTES:
     dance-single:
     :
     Hard:
     8:
     0.521,0.472,0.195,0.202,0.195:
1001
0000
0010
0100
0001
0010
0010
0100
,
0010
0200
0000
0301
1000
0001
0010
0100
,
1100
0000
0100
0010
0100
1000
1000
0100
,
0010
0002
0000
0013
0010
0100
0010
1000
,
0001
0000
0100
0010
0000
0000
1000
0000
0001
0000
0010
0000
0001
0000
0010
0000
,
0100
0000
1000
0100
0000
0000
0100
0000
1000
0000
0100
0000
0001
0000
0010
0000
,
0001
0000
0010
0200
0000
0000
0310
0000
1000
0000
0001
0000
0010
0000
0010
0000
,
0100
0001
0001
1000
0002
0000
1003
0000
,
0110
0000
0100
0000
0001
0000
1000
0000
0010
0000
0000
0001
0000
0000
0010
0000
,
0100
0000
0010
0000
1000
0000
0100
0000
0001
0000
0100
1000
0000
0000
0100
0000
,
0010
1000
0100
0010
0001
0010
0100
1000
,
0002
0023
0130
0101
,
1001
0000
0100
0000
0100
0000
0001
0000
1000
0000
0010
0100
0000
0000
0100
0000
,
0010
0000
1000
0000
0001
0000
0010
0000
0001
0000
0100
0010
0000
0000
0001
0000
,
0011
0010
0100
0010
0100
1000
0100
1000
,
1001
1100
0020
0230
,
0301
0000
0010
1000
0010
0000
0100
1000
,
0100
0000
1000
0001
1000
0000
0100
0010
,
0100
0000
0010
0001
0010
0000
0100
0010
,
0100
0000
0001
1000
0001
0000
0100
0000
,
0001
0010
0011
0010
0100
0010
0110
0100
,
1000
0100
1100
0100
0010
0100
0110
1000
,
1000
0100
0010
0001
0010
0100
1000
0100
,
0020
0000
0000
0000
0100
0030
1001
0000
,
0110
0000
1000
0001
1000
0000
0100
0010
,
0100
0010
0001
1000
0001
0000
0010
0000
,
0110
0000
0001
1000
0001
0000
0010
0100
,
0100
1000
1000
0100
0001
0000
1001
0000
,
0200
0000
1300
0010
0002
0000
0013
0100
,
0010
0001
0010
0100
1000
0000
1100
0000
,
0200
0000
0310
1000
0020
0000
0130
0001
,
1000
0100
0010
0001
0020
0000
0031
0000
,
1000
0010
0000
0100
0000
0010
0001
0000
0010
0000
0100
0000
0110
0000
0000
0000
,
0001
0010
0000
0100
0000
0010
1000
0000
1000
0000
0100
0000
0110
0000
0000
0000
,
0100
0010
0000
0010
0000
1000
0100
0000
0001
0000
0100
0000
0010
0000
1000
0000
,
0010
0001
0010
0100
2000
0000
3100
0000
,
0010
0100
0000
0100
0000
0010
0001
0000
0001
1000
0001
0000
1001
0000
0000
0000
,
0010
1000
0000
1000
0000
0100
0010
0000
0001
0000
1000
0000
1001
0000
0000
0000
,
0100
1000
0000
0100
0000
0010
0001
0000
0010
0000
0100
0000
1000
0000
0100
0000
,
0010
0010
0100
0100
0002
0010
0010
0103
,
1000
1000
0100
0100
0010
0010
0001
0001
2000
0000
0000
0000
3000
0000
0100
0000
,
0010
0100
0010
0001
0010
1000
0010
0000
,
0200
0000
0320
0000
0230
0000
0000
0301
,
0010
1000
0010
0001
0100
0010
2000
0000
,
3200
0000
0320
0000
0031
1000
1001
0100
,
0010
0000
0100
0020
0000
0000
0130
0000
0001
0000
1000
0000
0010
0000
0001
0000
,
0010
0000
0100
2000
0000
0000
3100
0000
0010
0000
0000
0000
0100
0000
0010
0000
,
0100
0000
0000
0010
0000
0000
0001
0000
2001
0000
0000
0000
0100
0000
0000
0000
,
0100
0000
0000
0000
3100
0000
0010
0000
0110
0000
1000
0001
0000
0000
0001
0000
,
0010
0000
0100
0010
0100
0000
0001
0000
0010
0000
1000
0000
0100
0000
2000
0000
,
0000
0000
3200
0000
0000
0000
0310
0000
0001
0000
1000
0010
0000
0000
0100
0000
,
0010
0001
1000
0001
0010
0010
0100
0100
,
2000
0000
0000
3001
0000
0000
0010
0000
0100
0010
0000
0010
0100
0000
0001
1000
,
0001
0000
0010
0000
0100
0000
0000
0000
1000
0001
0000
0001
1000
0000
0100
0010
,
0100
0000
0001
0000
1000
0000
0100
0000
0010
0100
0000
0100
0010
0000
0001
1000
,
0001
0000
0010
0000
0100
0000
0000
0000
0001
0000
0010
0000
0100
0000
1000
0100
,
0010
0001
1000
0000
0100
0010
0100
0010
,
1000
0001
2000
0000
0000
0000
0000
0000
,
0000
0000
3000
0000
1001
0000
0000
0000
0100
0000
0010
0000
0100
0000
0001
1000
,
0001
0000
0000
0000
0010
0000
0001
0000
0010
0000
0100
0000
0010
0000
1000
0100
,
1000
0000
0100
0000
0110
0000
0000
0000
1000
0000
0001
0000
0100
0000
0010
0100
,
0010
0000
0001
0000
0010
0000
0100
0000
1000
0000
0100
0010
0100
0000
0010
0000
,
0100
0000
0000
0000
1001
0000
0001
0000
0010
0000
0100
0000
1000
0000
0100
0010
,
0100
0000
0010
0000
0001
0000
0001
0000
0010
0000
0100
0000
1000
0000
0001
1000
,
0001
0000
0010
0000
0110
0000
0001
0000
1000
0000
0010
0000
0100
0000
0001
0010
,
0001
1000
0100
0010
0001
0010
0100
1000
,
0100
0000
0010
0000
0001
0001
0010
0010
0100
0100
1000
1000
1001
0000
0000
0000
;

//---------------dance-single - ----------------
#NOTES:
     dance-single:
     :
     Medium:
     6:
     0.385,0.337,0.141,0.148,0.000: // measure 1
0010
0000
0100
0001
0100
0000
0010
0000
,  // measure 2
0001
0020
0000
0130
1000
0000
0100
0010
,  // measure 3
0100
0000
1000
0000
0100
0000
0010
0100
,  // measure 4
0010
0002
0000
0013
0100
0000
0100
0000
,  // measure 5
0001
0010
0001
0000
0010
0000
0100
0000
,  // measure 6
1000
0100
1000
0000
0100
0000
0010
0000
,  // measure 7
1000
0001
1000
0000
0001
0000
1000
0000
,  // measure 8
0020
0130
0002
0003
,  // measure 9
1000
0000
0010
0100
0001
1000
0010
0000
,  // measure 10
0100
0000
0001
1000
0010
0100
0010
0000
,  // measure 11
1000
0000
0100
0010
0100
0000
0100
0001
,  // measure 12
0020
0230
0302
2003
,  // measure 13
3010
0000
0100
0001
0010
0001
0010
0000
,  // measure 14
1000
0000
0010
0100
1000
0100
1000
0000
,  // measure 15
0100
0000
0010
1000
0001
0000
0100
0010
,  // measure 16
2000
3200
0310
0001
,  // measure 17
1010
0100
0101
0001
,  // measure 18
0011
0010
0110
1000
,  // measure 19
1001
0001
0011
0010
,  // measure 20
1010
1000
1001
0001
,  // measure 21
0101
0000
0001
0010
0001
0000
0010
0100
,  // measure 22
1100
0000
0100
0010
0100
0000
0010
1000
,  // measure 23
0001
0000
1000
0001
0010
0000
0100
0010
,  // measure 24
0002
0000
0010
1003
,  // measure 25
1001
0000
0000
0010
0100
0000
0000
0100
,  // measure 26
0010
1000
0010
0001
0010
0000
0100
0000
,  // measure 27
0011
0000
0000
0001
0010
0000
0000
0010
,  // measure 28
0100
0100
1000
1000
0020
0000
0130
0000
,  // measure 29
0110
0000
1000
0001
1000
0000
0000
0010
,  // measure 30
0100
0010
1000
0001
0100
0000
0010
0000
,  // measure 31
1010
0000
0100
0001
0100
0000
0000
0010
,  // measure 32
0001
0001
0010
0010
0100
0010
0100
0000
,  // measure 33
0001
0010
0001
0000
0010
0100
0010
0000
,  // measure 34
1000
0000
0010
0100
0010
0001
0010
0000
,  // measure 35
0100
0000
0010
1000
0010
0100
0010
0000
,  // measure 36
1000
1000
0100
0100
0010
0000
0100
0000
,  // measure 37
0001
1000
0001
0000
1000
0001
1000
0000
,  // measure 38
0010
0000
0100
0010
0100
0001
0010
0000
,  // measure 39
1000
0000
0010
0100
0010
1000
0010
0000
,  // measure 40
0001
0001
0010
0010
0100
0000
0010
0000
,  // measure 41
1000
0100
0010
0001
1002
0000
0000
0013
,  // measure 42
0100
0010
0001
2000
,  // measure 43
3200
0000
0320
0000
0000
1030
0001
0000
,  // measure 44
0100
0010
0002
0023
,  // measure 45
0230
0000
1300
0000
0010
0100
0001
1000
,  // measure 46
0010
0000
0100
0000
0001
1000
0010
0001
,  // measure 47
0010
0000
0100
0000
0010
0010
1000
1000
,  // measure 48
0100
0010
0200
0010
,  // measure 49
1000
0000
0310
0000
0001
0000
1000
0010
,  // measure 50
0000
0010
0001
0010
0100
0010
0000
0100
,  // measure 51
0000
1000
0000
1000
0100
0000
0100
0010
,  // measure 52
0000
0001
0000
1000
0001
0100
0010
0100
,  // measure 53
0020
0000
0130
0000
0001
0001
0010
0010
,  // measure 54
0100
0000
1000
0000
0010
0010
0100
0100
,  // measure 55
0010
0000
1000
0000
0100
0100
0010
0010
,  // measure 56
0001
0000
1000
0000
0010
0000
0100
0001
,  // measure 57
1000
0010
0100
0000
0001
0001
0010
0010
,  // measure 58
0100
1000
0200
0000
0000
0000
0000
0000
,  // measure 59
0000
0300
1001
0000
0010
0100
0010
0000
,  // measure 60
0110
0000
1000
0001
0010
0001
0010
0000
,  // measure 61
0100
0000
0110
0000
0010
1000
0010
0000
,  // measure 62
0100
0001
0010
1000
0010
0001
0010
0000
,  // measure 63
0100
0000
1001
0000
0010
0100
1000
0000
,  // measure 64
0010
0100
0010
0000
0001
0010
0001
0000
,  // measure 65
0010
0000
0110
0000
0001
0010
1000
0000
,  // measure 66
1000
0100
0010
0100
0010
0001
0010
0000
,  // measure 67
0001
0000
0001
0010
0100
1000
1001
0000
;

//---------------dance-single - ----------------
#NOTES:
     dance-single:
     :
     Easy:
     4:
     0.253,0.247,0.047,0.135,0.000:
1000
0010
0100
0001
,
0010
0010
0100
0100
,
1000
0100
0001
0100
,
2000
3000
0100
0010
,
0001
0001
0010
0001
,
0010
0010
0100
0010
,
0100
0100
1000
0100
,
0010
0100
0020
0030
,
1000
0001
0100
0100
,
0001
1000
0010
0010
,
0001
0100
0010
0100
,
1000
1000
0100
0100
,
0010
0100
0010
0010
,
0001
0010
0001
0001
,
0100
0010
1000
0001
,
0100
0100
0010
0010
,
2000
3000
0200
0300
,
0020
0030
0002
0003
,
0020
0030
0200
0300
,
2000
3000
0020
0030
,
0100
0001
1000
0010
,
0100
0001
1000
0010
,
0100
0100
0010
0010
,
0200
0000
0310
0100
,
1001
0000
0010
0000
,
0100
0010
0001
0010
,
0110
0000
0100
0000
,
1000
1000
1000
0000
,
0100
0010
0001
0000
,
0001
0010
0100
1000
,
0100
0010
0100
0000
,
0100
0010
0100
0000
,
0001
0010
0100
0100
,
1000
0100
0010
0010
,
0100
0010
1000
1000
,
0100
0010
0200
0300
,
0001
1000
0001
0001
,
0010
0100
0010
0010
,
1000
0001
1000
1000
,
0001
0100
0002
0003
,
0000
0000
0000
0000
,
0100
0010
0100
0100
,
0001
0100
0002
0000
,
0013
0100
1000
0100
,
0010
0010
0100
0001
,
1000
1000
0100
0001
,
0010
0010
0001
1000
,
0010
0001
0200
0000
,
0010
0310
1000
0001
,
0100
0010
1000
1000
,
0200
0320
0031
0010
,
0100
0010
1000
1000
,
0002
0013
0100
0100
,
0010
1000
0010
0010
,
0001
0010
0100
0100
,
0010
1000
0001
0010
,
0100
1000
0010
0100
,
0010
0200
0000
0000
,
0000
0300
0110
0000
1000
0000
0001
0000
,
0001
0010
0001
0200
,
0310
1001
0001
0010
,
0100
0010
0010
0010
,
1000
1001
0100
0010
,
0001
0010
0100
0010
,
0100
0110
1000
0001
,
0100
0010
0010
0010
,
0100
0000
0000
1001
;
