#TITLE:Feel My Rhythm;
#SUBTITLE:;
#ARTIST:Red Velvet;
#TITLETRANSLIT:;
#SUBTITLETRANSLIT:;
#ARTISTTRANSLIT:;
#CREDIT:;
#BANNER:Feel My Rhythm banner.png;
#BACKGROUND:Feel My Rhythm bg.png;
#LYRICSPATH:;
#CDTITLE:;
#MUSIC:Feel My Rhythm.mp3;
#OFFSET:-15.720;
#SAMPLESTART:64.260;
#SAMPLELENGTH:15.000;
#SELECTABLE:YES;
#BPMS:0.000=79.200,16.000=158.000,180.000=78.900,196.000=158.000;
#STOPS:;
#BGCHANGES:4.000=Feel My Rhythm.avi=1.000=1=0=0,
99999=-nosongbg-=1.000=0=0=0 // don't automatically add -songbackground-
;

//---------------dance-single - ----------------
#NOTES:
     dance-single:
     :
     Hard:
     9:
     0.560,0.524,0.235,0.195,0.114:
0100
0000
0010
0000
0100
0001
1000
0001
,
0100
0000
1000
0000
0100
0010
0001
0010
,
0100
0000
0001
0000
0010
0010
0100
1000
,
0100
0010
1000
0002
,
1003
0010
0100
0010
0001
0010
0100
0000
,
0100
0010
1000
0001
0100
0000
0110
0010
,
1000
0000
0001
0010
0100
1000
0100
0010
,
0001
0000
1000
0010
0001
0000
1000
0010
,
0200
0300
0001
0010
2000
3000
0100
0010
,
0002
0003
0010
0100
0020
0030
0100
0001
,
2000
0000
3200
0000
0320
0000
0031
0001
,
0010
0100
1000
0000
0100
0000
1001
0000
,
0011
0010
0100
0010
0100
0100
1000
0100
,
0010
0100
0001
1000
0001
0000
0010
0000
,
0100
0010
1000
0001
0010
0001
1000
0100
,
1000
0100
0010
0001
0010
0000
1010
0000
,
2000
3000
0100
0010
0002
0003
0010
0100
,
2000
3000
0010
0100
0020
0030
0100
0100
,
0010
1000
0001
0000
0110
0000
0010
0100
,
0001
0010
1000
0010
0001
0010
0100
1000
,
0100
0000
0011
0000
0001
0010
0010
0100
,
0100
0000
0010
1000
1010
0000
0110
0000
,
1000
0100
0010
0001
0010
0100
1000
0100
,
0020
0000
0100
0100
0130
0000
1001
0000
,
0110
0000
1000
0010
0001
0010
0001
0010
,
1000
0000
1000
0010
0100
0010
0001
0010
,
0100
0110
0010
0110
,
1000
0000
0001
0000
1000
0000
0001
0000
0100
0010
0100
0010
0000
0000
0000
0000
,
1000
0100
0000
0000
0001
0010
0000
0000
0110
0000
0110
0000
1000
0000
0001
0000
,
1000
0100
0010
0001
0020
0000
0130
0000
,
0001
0010
0000
0000
1000
0100
0000
0000
0110
0000
0110
0000
0001
0000
0010
0000
,
0100
0010
0001
1000
1000
0000
0110
0000
,
1000
0010
0000
0000
0100
0000
0000
0100
0010
0000
0000
0000
0001
0000
1000
0000
,
0010
0010
0100
0010
0100
0000
0010
0000
,
0100
0001
1000
0010
1000
0100
2000
0000
,
0100
3100
0010
0100
0010
1000
0001
0000
,
0001
0010
0000
0010
0100
0100
0010
1000
,
1001
0000
0001
0010
0200
0000
0310
0000
,
1010
1000
0100
0010
0100
0010
0001
0000
,
0110
0010
1000
0001
0100
0000
0010
0000
,
0010
0100
0000
0000
0100
0010
0000
0000
1001
0000
1001
0000
0010
0000
0100
0000
,
0010
0000
0000
1000
0000
0000
0001
0000
0100
0000
0000
0000
0010
0000
0100
0000
,
0001
0000
0001
0100
0010
0000
1000
0010
,
0001
0010
0100
1000
0100
0000
0110
0000
,
1002
0000
0000
0000
0013
0000
0010
0100
0010
0000
1010
0000
2000
0000
0000
0000
,
3200
0302
2003
3020
,
0230
0000
0010
0000
0010
0010
0310
0000
,
0001
0000
0010
0000
1000
0000
0010
0000
0000
0000
0100
0010
0100
0000
1000
0000
,
0100
0000
0001
0000
1000
0100
0010
0001
,
0010
0100
0000
0000
0010
0000
1000
0000
0001
0000
0010
0000
0100
0000
0100
0010
,
0100
0001
1000
0010
0200
0000
1000
0300
,
0010
0001
0000
0000
0100
0010
0000
0000
1000
0000
0001
0000
0100
0000
0010
0100
,
0010
1000
0010
0001
0020
0000
0100
0030
,
0100
0001
1000
0100
0010
0100
1000
0000
,
0100
0000
0000
0010
0000
0000
0100
0000
0001
0000
1000
0000
0010
0000
0100
0000
,
0010
0000
0000
1000
0000
0000
0010
0000
0100
0000
0001
0000
0100
0000
0000
0000
,
0110
0000
0001
0000
0010
0100
1000
0100
,
0010
0000
0100
0010
0100
0000
1000
0000
0002
0000
0000
0000
0003
0000
0010
0000
,
0100
0010
0010
0000
0100
1000
0200
0000
,
0310
0001
0010
0000
0011
0000
0001
0010
,
0010
0100
1000
0100
0010
0001
0010
0100
,
1000
0001
1000
0001
1000
0001
1000
0010
0100
0010
0000
0000
,
0100
0010
0000
0000
1000
0001
0010
0000
0100
0000
0010
0000
1000
0000
0010
0000
,
0100
0001
1000
0010
0001
0000
1001
0000
,
0010
1000
0000
0000
0100
0001
0100
0000
0001
0000
0010
0000
0100
0000
0010
0000
,
0100
0001
1000
0010
0100
0000
0110
0000
,
0001
0010
0000
0000
0100
0000
0000
0010
0100
0000
1000
0000
0100
0000
0000
0000
,
0010
0010
0100
0001
1000
0010
0100
0000
,
0001
0010
0100
1000
0100
0010
0002
0000
,
0013
0100
0010
1000
0001
1000
0001
0100
,
0010
0010
0100
1000
1000
0100
0010
0100
,
0011
0000
0010
0100
1100
0100
0010
0000
,
0100
0010
0010
0100
0010
0010
0001
0010
,
0110
0100
1000
0001
2000
0000
3100
0000
,
1010
1000
0100
0001
0100
1000
0100
0100
,
0010
0000
0000
0100
0000
0000
0010
0000
0100
0000
0001
0000
1000
0000
0001
0000
,
0001
0000
0010
0100
1000
0100
0010
0000
,
1000
0001
0100
0010
0100
0000
0110
0000
,
1001
0000
0000
0000
;

//---------------dance-single - ----------------
#NOTES:
     dance-single:
     :
     Medium:
     6:
     0.422,0.393,0.087,0.155,0.000:
1000
0000
0100
0000
0010
0001
0010
0000
,
0001
0000
0010
0000
0100
1000
0100
0000
,
0010
0000
0100
0000
0001
1000
0001
0010
,
0010
0010
0000
0100
0010
0000
0200
0000
,
0310
0000
1000
0000
0100
0000
0010
0001
,
0010
0000
0100
0010
0100
0000
1000
1000
,
1000
0000
0100
0000
0010
0000
0100
0010
,
0100
0000
0010
0001
0010
0000
1000
0000
,
0002
0013
0100
1000
,
0200
0000
1300
0000
0100
0000
0010
0100
,
0010
0100
1000
0001
,
0100
0010
0100
0000
1000
0001
1000
0000
,
0100
0100
0010
0000
0010
0010
0001
0000
,
0010
0100
1000
0000
1000
0000
0100
0000
,
0001
0001
0010
0000
0010
0010
0100
0000
,
1000
0001
1000
0000
0100
0000
0110
0000
,
0010
0000
1000
0001
0100
0000
0100
0001
,
1000
0000
0100
0001
0100
0000
0100
1000
,
0100
0010
0100
1000
,
0001
1000
0020
0130
,
0020
1000
0100
1030
,
0100
0010
0001
0000
,
0020
0001
0100
0031
,
0100
0010
0100
0100
,
1001
0010
0100
0010
,
1010
1000
0100
1000
,
0110
0000
0001
0000
1000
0000
0001
1000
,
0001
0100
0000
0100
0010
0100
0000
0000
,
0110
0000
1001
0000
0001
0010
0000
0010
,
0100
1000
0200
0310
,
1000
0000
0100
0000
0100
0010
0000
1000
,
0001
0010
0100
0010
,
1000
0001
1000
0001
1000
0000
0100
0000
,
1000
0100
1000
0100
0010
0000
0010
0000
,
0002
0023
0230
2300
,
3100
0000
0010
0000
1000
0001
1000
0000
,
0010
0100
0000
0100
0010
0000
1000
0001
,
1000
0100
0010
0010
,
0001
0100
0000
0100
0001
0000
0010
0100
,
0010
0000
1000
0100
1000
0000
0010
0000
,
0100
0001
1000
0000
1000
0001
0000
0001
,
0010
0000
0010
0100
0010
0000
1000
0100
,
1000
0000
0100
0010
0100
0000
0110
0000
,
0010
0000
1000
0001
1000
0000
1001
0000
,
0010
0000
0100
0100
0100
0010
1000
0000
,
0200
0320
2030
3002
,
0023
0100
0001
0130
,
0010
0010
0100
0100
0000
1000
0010
0000
,
0020
0100
1000
0130
,
1000
1000
0100
0000
0010
0100
0010
0000
,
0001
0001
0010
0000
0100
0010
0100
0000
,
0001
0010
0100
0000
0010
0100
1000
0000
,
1000
0100
0010
0100
0010
0000
1000
0000
,
0001
0010
0100
0000
0010
0100
0010
0000
,
1000
0100
0010
0100
0010
0000
1000
0000
,
0010
0100
0010
0001
0010
0000
0100
0000
,
0001
1000
0010
0100
,
0020
0000
0000
0100
0130
0000
0010
0000
,
1000
0100
0010
0000
1000
0100
0001
0000
,
0001
0010
0100
0000
0110
0000
0000
0010
,
1000
0001
0100
0010
1000
0001
0200
0000
,
0010
0000
1000
0000
0010
0010
0310
0001
,
0010
0100
0010
1000
0001
0100
0000
0100
,
0010
1000
0001
0000
0010
0000
0100
0000
,
1000
0100
0010
0100
0010
0001
0000
0001
,
0010
1000
0010
0100
,
0100
0010
0100
0000
0110
0000
0001
0000
,
0010
0100
1000
0000
1100
0000
0100
0000
,
0001
1000
0001
1000
0010
0100
0020
0000
,
0130
0001
1000
0010
,
0100
0100
0000
0001
0010
1000
0010
0000
,
0100
0010
0100
0000
0002
0000
1003
0000
,
1000
0010
0000
0100
0010
0100
0100
0000
,
0010
1000
0010
0000
0200
0000
0301
0000
,
0010
0001
0010
0000
0010
0100
0000
0100
,
1000
0000
1000
0010
2000
0000
3000
1000
,
0100
0000
0100
0010
0100
0000
0110
0000
,
0001
0000
1000
0001
1000
0000
0001
0000
,
1001
0000
0000
0000
;

//---------------dance-single - ----------------
#NOTES:
     dance-single:
     :
     Easy:
     4:
     0.297,0.314,0.101,0.168,0.000: // measure 1
0200
0300
0010
0100
,  // measure 2
0002
0003
0010
0100
,  // measure 3
2000
3000
0100
0010
,  // measure 4
0100
0000
0100
0020
,  // measure 5
0130
0001
1000
0001
,  // measure 6
0010
0000
0010
0000
,  // measure 7
0100
0010
0100
1000
,  // measure 8
0100
0000
0100
0000
,  // measure 9
0010
0010
0001
0001
,  // measure 10
0010
0010
0100
0100
,  // measure 11
2000
3000
0100
0000
,  // measure 12
0010
0100
0100
0010
,  // measure 13
0100
0001
0100
0010
,  // measure 14
1000
0001
0010
0000
,  // measure 15
0100
0001
0010
1000
,  // measure 16
0010
0100
1000
0001
,  // measure 17
1000
1000
0100
0100
,  // measure 18
0010
0010
0001
0001
,  // measure 19
0010
0100
0010
0000
,  // measure 20
0100
0010
1000
0001
,  // measure 21
0100
0100
0010
0010
,  // measure 22
0002
0003
2000
3000
,  // measure 23
0010
0010
0100
0010
,  // measure 24
2000
3000
0200
0300
,  // measure 25
0010
0100
0001
1000
,  // measure 26
0010
0100
0001
0010
,  // measure 27
0100
0100
0100
0100
,  // measure 28
0020
0030
0200
0300
,  // measure 29
0110
0110
0010
0000
,  // measure 30
0010
0001
0110
0000
,  // measure 31
1001
1001
0001
0000
,  // measure 32
1000
1000
1001
0000
,  // measure 33
0100
0010
0200
0300
,  // measure 34
0010
0001
0020
0030
,  // measure 35
1000
0100
0010
0002
,  // measure 36
0003
0010
0100
0010
,  // measure 37
1000
1000
0100
0010
,  // measure 38
0100
0000
0010
0000
,  // measure 39
0100
0010
0001
0010
,  // measure 40
0100
0000
1000
0000
,  // measure 41
0100
0100
0010
0010
,  // measure 42
0001
1000
0001
0000
,  // measure 43
0010
0100
0100
0010
,  // measure 44
1000
0001
1000
1001
,  // measure 45
0010
0100
0100
0100
,  // measure 46
0010
0200
0310
0002
,  // measure 47
0023
0000
1030
0100
,  // measure 48
0100
0010
0100
0001
,  // measure 49
2000
3000
0100
0010
,  // measure 50
0100
0100
0010
1000
,  // measure 51
0001
0001
0010
0100
,  // measure 52
0010
0100
0100
1000
,  // measure 53
0100
0001
0001
0100
,  // measure 54
0010
1000
0010
1000
,  // measure 55
0100
0001
0100
0001
,  // measure 56
0010
0100
0010
0100
,  // measure 57
0110
0000
1000
0001
,  // measure 58
0020
0100
0130
0000
,  // measure 59
0010
0001
0010
0010
,  // measure 60
0100
1000
0200
0300
,  // measure 61
1000
0100
0010
0001
,  // measure 62
0020
0000
0000
0030
,  // measure 63
0110
1001
0110
0010
,  // measure 64
0100
0010
1000
0000
,  // measure 65
1001
0110
1001
0100
,  // measure 66
0010
0001
0010
0000
,  // measure 67
0100
0100
0010
0001
,  // measure 68
1000
1000
0100
0010
,  // measure 69
1000
0001
0100
0010
,  // measure 70
0100
0100
0010
0010
,  // measure 71
0001
0001
0010
0100
,  // measure 72
2000
3000
0002
0003
,  // measure 73
0100
0010
0100
0010
,  // measure 74
2000
3000
0020
0030
,  // measure 75
0100
0100
0001
0001
,  // measure 76
1000
0010
0100
0001
,  // measure 77
0010
0100
0100
0010
,  // measure 78
0001
0010
0100
1000
,  // measure 79
1001
0000
0000
0000
;
