#TITLE:FEARLESS;
#SUBTITLE:;
#ARTIST:LE SSERAFIM;
#TITLETRANSLIT:;
#SUBTITLETRANSLIT:;
#ARTISTTRANSLIT:;
#CREDIT:;
#BANNER:FEARLESS banner.png;
#BACKGROUND:FEARLESS bg.png;
#LYRICSPATH:;
#CDTITLE:;
#MUSIC:FEARLESS.mp3;
#OFFSET:-2.720;
#SAMPLESTART:83.440;
#SAMPLELENGTH:15.000;
#SELECTABLE:YES;
#BPMS:0.000=104.000;
#STOPS:;
#BGCHANGES:2.000=FEARLESS.avi=1.000=1=0=0,
99999=-nosongbg-=1.000=0=0=0 // don't automatically add -songbackground-
;

//---------------dance-single - ----------------
#NOTES:
     dance-single:
     :
     Hard:
     7:
     0.446,0.419,0.196,0.059,0.137:
0000
0000
0000
0000
,
1001
0000
0001
0010
0001
0000
0010
0100
,
0010
0000
0100
1000
0100
0000
0000
0000
,
0010
0100
0100
0010
0001
1000
0010
0010
,
0100
1000
0100
0010
0002
0000
1003
0000
,
0100
0010
0010
1000
0100
0001
0100
1000
,
0100
0010
0100
0100
0020
0000
0130
0000
,
1000
0000
0200
0000
0310
0000
0100
0000
0010
0000
0000
0001
0000
0000
0010
0000
,
0100
0000
0010
0000
1000
0000
0001
0000
0010
0000
0000
0100
0000
0000
1000
0000
,
0100
0010
1000
0001
0100
0100
0110
0010
,
0100
0010
0001
1000
2000
0000
3001
0000
,
0001
0000
0000
0110
0000
0000
1000
0000
0100
0000
0010
0000
0100
0000
0010
0000
,
1000
0000
0000
0100
0000
0000
0010
0000
0000
0001
0000
0000
0010
0000
0000
0000
,
1000
0000
0000
0110
0000
0000
0001
0000
1000
0000
0001
0000
1000
0000
0010
0000
,
0100
0000
0000
0010
0000
0000
0100
0000
0000
0001
0000
0000
1000
0000
0000
0000
,
0010
0100
0020
0000
0130
0000
1000
0001
,
2000
0000
0000
0000
3100
0000
0000
0000
0010
0100
0000
0000
0110
0000
0000
0000
,
1000
0000
0000
1001
0000
0000
0001
0000
0100
0000
0000
0000
0010
0000
1000
0000
,
0010
0000
0000
0100
0000
0000
0010
0000
0001
0000
1000
0000
0001
0000
0000
0000
,
1001
1000
1000
1000
0010
0100
0110
0010
,
0011
0001
0001
0001
0010
0100
0110
0100
,
1100
0100
0010
0010
0100
0001
0001
1000
,
0010
0000
0100
0000
0010
0000
0100
0000
0001
0000
0000
0010
0000
0000
0110
0000
,
1000
0010
0100
0010
0001
0001
0001
0011
,
0100
0010
1000
0001
0100
0100
0100
1100
,
0100
0010
1000
0100
0010
0010
0010
0110
,
0001
0000
1000
0000
0001
0000
0100
0000
0010
0000
0000
0100
0000
0000
0010
0000
,
1100
0000
0100
0010
0100
0000
0100
0001
,
0100
0000
0001
1000
0001
0000
0010
0000
,
0110
0000
0001
1000
0001
0000
0010
0100
,
0010
0000
0010
0000
0100
0000
0100
0000
0001
0000
0000
1000
0000
0000
0001
0000
,
0100
0000
0010
0000
1000
0000
0000
0000
0010
0000
0000
0100
0000
0000
0010
0000
,
1000
0000
0100
0000
0010
0000
0000
0000
0100
0000
0000
0001
0000
0000
0100
0000
,
0010
0000
0001
0000
1000
0000
0010
0000
0100
0000
0000
0010
0000
0000
0100
0000
,
0010
0000
0000
0000
0000
0000
1000
0000
0001
0000
0000
1000
0000
0000
0001
0000
,
0100
0000
0010
0000
0100
0000
0001
0000
1000
0000
0001
1000
0001
0000
0100
0000
,
0010
0000
0001
0000
0010
0000
0100
0000
1000
0000
0100
0010
0100
0000
0010
0000
,
0100
0000
0010
0000
1000
0000
0001
0000
0100
0000
0010
0100
0010
0000
0100
0000
,
0001
0000
1000
0001
1000
0000
0010
0000
0100
0000
0000
0010
0000
0000
0100
0000
,
0011
0000
0010
0000
0010
0000
0010
0000
0100
0000
1000
0000
0100
0010
0100
0000
,
0010
0000
1000
0000
1000
0000
1000
0000
0100
0000
0010
0000
1000
0001
1000
0000
,
1001
0000
0001
0000
0001
0000
0001
0000
0010
0000
0100
0000
0001
1000
0001
0000
,
0100
0000
0010
0100
0010
0000
1000
0000
0001
0000
0000
1000
0000
0000
1001
0000
;

//---------------dance-single - ----------------
#NOTES:
     dance-single:
     :
     Challenge:
     8:
     0.585,0.587,0.205,0.049,0.572:
0000
0000
0000
0000
,
0011
0000
0000
0010
0100
0010
0100
0000
1000
0000
0000
0100
0010
0100
0010
0000
,
0001
0000
0000
0010
0100
0010
0100
0000
1000
0000
0000
0000
0000
0000
0000
0000
,
1000
0000
0100
0000
0010
0000
0100
0001
0100
0000
0010
0000
0001
0010
0001
0000
,
0010
0000
0100
0000
0010
0100
0010
0000
2000
0000
0000
0000
3001
0000
0000
0000
,
0010
0000
0100
0000
0010
0000
1000
0100
0010
0000
0100
0000
0010
0001
0010
0000
,
0100
0000
0010
0000
0001
0010
0100
0000
0020
0000
0000
0000
0130
0000
0000
0000
,
0001
0000
1000
0000
0100
0000
0010
0000
0001
0000
1000
0001
0000
0001
0010
0100
,
1000
0000
0100
0000
0010
0000
0001
1000
0001
0000
0001
0010
0000
0000
0100
0000
,
0010
1000
0010
0100
0010
0010
0110
0100
,
1000
0000
0001
0000
0100
0010
0100
0000
0002
0000
0000
0000
1003
0000
0000
0000
,
0110
0000
0000
0010
0000
0000
0110
0000
1000
0000
0001
0000
0100
0000
0010
0100
,
0010
0000
0000
1000
0000
0000
0001
0000
0000
0100
0000
0000
0010
0000
0000
0000
,
0011
0000
0000
0100
0000
0000
1100
0000
0010
0000
0100
0000
0010
0000
1000
0001
,
1000
0000
0000
0010
0000
0000
0100
0000
0000
0001
0000
0000
0010
0000
0000
0000
,
1000
0001
0200
0010
0310
0000
0010
0100
,
0002
0000
1000
0000
1003
0000
0000
0000
0010
0100
0000
0000
0110
0000
0000
0001
,
1000
0000
0000
0110
0000
0000
0001
0000
0100
0000
0010
0000
1000
0000
0001
0010
,
0001
0000
0000
0010
0000
0000
0100
0000
1000
0000
0100
0010
0100
0000
0000
0000
,
0110
0000
0001
1000
0001
1000
0001
0000
0010
0100
0010
0100
1000
0100
0010
0000
,
0100
0000
0001
0010
0001
0010
0001
0000
1000
0100
0010
0001
0010
0100
1000
0000
,
0010
0000
1000
0100
1000
0100
1000
0000
0001
0010
0100
1000
0100
0010
0001
0000
,
0110
0000
1000
0001
1000
0000
0100
0000
0010
0000
0000
0010
0000
0000
0100
0000
,
0010
0000
0001
0010
0100
1000
0100
0000
0010
0100
0010
1000
0001
0100
0010
0000
,
0100
0000
0001
1000
0010
0001
0010
0000
0010
0100
1000
0100
0010
0001
0010
0000
,
0100
0000
1000
0010
0100
0001
1000
0000
1000
0100
0010
0001
0010
0100
1000
0000
,
0110
0000
0001
1000
0001
0000
0010
0000
0100
0000
0000
0100
0000
0000
0010
0000
,
1100
0000
0000
0100
0010
0100
0010
0000
0001
0000
0000
0001
0010
0100
1000
0000
,
1000
0000
0000
0010
0100
0010
0100
0000
0010
0000
0000
0000
0001
0000
1000
0000
,
0011
0000
0000
0010
0100
0010
0100
0000
0010
0000
0000
1000
0100
0010
0001
0000
,
0010
0000
0100
0010
0100
0000
0001
0000
1000
0000
0000
1000
0000
0000
0001
0000
,
0100
0000
0010
0000
0100
0000
0100
0000
0010
0000
1000
0010
0000
0000
0110
0000
,
0010
0000
0001
0000
0100
0000
0010
0000
0001
0000
0010
0100
0000
0000
0110
0000
,
1000
0100
1000
0000
0100
0000
0010
0000
0100
0000
0001
1000
0000
0000
0010
0000
,
0100
0000
0000
0000
0000
0000
0010
0000
0100
0000
0000
0010
0000
0000
0110
0000
,
1001
0000
0001
1000
0010
0001
0100
0000
0100
0010
1000
0001
0010
0100
0010
0000
,
0100
0000
0001
0010
0100
0010
0001
0000
0010
1000
0100
0010
0100
1000
0100
0000
,
0010
0000
0100
1000
0001
0100
1000
0000
1000
0100
0010
0001
0010
0100
1000
0000
,
0011
0000
1000
0001
0100
0000
0100
0000
0010
0000
0000
0100
0000
0000
0110
0000
,
0001
0000
1000
0010
0001
0100
0010
0000
0010
0100
0010
0100
1000
0001
1000
0000
,
0100
0000
0010
1000
0010
0100
0010
0000
0001
1000
0001
0010
0001
0010
1000
0000
,
1000
0000
0010
0100
0010
0100
0010
0000
1000
0001
0100
0010
1000
0001
0100
0000
,
1100
0000
0100
0010
0001
0000
0010
0000
1000
0000
0000
0001
0000
0000
1001
0000
;

//---------------dance-single - ----------------
#NOTES:
     dance-single:
     :
     Medium:
     6:
     0.317,0.272,0.108,0.029,0.000:
0000
0000
0000
0000
,
0010
0000
0100
0100
0100
0000
0001
0001
,
0001
0000
0010
0010
0010
0000
0000
0000
,
0100
0010
1000
0001
,
0100
0000
0010
1000
0010
0000
0010
0000
,
0100
0001
0010
1000
,
0010
0000
0100
0001
0100
0000
0100
0000
,
0010
0010
0010
0000
1000
0000
0100
0000
,
0001
0001
0001
0000
0010
0000
0100
0000
,
0010
0000
1000
0000
0001
1000
0001
0000
,
1000
0000
0100
0010
0100
0000
0100
0000
,
0010
0000
1000
0001
2000
0000
3000
0100
,
0010
0000
0010
0100
0000
0100
0010
0000
,
1000
0000
0001
1000
0002
0000
0003
0010
,
0100
0000
0100
0010
0000
0010
0100
0000
,
1000
0001
1000
0000
1100
0000
0100
0010
,
0100
0010
0002
0003
,
0010
0000
0100
0010
0100
0000
0001
1000
,
0001
0000
0100
0010
0000
0010
0100
0000
,
1001
0000
0010
0000
0100
0100
0100
0010
,
0100
0000
0001
0000
1000
1000
1000
0100
,
1000
0000
0010
0000
0001
0001
0001
0010
,
0100
0100
0100
0100
0010
0000
1000
0000
,
0001
0000
1001
0000
1000
0010
1000
0000
,
0100
0000
0110
0000
0010
0001
0010
0000
,
1000
0000
1010
0000
0010
1000
0010
0000
,
0001
0001
0001
0000
0100
0000
0100
0000
,
0010
0000
0100
0001
0100
0000
0100
0010
,
0100
0000
1000
0100
1000
0000
0000
0000
,
0010
0000
1000
0010
1000
0000
0100
0010
,
0100
0100
0001
1000
,
0010
0110
0100
0100
,
0001
0011
0010
0010
,
1000
0001
0100
0100
,
0010
0000
0000
0100
0010
0000
0100
0000
,
0110
0000
1000
0000
0010
0100
0010
1000
,
0001
0000
0001
0000
0010
0100
1000
0100
,
0010
0000
0100
0000
0010
1000
0001
0100
,
0010
0010
0110
0100
,
1010
0000
0010
0000
0100
0010
0001
1000
,
0010
0000
0010
0000
0100
0001
0010
1000
,
0100
0000
0100
0000
1000
0001
0100
0010
,
0100
0000
0100
0000
0001
0000
1000
1001
;

//---------------dance-single - ----------------
#NOTES:
     dance-single:
     :
     Easy:
     3:
     0.244,0.231,0.078,0.059,0.000: // measure 1
0000
0000
0000
0000
,  // measure 2
0010
0010
0010
0100
,  // measure 3
0100
0001
1000
0000
,  // measure 4
1000
0100
0010
0100
,  // measure 5
0010
0001
0020
0130
,  // measure 6
0000
0001
0010
1000
,  // measure 7
0010
0001
0200
0310
,  // measure 8
0100
0100
0100
0001
,  // measure 9
1000
1000
1000
0100
,  // measure 10
0010
0100
0001
1000
,  // measure 11
0010
0010
0100
0100
,  // measure 12
0001
0001
0020
0030
,  // measure 13
1000
0100
0010
0001
,  // measure 14
0100
0100
2000
3000
,  // measure 15
0001
0010
0100
1000
,  // measure 16
0010
0010
0010
0100
,  // measure 17
0001
1000
0001
0000
,  // measure 18
0001
0010
0200
0310
,  // measure 19
1000
0001
0100
0100
,  // measure 20
0110
0010
1000
1000
,  // measure 21
0110
0100
0001
0001
,  // measure 22
1001
0100
0010
0010
,  // measure 23
1000
1000
1000
0100
,  // measure 24
0001
0010
0100
0100
,  // measure 25
0010
0001
1000
1000
,  // measure 26
0100
0010
0100
0100
,  // measure 27
0010
0010
1000
0001
,  // measure 28
0100
0010
0010
0100
,  // measure 29
0001
1000
1000
0000
,  // measure 30
1000
0100
0100
0010
,  // measure 31
0100
0001
0010
0100
,  // measure 32
1000
0110
0001
0001
,  // measure 33
0001
0110
1000
1000
,  // measure 34
0100
0010
0100
0100
,  // measure 35
0010
0000
1000
0001
,  // measure 36
1001
0100
0010
0010
,  // measure 37
0100
0001
1000
1000
,  // measure 38
0100
0010
1000
1000
,  // measure 39
0100
0010
0200
0310
,  // measure 40
1001
0010
0001
0001
,  // measure 41
0100
0010
1000
1000
,  // measure 42
0010
0100
0010
0010
,  // measure 43
1000
0000
0100
0000
0010
0000
0000
1001
;
