#TITLE:ELEVEN;
#SUBTITLE:;
#ARTIST:IVE;
#TITLETRANSLIT:;
#SUBTITLETRANSLIT:;
#ARTISTTRANSLIT:;
#CREDIT:;
#BANNER:ELEVEN banner.png;
#BACKGROUND:ELEVEN bg.png;
#LYRICSPATH:;
#CDTITLE:;
#MUSIC:ELEVEN.mp3;
#OFFSET:-9.780;
#SAMPLESTART:41.900;
#SAMPLELENGTH:15.000;
#SELECTABLE:YES;
#BPMS:0.000=120.000,55.000=107.000,62.000=120.000;
#STOPS:;
#BGCHANGES:;

//---------------dance-single - ----------------
#NOTES:
     dance-single:
     :
     Hard:
     7:
     0.484,0.424,0.210,0.079,0.131:
1000
0100
0010
0001
0000
0001
0010
0100
,
0000
0100
0010
1000
0000
0001
0010
0100
,
0010
1000
0100
0010
0000
0100
0010
0100
,
0000
0001
1000
0010
0000
0100
0000
0110
,
0010
0001
1000
0010
0000
0100
0001
1000
,
0000
1000
0100
0010
0000
0010
0100
0001
,
1000
0000
0010
0000
0100
0000
0001
0000
0010
0000
0000
1000
0100
0000
0010
0000
,
0001
0000
0010
0100
0010
0001
1000
0010
,
1001
0000
0000
0010
0001
0000
0010
0000
0100
0000
0000
0010
0100
0000
1000
0000
,
0200
0000
0310
0000
0100
0001
1000
0010
,
0110
0000
0000
1000
0001
0000
0010
0000
0001
0000
0000
0010
0100
0000
1000
0000
,
0002
0000
0013
0000
0100
0010
0010
1000
,
0101
0000
0000
0010
0100
0000
0010
0000
1100
0000
0000
0100
0010
0000
1000
0000
,
0001
0010
0100
1000
,
0001
0010
0100
1000
0100
0010
0001
0010
,
0100
0010
1000
0001
1001
0000
0010
0100
,
0110
0001
1000
0010
0200
0000
0310
0001
,
0010
0000
0100
0000
0010
0000
1000
0000
0001
0010
0000
0000
0200
0000
0000
0000
,
1300
0010
0001
1000
1001
0000
0100
0010
,
0010
1000
0001
0100
0020
0000
0130
0000
,
0011
0000
0010
0000
0110
0000
0100
0000
1100
0000
0000
0000
1000
0100
0010
0001
,
0010
0100
0001
1000
0010
0000
0100
0010
,
0001
0001
0010
0010
0100
1000
0100
0010
,
1001
0000
0000
0000
0000
0000
0000
0000
0000
0000
0000
0000
0001
0000
0000
0000
0010
0000
0000
0000
0100
0000
0000
0000
1000
0000
0000
0000
0100
0000
0000
0000
0010
0000
0000
0000
0001
0000
0000
0000
0000
0000
0000
0000
0000
0010
0000
0000
,
0100
0000
0010
0001
0010
0000
0010
0000
0100
0000
1000
0100
1000
0000
0010
0000
,
0100
1000
0001
0100
0010
1000
0100
0001
,
0101
0001
0000
0010
0100
0010
1000
0100
,
1010
0100
0000
0100
0010
1000
0001
0010
,
0100
0000
0010
1000
0010
0000
0100
0000
0001
0000
0010
0001
0010
0000
0100
0000
,
0010
1000
0100
0001
0010
0100
0010
1000
,
1001
1000
0100
0010
0100
0001
1000
0010
,
0110
0010
0000
0100
0010
1000
0001
0100
,
0001
0010
2000
0000
3000
0000
0000
0000
0000
0000
0000
0000
0000
0000
0000
0000
;

//---------------dance-single - ----------------
#NOTES:
     dance-single:
     :
     Medium:
     5:
     0.344,0.339,0.079,0.105,0.000:
0000
1000
0000
0100
0000
0010
0000
0001
,
0000
0010
0000
0100
0000
0010
0000
1001
,
0000
0010
0000
0001
0000
0100
0000
0010
,
0000
1000
0000
0100
0000
0010
0000
0011
,
0000
0010
0000
0100
0000
0100
0000
0010
,
0000
0010
0000
1000
0000
1000
0000
0100
,
0000
0001
1000
0001
0010
0000
0100
0000
,
1001
0000
0000
0000
1000
0000
0100
0010
,
0100
0000
0010
0001
0010
0000
0010
1000
,
0020
0000
0130
0000
0001
1000
0001
0010
,
0001
0000
0100
1000
0100
0000
0010
0100
,
0020
0000
1030
0000
0100
0010
1000
0100
,
0001
0000
0001
0010
0100
0000
0010
0100
,
1000
0100
0010
0001
,
0010
0010
0100
0100
,
0001
0000
1000
0000
0001
0000
0000
1000
,
0001
0010
0001
0100
0010
0000
0000
0010
,
0100
0010
1000
0100
0001
0000
0002
0000
,
0013
0000
0100
0010
0100
0000
1000
0100
,
0010
0000
0010
0100
1000
0000
0100
0000
,
0010
1000
0001
0000
0110
0000
0001
1000
,
0010
0000
0100
0000
1001
0000
0100
0010
,
1000
1000
0100
0100
0010
0010
0001
0002
,
0000
0003
0010
0100
0010
0100
0010
0000
,
1001
0000
0100
0010
0020
0000
0031
0100
,
0100
1000
0100
0000
0010
1000
0100
0000
,
0100
0000
0001
0000
0010
0001
0100
0000
,
0100
0000
0010
0000
1000
0100
0010
0001
,
0010
0000
0100
0010
0200
0000
1300
0100
,
0010
0000
0010
0000
0001
0000
0100
0010
,
1000
0000
1000
0001
0100
0000
0100
0010
,
0001
0000
0001
0000
0010
0100
0010
0000
,
2000
0002
3003
0000
0000
0000
0000
0000
;

//---------------dance-single - ----------------
#NOTES:
     dance-single:
     :
     Easy:
     2:
     0.238,0.231,0.066,0.066,0.000: // measure 1
1000
0100
0010
0001
,  // measure 2
1000
0010
0001
0100
,  // measure 3
0010
0001
0100
0010
,  // measure 4
1000
0100
0001
0010
,  // measure 5
0100
0100
0010
0010
,  // measure 6
0001
0001
1000
1000
,  // measure 7
0100
0010
0100
0001
,  // measure 8
1001
0000
0000
0100
,  // measure 9
0010
0100
0100
1000
,  // measure 10
0200
0300
0010
0001
,  // measure 11
0010
0100
0010
0001
,  // measure 12
2000
3000
0100
0010
,  // measure 13
0010
0100
0010
1000
,  // measure 14
0200
0300
0010
0010
,  // measure 15
0100
0100
0001
0001
,  // measure 16
1000
0010
0100
0000
,  // measure 17
1001
0010
0001
0000
,  // measure 18
1001
0100
0010
0010
,  // measure 19
0100
0010
1000
0100
,  // measure 20
0010
0001
0020
2030
,  // measure 21
3100
0100
0100
0010
,  // measure 22
0001
0001
0001
0010
,  // measure 23
1000
0001
1000
0001
,  // measure 24
0000
1000
0010
0010
,  // measure 25
1001
0010
0001
0100
,  // measure 26
0010
1000
0100
0010
,  // measure 27
0100
0000
0100
0010
,  // measure 28
1000
0000
1000
0100
,  // measure 29
0100
0010
0001
0100
,  // measure 30
0010
1000
0100
0001
,  // measure 31
0010
0000
0010
0001
,  // measure 32
0100
0000
0001
1000
,  // measure 33
1001
0000
0000
0000
;
