#TITLE:E-MO-TION;
#SUBTITLE:;
#ARTIST:Carly Rae Jepsen;
#TITLETRANSLIT:;
#SUBTITLETRANSLIT:;
#ARTISTTRANSLIT:;
#CREDIT:;
#BANNER:EMOTION banner.png;
#BACKGROUND:EMOTION bg.png;
#LYRICSPATH:;
#CDTITLE:;
#MUSIC:E•MO•TION.mp3;
#OFFSET:-2.040;
#SAMPLESTART:34.080;
#SAMPLELENGTH:15.000;
#SELECTABLE:YES;
#BPMS:0.000=114.000;
#STOPS:;
#BGCHANGES:;

//---------------dance-single - ----------------
#NOTES:
     dance-single:
     :
     Hard:
     7:
     0.448,0.385,0.185,0.114,0.128:
0010
0000
0100
0001
0010
1000
0010
0010
,
0100
0000
0010
0001
0010
0100
0010
1000
,
0100
0000
0100
0100
0010
0010
1000
0100
,
0001
0100
1000
0010
0100
0010
0001
1000
,
0001
0000
0010
0100
0010
0010
1000
0100
,
0010
0000
0001
1000
0001
0100
0010
0010
,
0100
0000
1000
0001
0100
0001
1000
0001
,
0100
0001
0010
0010
0100
1000
0100
0000
,
0010
0010
0100
0100
0001
1000
0002
0000
,
0013
0000
0100
0000
0010
1000
0010
0100
,
0020
0000
0000
1030
0000
0000
0200
0000
0000
0301
0000
0000
0110
0000
0000
0000
,
1000
0001
0100
0010
,
1000
1000
0100
0100
0010
0001
0020
0000
,
0130
0000
0000
0000
0010
0000
0100
0000
0001
0000
1000
0000
0020
0000
0000
0130
,
0000
0000
2000
0000
0000
3001
0000
0000
0110
0000
0000
0000
1000
0000
0000
0000
,
0100
0000
0000
0000
0001
0000
0010
0000
1000
0000
0000
0100
0000
0000
0010
0000
,
1001
0000
0000
0000
0010
0000
0000
0000
0100
0000
0000
0010
0000
0000
0100
0000
,
0001
0000
0000
0010
0000
0000
0100
0000
0100
0000
0000
0000
1000
0000
0100
0000
,
0010
1000
0001
0100
0010
1000
0001
0100
,
0020
0000
0000
0000
0032
0000
0000
0000
0013
0000
0000
0100
0000
0000
0010
0000
,
1100
0000
0000
0000
1000
0000
0000
0000
0100
0000
0000
0001
0000
0000
0100
0000
,
0010
0000
0000
1000
0000
0000
0010
0000
0010
0000
0000
0000
0101
0000
0010
0000
,
0001
1000
0001
1000
0010
1000
0001
1000
,
0100
0100
0010
0110
,
1001
0000
0000
0000
0010
0000
0100
0000
0001
0000
0000
0000
0010
0000
0000
0100
,
0000
0010
0001
0000
1000
0000
0001
0000
0100
0000
0000
0100
0000
0000
0010
0000
,
0110
0000
0000
0000
1000
0000
0001
0000
0010
0000
0000
0000
0100
0000
0000
1000
,
0000
0100
0010
0000
0100
0000
0001
0000
1000
0000
0000
0000
0001
0000
0000
0000
,
0110
0000
0000
0000
0010
0000
0100
0000
0010
0000
0000
0000
1100
0000
0000
0100
,
0000
0010
0100
0000
0001
0000
1000
0000
0010
0000
0000
0010
0000
0000
0000
0000
,
1000
0100
0010
0001
0010
0100
1000
0100
,
1010
0101
0010
1001
;

//---------------dance-single - ----------------
#NOTES:
     dance-single:
     :
     Medium:
     4:
     0.326,0.294,0.128,0.029,0.000:
1001
0010
0010
0100
,
0010
1000
0100
0001
,
0001
0010
0100
0010
,
1000
0000
0100
0000
0010
0000
0001
1000
,
0001
0100
0010
1000
,
1000
0100
0010
0001
,
0001
0100
0010
1000
,
0001
0100
0010
0010
,
0100
0010
0100
0000
0001
1000
0001
0000
,
0010
0100
1000
1000
,
0100
0000
0010
1000
0000
0001
0100
0000
,
0010
0010
0100
0001
,
1000
0010
1000
0000
0100
0001
0100
0000
,
0010
0000
1001
0000
0100
0010
0100
0000
,
0001
0000
0010
0100
0000
0100
0010
0000
,
1000
0000
0010
0100
0010
0000
0100
0000
,
1001
0000
0100
0000
0010
0000
1000
0010
,
0100
0100
0001
0011
,
0100
0010
0100
0000
0001
1000
0001
0000
,
0010
0110
0100
0100
,
0011
0000
0010
0000
0100
1000
0100
0000
,
0010
0000
0100
0000
0001
0010
0001
0000
,
0100
0010
1000
0000
1000
0010
0100
0000
,
0100
0110
1000
0001
,
0200
0320
0031
0100
,
0010
0000
0100
0001
1000
0000
0010
0000
,
0100
0000
0010
1000
0001
0000
0100
0000
,
0010
0010
0010
0000
0100
0000
1000
0000
,
0010
0110
0100
1000
,
0001
0100
1000
0000
1000
0100
0001
0000
,
0100
0010
0100
0000
0010
0000
0100
0000
,
0001
1000
0000
1001
;

//---------------dance-single - ----------------
#NOTES:
     dance-single:
     :
     Easy:
     2:
     0.259,0.249,0.114,0.043,0.000: // measure 1
0010
0000
0010
0100
,  // measure 2
0010
0000
1000
0001
,  // measure 3
1000
0000
0100
0100
,  // measure 4
0001
0001
1000
0010
,  // measure 5
0100
0000
0100
1000
,  // measure 6
0100
0000
0010
0001
,  // measure 7
0010
0000
0100
0100
,  // measure 8
0001
0001
1000
0010
,  // measure 9
0100
0001
1000
0020
,  // measure 10
0030
0100
0010
0010
,  // measure 11
0100
0001
1000
0020
,  // measure 12
0030
0100
0100
1000
,  // measure 13
0001
1000
0010
0200
,  // measure 14
0300
0001
0010
0010
,  // measure 15
0100
0010
1000
0001
,  // measure 16
0000
0001
0010
0010
,  // measure 17
1001
0100
0010
0010
,  // measure 18
0100
0010
1000
0100
,  // measure 19
0001
0001
0010
0010
,  // measure 20
0100
0110
0010
1000
,  // measure 21
1001
0000
0001
0010
,  // measure 22
0100
0100
0010
0010
,  // measure 23
1000
0001
0100
0010
,  // measure 24
1000
1000
0100
0100
,  // measure 25
0110
1001
0010
0100
,  // measure 26
0010
0010
0001
0001
,  // measure 27
0010
0100
0010
1000
,  // measure 28
0100
0100
0010
0010
,  // measure 29
0110
1001
0010
0100
,  // measure 30
0010
0010
1000
1000
,  // measure 31
0100
0001
1000
0010
,  // measure 32
0001
1000
0000
1001
;

//---------------dance-single - ----------------
#NOTES:
     dance-single:
     :
     Challenge:
     8:
     0.503,0.430,0.328,0.114,0.513:
1001
0000
0000
0000
0010
0000
0100
0001
0000
1000
0000
0001
0000
0100
0000
0010
,
0000
0000
0000
0000
0100
1000
0000
0100
0000
0010
0000
0001
0000
0010
0000
0100
,
0000
0000
0000
0000
0110
0000
0010
1000
0000
0001
0000
0100
0000
0010
0000
0100
,
0000
0100
0000
0001
0000
0001
0000
0010
0000
0100
0000
1000
0000
0100
0000
0010
,
0000
0000
0000
0000
0101
0000
1000
0010
0000
0100
0000
0001
0000
1000
0000
0010
,
0000
0000
0000
0000
0001
0010
0000
0100
0000
0010
0000
0100
0000
1000
0000
1000
,
0000
0000
0000
0000
1000
0010
0000
0110
0000
0100
0000
0001
0000
1000
0000
0001
,
0000
0100
0000
0010
0000
0100
0000
0001
0000
1000
0000
0010
0000
0010
0000
0000
,
1001
0000
0010
0000
0100
0000
0001
0000
1000
0000
0010
0000
0200
0000
0000
0010
,
0300
0001
0010
0001
0010
0010
0100
1000
,
0110
0000
0000
0100
0000
0000
1100
0000
0000
0100
0000
0000
1001
0000
0000
0000
,
0010
0100
0010
0000
1000
0000
0001
0000
1000
0000
0000
0000
0110
0000
0000
0000
,
0001
0000
0010
0000
0100
0000
1000
0000
0100
0000
0010
0000
0002
0000
0000
0010
,
0003
0010
0100
0010
1000
1000
0100
0010
,
0011
0000
0000
0110
0000
0000
1100
0000
0000
1001
0000
0000
0110
0000
0000
0000
,
0100
0000
0000
0000
0001
0000
1000
0000
0010
0000
0000
0100
0000
0000
0010
0000
,
1000
0001
0000
0000
0100
0000
0010
0000
1000
0000
0000
0010
0000
0000
1000
0000
,
0010
0000
0000
0100
0000
0000
0010
0000
0011
0000
0000
0000
0001
0000
0010
0000
,
0100
0100
0010
1000
0010
0100
0001
1000
,
0020
0000
0000
0000
0230
0000
0000
0000
0310
0000
0000
1000
0000
0000
0001
0000
,
0100
0010
0000
0000
0100
0000
0010
0000
1000
0000
0000
0001
0000
0000
1000
0000
,
0010
0000
0000
1000
0000
0000
0010
0000
0100
0010
0000
0000
0110
0000
1000
0000
,
0001
0100
0010
1000
0001
0100
0010
0001
,
0100
1100
0100
0020
,
0130
0000
0001
0000
1000
0000
0010
0000
0100
0000
0000
0000
0110
0000
0000
0010
,
0000
0001
0010
0000
0100
0000
0010
0000
1000
0000
0000
0100
0000
0000
0010
0000
,
0001
0000
0100
0000
0010
0000
1000
0000
0100
0000
0000
0000
0110
0000
0000
0001
,
0000
1000
0010
0000
0100
0000
0010
0000
0110
0000
0000
0000
1001
0000
0000
0000
,
0010
0000
0000
0000
0200
0000
0010
0000
0310
0000
0000
0000
1001
0000
0000
0100
,
0000
1000
0100
0000
0001
0000
0100
0000
0010
0000
0000
0010
0000
0000
0100
0000
,
1000
0100
0010
0001
0010
0100
1000
0100
,
0020
0000
0230
0000
0301
1000
1001
0000
;
