#TITLE:Duty;
#SUBTITLE:;
#ARTIST:浜崎あゆみ;
#TITLETRANSLIT:;
#SUBTITLETRANSLIT:;
#ARTISTTRANSLIT:Ayumi Hamasaki;
#CREDIT:;
#BANNER:Duty banner.png;
#BACKGROUND:Duty bg.png;
#LYRICSPATH:;
#CDTITLE:;
#MUSIC:Duty.mp3;
#OFFSET:-10.480;
#SAMPLESTART:72.460;
#SAMPLELENGTH:15.000;
#SELECTABLE:YES;
#BPMS:0.000=91.940;
#STOPS:;
#BGCHANGES:;

//---------------dance-single - ----------------
#NOTES:
     dance-single:
     :
     Challenge:
     9:
     0.484,0.480,0.052,0.244,0.523:
1000
0100
0010
0001
0020
0000
0030
0100
0002
0000
0003
0010
0200
0000
0310
0001
,
0010
0100
0010
1000
0200
0000
0300
0010
2000
0000
3000
0100
0020
0000
0031
1000
,
0100
0010
1000
0100
0020
0000
0030
0100
0002
0000
0003
0010
0200
0000
1300
0010
,
0100
0001
1000
0010
0200
0000
0300
1000
0020
0000
0030
0100
0002
0000
0013
1000
,
0100
0010
1000
0100
0002
0000
0003
0010
0200
0000
0300
1000
0200
0000
0310
0001
,
1000
0010
0100
0001
0020
0000
0030
0001
0020
0000
0030
0100
2000
0000
3100
0001
,
0010
0100
0010
1000
0200
0000
0300
0010
0002
0000
0003
0010
2000
0000
3100
0010
,
0200
0000
0000
0300
,
0010
0000
0100
0000
0010
1000
0010
0000
0100
0000
0010
1000
0000
0100
0000
0010
,
0001
0000
0000
0000
0010
0001
0010
0000
1000
0000
0100
0010
0000
0100
0000
0010
,
0100
0000
0000
0000
1000
0100
0010
0000
0100
0000
0010
0001
0000
1000
0000
0100
,
0010
0000
0000
0000
0010
0100
0010
0000
1000
0000
0100
0001
0000
0100
0000
1000
,
0100
0000
0000
0000
0010
0000
0010
0000
0100
0000
0001
1000
0000
0010
0000
0100
,
0001
0000
0010
0000
0100
0000
0010
0000
1000
0000
0100
1000
0000
0100
0000
0010
,
0001
0000
0010
0100
0020
0000
1030
1000
,
0100
0000
0010
0000
0001
0000
0010
0000
0100
0000
0010
0000
1000
0000
0000
0100
,
0000
0000
0010
0000
0001
0000
0010
0000
0100
0000
0010
0100
0000
1000
0000
0100
,
0000
0000
0010
0000
0100
0000
0010
0000
0001
0000
1000
0100
0000
0010
0000
0100
,
0010
0000
0100
0100
0020
0000
1030
0100
,
0001
0000
0000
0000
0001
0000
0100
0000
1000
0000
0100
0000
0010
0000
0001
0010
,
0001
0000
0010
0100
0000
1000
0000
0100
0010
0000
0000
0000
0100
0000
0010
1000
,
0010
0000
0100
0001
0000
1000
0000
0010
0100
0000
0000
0000
0010
0000
0100
0000
,
0001
0000
0010
1000
0100
0000
0010
0010
,
0200
0000
0000
0000
0310
0000
0001
0000
1000
0000
0010
0000
0100
0001
1000
0010
,
0100
0000
0001
0010
0000
0000
0010
0000
0010
0100
0000
0000
0100
0000
0100
1000
,
0000
0000
1000
0000
1100
0000
0200
0000
0310
0000
0001
0010
0100
0000
0010
0000
,
0001
0000
1000
0001
0000
0001
2000
0000
0000
0000
3100
0000
0010
0000
0001
0000
,
0010
0000
0100
0010
0000
0001
0100
0000
0010
0000
1000
0000
0001
0010
0100
1000
,
0100
0000
0010
0100
0000
0000
0010
0000
0001
0010
0000
0010
0100
0000
1000
0100
,
0000
0000
0010
0000
0001
0000
1000
0000
0010
0000
0100
0000
0001
1000
0010
0100
,
0002
0000
0000
0010
0000
0000
0013
0100
0010
0000
0000
0000
0010
0000
0100
0000
,
1100
0110
0011
0010
0100
0010
1000
0001
,
1001
0000
0100
0010
0100
0000
0001
0010
0001
0000
0010
0100
0010
0000
0010
0100
,
1000
0100
0010
0001
0010
0000
0100
1000
0100
0000
0010
0100
0010
0000
1000
0100
,
0010
0100
0010
0001
0010
0000
0100
0010
0100
0000
1000
0001
1000
0000
0100
0010
,
0001
1000
0100
0010
0001
0000
0100
1000
0100
0000
0010
0001
0010
0000
0100
0010
,
1000
0100
0001
0100
0010
0000
0010
0100
0010
0000
1000
0001
1000
0000
0010
0100
,
0001
1000
0010
0001
0010
0000
0100
0010
0100
0000
0001
1000
0001
0000
1000
0000
,
1001
0000
0000
0000
;

//---------------dance-single - ----------------
#NOTES:
     dance-single:
     :
     Hard:
     7:
     0.356,0.331,0.070,0.096,0.135:
1000
0100
0010
0001
0010
0100
0020
0030
,
0100
0001
1000
0010
0100
0010
2000
3000
,
0100
0010
0001
1000
0100
0010
0200
0300
,
0001
0010
0001
0100
0010
0100
2000
3000
,
0001
0010
0100
0010
1000
0100
0010
0110
,
0001
0010
0100
1000
0100
0010
0100
1100
,
0100
0010
0100
0010
0001
0010
0100
0101
,
0020
0000
0000
0030
,
0100
0000
0010
1000
0100
0001
0100
1000
,
0010
0000
0010
0100
0010
0010
0001
0010
,
0100
0000
0100
1000
0100
0010
0100
0010
,
1000
0000
1000
0100
0010
0001
0010
0100
,
1000
0000
1001
0000
0010
0010
0100
0001
,
0020
0030
0100
0000
0010
0001
1000
0010
,
0200
0300
1000
0100
0100
0000
0100
0010
,
0001
0000
0001
0010
2000
3000
0200
0300
,
0010
0000
0100
0010
0001
1000
0010
0100
,
0001
0000
0010
0001
0001
0010
0100
0010
,
1000
0000
1000
0100
0010
0100
0010
1000
,
0001
0000
0010
0100
0100
0010
1000
0001
,
1000
0000
0100
0010
0000
0001
0000
0010
0000
0000
0000
0000
0100
0000
0010
0000
,
0100
0000
0001
1000
0000
0010
0000
1000
0000
0000
0000
0000
0100
0000
0010
0000
,
0001
0010
0100
1000
0200
0000
0010
0010
,
0310
0000
0001
1000
0010
0100
0001
0001
,
1000
0000
0000
0100
0000
0000
0010
0000
0000
0001
0000
0000
0010
0000
0000
0010
,
0000
0000
0100
0000
0001
0000
1000
0000
0010
0000
0100
0010
0100
0000
0001
0000
,
1000
0000
0000
0001
0000
0000
1000
0000
0000
0000
0010
0000
0100
0000
0001
0000
,
1000
0000
0000
0100
0000
0000
0010
0000
0001
0000
0010
0000
0100
0000
1000
0000
,
0100
0000
0000
0100
0000
0000
0010
0000
0000
0001
0000
0000
1001
0000
0000
0100
,
0000
0000
0010
0000
0001
0000
1000
0000
0010
0000
0100
0000
1000
0000
0001
0010
,
0002
0000
0000
0000
0013
0000
0010
0100
0010
0000
0000
0000
0100
0000
0010
0000
,
1000
0100
0010
0001
0010
0100
1000
0110
,
1001
0000
0100
0000
0010
0000
0000
0001
0010
0000
0000
0010
0100
0000
0010
0000
,
1000
0000
0100
0000
0010
0000
0000
1000
0010
0000
0000
0100
0001
0000
0010
0000
,
0100
0000
0010
0000
1000
0000
0000
0001
0010
0000
0000
0010
0100
0000
0010
0000
,
0001
0000
0010
0000
0100
0000
0000
0010
1000
0000
0000
1000
0010
0000
0100
0000
,
0010
0000
1000
0001
1000
0000
0000
0100
0010
0000
0000
0010
0100
0000
0001
0000
,
0010
0000
0100
1000
0100
0000
0000
0001
0010
0000
0000
0010
0001
0000
1000
0000
,
1001
0000
0000
0000
;

//---------------dance-single - ----------------
#NOTES:
     dance-single:
     :
     Medium:
     5:
     0.268,0.248,0.009,0.044,0.000:
1000
0100
0010
0000
0100
0010
0001
0000
,
0010
0100
1000
0000
0001
0010
0100
0000
,
0010
1000
0010
0000
0100
0001
0100
0000
,
0001
0010
0001
0000
0100
1000
0100
0000
,
0010
0010
0010
0000
0100
0100
0100
0000
,
0001
0001
0001
0000
1000
1000
1000
0000
,
0010
0100
0010
0000
1000
0001
1000
0000
,
0020
0000
0000
0030
,
0100
0000
0010
0000
1000
0100
0010
0000
,
0001
0000
0010
0000
0100
0001
0010
0000
,
0010
0000
0100
0000
0010
0100
1000
0000
,
0100
0000
0010
0000
1000
0001
1000
0000
,
0100
0000
0010
0010
0010
0000
0001
0000
,
0100
0000
1000
1000
1000
0000
0100
0000
,
0010
0000
0100
0001
1000
0000
1000
0001
,
0100
0000
0010
0001
0001
0000
0010
0000
,
0100
0000
0010
0000
0001
0000
0010
0100
,
1000
0000
0100
0000
0010
0000
1000
0100
,
0010
0000
0100
0000
0001
0000
1000
0010
,
0001
0000
0001
0010
1000
0000
0100
0100
,
0100
0000
0010
0000
0001
0000
1000
0010
,
1000
0000
0100
0000
0001
0000
0010
0001
,
0010
0000
0010
0100
0100
0000
0010
1000
,
0001
0000
0100
0000
0010
1000
0001
0010
,
0001
0000
0010
0100
0000
0100
0010
0000
,
1000
0000
0001
0100
1000
0000
1000
0100
,
0020
0000
0230
0000
0302
0000
0003
0100
,
0010
0000
0010
0100
0010
0000
1000
0001
,
1000
0000
0010
0100
0000
0100
0010
0001
,
0000
0001
0010
0000
0010
0100
0010
0000
,
1000
0000
0100
0010
0002
0000
0003
0010
,
0001
1000
0001
1000
0001
0010
0100
0010
,
0100
0000
1000
1000
0100
0010
0100
0000
,
0010
0000
0001
0001
0010
0100
0010
0000
,
0010
0000
0100
0100
0010
1000
0010
0000
,
0100
0000
0001
1000
0001
0010
0001
0000
,
0010
0000
0100
0010
1000
0100
0010
0000
,
0100
0000
0001
1000
0010
1000
0001
0000
,
1001
0000
0000
0000
;

//---------------dance-single - ----------------
#NOTES:
     dance-single:
     :
     Easy:
     3:
     0.220,0.248,0.035,0.270,0.000: // measure 1
1000
0200
0320
0032
,  // measure 2
0013
0200
0320
0032
,  // measure 3
0013
0200
2300
3020
,  // measure 4
0130
2000
3002
2003
,  // measure 5
3010
0200
0320
0230
,  // measure 6
0301
0020
0230
2300
,  // measure 7
3010
0002
0203
0320
,  // measure 8
2030
0000
0000
3000
,  // measure 9
0100
0010
0001
0001
,  // measure 10
0010
0100
0010
1000
,  // measure 11
1000
0100
0010
0100
,  // measure 12
0100
0010
1000
0010
,  // measure 13
0010
1001
0010
0010
,  // measure 14
0100
0010
1000
0100
,  // measure 15
0001
0000
0001
0010
,  // measure 16
0100
0000
1000
0001
,  // measure 17
1000
0000
0100
0010
,  // measure 18
0100
0000
0001
0010
,  // measure 19
0001
0000
0010
0100
,  // measure 20
0010
1000
0100
0010
,  // measure 21
0001
0010
0100
0010
,  // measure 22
0100
1000
0100
0010
,  // measure 23
0100
0010
0001
1000
,  // measure 24
0010
0010
0010
0100
,  // measure 25
1001
0010
0001
0100
,  // measure 26
0010
1000
1000
0100
,  // measure 27
0020
0230
0320
0030
,  // measure 28
1000
1000
0001
0001
,  // measure 29
0100
0010
1000
0110
,  // measure 30
0001
0010
0100
0010
,  // measure 31
2000
0000
3200
0000
,  // measure 32
0310
0010
0010
0010
,  // measure 33
0110
0100
0001
1000
,  // measure 34
0010
0001
0100
0010
,  // measure 35
1000
0100
0010
0001
,  // measure 36
0100
0010
1000
0100
,  // measure 37
0001
0010
0200
0320
,  // measure 38
0031
1000
0002
2003
,  // measure 39
3001
0000
0000
0000
;
