#TITLE:Dilemma;
#SUBTITLE:;
#ARTIST:Apink;
#TITLETRANSLIT:;
#SUBTITLETRANSLIT:;
#ARTISTTRANSLIT:;
#CREDIT:;
#BANNER:Dilemma banner.png;
#BACKGROUND:Dilemma bg.png;
#LYRICSPATH:;
#CDTITLE:;
#MUSIC:Dilemma.mp3;
#OFFSET:-7.620;
#SAMPLESTART:58.820;
#SAMPLELENGTH:15.000;
#SELECTABLE:YES;
#BPMS:0.000=130.000;
#STOPS:;
#BGCHANGES:;

//---------------dance-single - ----------------
#NOTES:
     dance-single:
     :
     Hard:
     8:
     0.542,0.555,0.163,0.133,0.148:
0010
0100
0001
1000
0020
0000
0130
0000
,
0002
0013
2000
3100
,
0010
1000
0100
0001
0200
0000
0310
1000
,
2000
0000
0000
0000
3000
0000
0010
0100
0010
0000
0000
0100
0000
0000
0010
0000
,
0110
0000
0000
0000
0001
0000
0010
0000
0100
0000
0010
0000
1000
0000
0010
0100
,
0000
0100
0000
0100
0001
0000
1000
0001
,
0010
0000
0010
0100
0010
0000
1000
0100
,
0010
0000
0000
0000
1000
0000
0000
0000
0001
0000
0010
0000
0100
0000
1000
0010
,
0000
0000
0010
0000
0100
0000
0001
0000
1000
0000
0001
0000
0010
0000
0001
0100
,
0000
0100
0010
0100
0010
0000
1000
0100
,
0110
0010
0001
0010
0100
0000
0010
1000
,
0000
0001
0100
0010
0100
0000
0010
0000
,
1001
0000
0000
0000
1000
0000
0100
0000
0010
0000
0100
0000
0010
0000
0001
1000
,
0000
0001
0100
0010
0100
0000
0010
0010
,
0110
1000
0001
0010
0001
0000
0001
2000
,
0000
0000
3100
0100
0010
1000
0001
0001
,
1001
0000
0100
0010
0100
1000
0010
0020
,
0000
0000
0130
0002
0000
0000
1003
0020
,
0000
0030
0100
0010
1000
0001
0100
0010
,
0000
0000
0100
0000
0001
0000
1000
0001
1000
0000
0000
0100
0000
0000
0010
0000
,
0001
0010
0100
1000
0100
0010
0001
0100
,
0000
0000
0100
0000
0000
0000
0010
0100
0020
0000
0000
0000
0130
0000
0001
1000
,
0001
0000
1000
0000
0001
0000
0100
0010
,
0010
0100
1000
0001
1000
0100
0010
0000
,
1100
0000
0100
0000
0010
0000
0001
0010
0001
0000
0001
0000
0010
0000
0100
0010
,
0100
0000
0010
0000
1000
0000
0001
1000
0001
0000
0010
0000
0100
0000
0010
0000
,
0110
0100
0001
1000
0010
0001
1000
1001
,
0000
0210
0000
0000
0300
0000
0110
0000
,
1001
0010
0100
0001
0100
0010
1000
0100
,
0010
0001
0010
0100
0020
0000
0130
0000
,
0001
0010
0001
0010
0001
0000
0000
0000
0010
0000
0100
0000
1000
0100
0010
0001
,
0010
0100
2000
0000
0000
0000
0000
0000
3100
0000
0010
0000
0110
0000
0100
0010
,
0100
0001
0010
0001
1000
0100
1000
0010
,
0100
0010
1000
0001
1000
0100
0010
0010
,
0100
0001
1000
0001
0010
0100
0010
1000
,
0000
0001
0000
0100
0020
0000
0230
0000
,
0301
0010
0100
1100
0000
0100
0010
0011
,
0000
0100
0010
0100
0000
0010
1000
0001
,
0100
0000
0001
0000
1000
0010
0010
0100
,
0010
0000
1000
0100
0010
0001
0010
0000
,
0001
0010
0100
0110
0000
0100
0010
0011
,
0000
0010
1000
1010
0000
0100
0010
0010
,
0100
0000
0001
0000
1000
0010
0100
0001
,
1000
0000
0001
1000
0000
0000
0010
0000
0010
0000
0000
0100
0000
0000
0010
0000
,
0100
0001
1000
0010
0100
0010
1000
0010
,
0100
0000
0001
0000
0001
0000
0010
0100
,
0001
0010
1000
0010
0001
0010
0100
1000
,
0100
0000
0010
0000
1000
0000
0010
0010
,
0100
0010
1000
0001
0010
0100
0001
1000
,
0010
0000
0100
0000
0001
0000
1000
0010
,
0001
0000
0001
0010
1000
0000
0100
0010
,
0100
0001
1000
0001
0000
0001
1000
0001
,
0000
0000
0000
0000
0000
0000
0000
0000
2002
0000
0000
0000
0000
0003
3000
0000
,
0100
0000
0010
0100
0010
0000
1000
0001
0000
0000
0001
0000
0010
0000
0100
0000
,
0010
0000
1000
0010
1000
0000
0100
0001
0000
0000
0001
0000
1000
0000
1000
0000
,
0100
0010
0100
0010
0100
0000
0000
0000
0001
0000
1000
0000
0010
0100
0010
0100
,
0001
1000
0001
0000
0000
0000
0010
0000
0100
0000
0001
0000
1001
0000
1001
0000
,
0010
0000
0100
0010
0100
0000
0010
0001
0000
0000
0010
0000
0100
0000
0010
0000
,
1000
0000
0001
1000
0001
0000
0100
0010
0000
0000
0100
0000
0001
0000
0001
0000
,
0100
1000
0100
1000
0100
0000
0000
0000
0100
0000
0010
0000
0100
0010
0001
0010
,
0100
0010
0100
0000
0000
0000
0010
0000
1000
0000
0001
0000
1000
0000
0010
0000
,
0100
0001
1000
0010
0010
0100
0001
1000
,
1000
0100
0010
0100
0001
1000
0001
0020
,
0000
0030
0100
0000
0100
0010
0010
1000
,
0001
0000
0001
0010
0100
1000
1001
0000
,
0001
0010
0100
1000
1000
0100
0010
0001
,
0001
0010
0100
0010
0000
0100
0010
0100
,
0110
0001
1000
0000
0010
0100
0010
0001
,
1000
0000
0001
1000
0000
0000
0000
0000
0000
0000
0000
0000
0000
0000
0000
0000
;

//---------------dance-single - ----------------
#NOTES:
     dance-single:
     :
     Medium:
     6:
     0.393,0.352,0.096,0.126,0.000:
1000
0100
0020
0030
,
0200
0300
0002
0003
,
0010
0100
0020
0030
,
2000
3000
0001
0001
,
0110
0000
0100
0000
0100
0000
0001
0010
,
0100
0000
1000
0000
1000
0000
0100
0010
,
0100
0000
0010
0000
1000
0000
0001
1000
,
0000
1000
0010
0100
,
0001
0000
0001
0000
0010
0000
0100
0010
,
0100
0010
0010
1000
,
0001
0000
1000
0001
1000
0000
0010
0100
,
0000
0100
0010
0000
1000
0000
0100
0000
,
0010
0000
0101
0000
0010
0000
0100
0010
,
1000
0000
1010
0000
0100
0000
0010
1000
,
0001
0000
0001
1000
0010
0000
0100
0010
,
0000
0000
0100
0000
0010
0000
0100
0010
,
0100
1001
0010
0110
,
0100
0000
0001
2000
0000
0000
3100
0020
,
0000
0000
0130
0000
0100
0000
0001
1000
,
0000
1000
0001
1000
0000
0100
0010
0001
,
0000
0010
0010
0000
0100
0010
0100
0010
,
0000
1000
0000
0001
0000
0100
0010
0000
,
1000
0000
0200
0000
0310
0000
1000
0001
,
0000
0010
0100
0000
0100
0010
0100
0000
,
0001
0010
0001
0000
0010
0100
0010
0000
,
0100
1000
0100
0000
0100
0010
0100
0000
,
1000
0001
1000
0001
1000
0001
0100
0010
,
0000
1002
0000
0003
0000
0000
1001
0000
,
0010
0100
0010
1000
0010
0000
0100
0000
,
0001
0010
0001
0010
0100
0000
0100
0000
,
0010
1000
0010
0000
0100
0000
0010
0000
,
1000
0020
0000
0030
0100
0100
0100
0000
,
0001
1000
0010
0100
0010
0000
1000
0000
,
0100
0010
1000
0001
0100
0000
0100
0000
,
0010
1000
0010
0000
0100
0001
0100
0001
,
0000
0010
0000
0100
1000
0000
0100
0000
,
0010
1000
0010
1000
0000
0100
0010
0001
,
0000
1000
0100
0010
0000
0010
0100
1000
,
0100
0000
0010
0000
0100
0000
0010
1000
,
0000
0001
0000
1000
0001
0000
0010
0000
,
0100
0010
0100
0010
0000
1000
0001
1000
,
0000
0100
0010
0100
0000
0010
0100
0010
,
0001
1000
0010
0100
,
0110
0000
0010
0010
,
0100
0000
0001
0000
1000
0000
0010
0001
,
0020
0100
0130
1000
,
0100
0000
0010
0000
0001
0000
0010
1000
,
0020
0000
0001
0000
0130
0000
1000
0001
,
1000
0000
0100
0000
0010
0000
0100
0010
,
0100
0000
1000
0000
0100
0000
0010
0100
,
0010
0000
0001
0000
1000
0000
0001
0010
,
0000
0000
0010
0100
0000
0000
0200
0000
,
0000
0300
0000
0000
0220
0030
0300
0000
,
1001
0010
0001
0010
0100
0000
0010
0000
,
0100
0010
1000
0100
0010
0000
0100
0000
,
0001
0001
0001
0000
0010
0100
1000
0100
,
0010
0002
0000
0003
0010
0010
0010
0000
,
0110
0010
1000
0001
0100
0000
0100
0000
,
0010
1000
0100
0010
0001
0000
1000
0000
,
0010
0010
0010
0000
0100
0010
1000
0100
,
0001
0020
0000
0030
0100
0000
0100
0000
,
1000
0010
0100
0001
0000
0001
0100
0001
,
0000
0010
0100
0010
0000
1000
0010
0100
,
0010
0000
0100
0000
0001
0000
1000
0001
,
0000
0010
0000
0100
0010
0000
0110
0000
,
0100
0001
1000
0001
0000
0001
0100
0010
,
0000
0010
1000
0010
0000
0100
0001
0100
,
0010
0000
0100
0000
1000
0000
0100
0010
,
0110
0000
0000
0000
;

//---------------dance-single - ----------------
#NOTES:
     dance-single:
     :
     Easy:
     3:
     0.273,0.252,0.037,0.118,0.000: // measure 1
0010
0010
0020
0030
,  // measure 2
0200
0300
0002
0003
,  // measure 3
1000
1000
2000
3000
,  // measure 4
0200
0300
0010
0010
,  // measure 5
0100
0000
0010
0001
,  // measure 6
0010
0000
0010
0100
,  // measure 7
1000
0100
0010
0001
,  // measure 8
0010
0000
1000
1000
,  // measure 9
0100
0000
0100
0100
,  // measure 10
0010
0000
0010
0010
,  // measure 11
0001
1000
0001
0100
,  // measure 12
0010
0010
0100
0100
,  // measure 13
0001
0010
0100
0010
,  // measure 14
1000
1000
0000
0100
,  // measure 15
0010
1000
0001
0100
,  // measure 16
0020
0030
0100
0100
,  // measure 17
0001
0000
0010
0001
,  // measure 18
0010
0000
0010
1000
,  // measure 19
0010
0100
0100
0010
,  // measure 20
1000
0001
0100
0010
,  // measure 21
1000
1000
1000
0100
,  // measure 22
0010
0000
0020
0000
,  // measure 23
0130
0001
1000
0010
,  // measure 24
0001
0001
0010
0010
,  // measure 25
0100
0010
1000
0001
,  // measure 26
0100
0010
1000
0001
,  // measure 27
0010
0000
0010
0000
0100
0000
0100
0001
,  // measure 28
0000
1000
0000
0000
0000
0000
0110
0000
,  // measure 29
1001
0010
0100
0010
,  // measure 30
1000
0010
0001
0100
,  // measure 31
0010
0020
0030
0100
,  // measure 32
0001
0200
0300
0010
,  // measure 33
1000
1000
0100
0010
,  // measure 34
0100
0010
0010
0100
,  // measure 35
0001
1000
0001
0100
,  // measure 36
0020
0030
0100
0100
,  // measure 37
0010
0010
1000
1000
,  // measure 38
0001
0001
0100
1000
,  // measure 39
0100
0010
0010
0100
,  // measure 40
0001
0000
0001
0010
,  // measure 41
1000
0010
0100
0010
,  // measure 42
0001
0001
0010
0010
,  // measure 43
0100
0010
1000
0001
,  // measure 44
0100
0000
0100
0000
,  // measure 45
0010
1000
0001
0100
,  // measure 46
0020
0100
0130
0010
,  // measure 47
1000
0001
0100
0010
,  // measure 48
2000
0100
3100
0100
,  // measure 49
0010
0000
1001
0000
,  // measure 50
0010
0000
0110
0000
,  // measure 51
0100
0001
0100
0000
,  // measure 52
0010
1000
0100
0001
,  // measure 53
0000
0000
2000
0000
,  // measure 54
3001
1000
0001
0100
,  // measure 55
0010
1000
0001
0100
,  // measure 56
0010
0010
0100
0001
,  // measure 57
2000
0000
3000
0100
,  // measure 58
0010
0100
0001
1000
,  // measure 59
0001
0001
1000
1000
,  // measure 60
0010
0100
0010
0001
,  // measure 61
0200
0000
0310
0010
,  // measure 62
1000
0001
0100
0010
,  // measure 63
0001
1000
0010
0100
,  // measure 64
1000
0100
0100
0010
,  // measure 65
0001
0000
0001
0010
,  // measure 66
0100
0010
1000
0001
,  // measure 67
0100
0010
0100
0100
,  // measure 68
0002
0000
1003
0001
,  // measure 69
1001
0000
0000
0000
;
