#TITLE:Deep In My Heart;
#SUBTITLE:;
#ARTIST:Britney Spears;
#TITLETRANSLIT:;
#SUBTITLETRANSLIT:;
#ARTISTTRANSLIT:;
#CREDIT:;
#BANNER:Deep In My Heart banner.png;
#BACKGROUND:Deep In My Heart bg.png;
#LYRICSPATH:;
#CDTITLE:;
#MUSIC:Deep In My Heart.mp3;
#OFFSET:-10.040;
#SAMPLESTART:50.000;
#SAMPLELENGTH:15.000;
#SELECTABLE:YES;
#BPMS:0.000=117.000;
#STOPS:;
#BGCHANGES:;

//---------------dance-single - ----------------
#NOTES:
     dance-single:
     :
     Hard:
     7:
     0.362,0.335,0.143,0.033,0.066:
1001
0000
0000
0000
0110
0000
0000
0001
0000
0000
0010
0000
0000
0000
0100
0000
,
0010
0000
0000
0000
0011
0000
0000
0100
0000
0000
1000
0000
0000
0000
0100
0000
,
1001
0000
0000
0000
0110
0000
0000
1000
0000
0000
0100
0000
0000
0000
0010
0000
,
0001
0010
0100
1000
,
0100
0010
0001
0010
0100
0000
0010
0000
,
0100
1000
0001
1000
0010
0000
0010
0000
,
1000
0000
0001
0000
1000
0000
0001
0000
0010
0000
0000
1000
0000
0000
0100
0000
,
0100
0001
1000
0010
,
0001
0010
0100
1000
0100
0000
0100
0010
,
0010
0001
1000
0010
0001
0000
0001
0000
,
0010
0000
0100
0000
0010
0000
0100
0000
0010
0000
0000
0001
0000
0000
0010
0000
,
0010
1000
0100
0010
,
0100
1000
0100
0000
0010
0000
0001
0000
,
0010
0000
0100
0001
1000
0000
0010
0000
,
0100
0000
0001
0010
0001
0100
0010
2000
,
0000
3000
0100
0010
0000
0010
0100
0010
,
0001
1000
0010
0100
,
0001
0000
0010
0100
0010
1000
0000
1000
,
0001
0000
0000
1000
0000
0000
0001
0000
0010
0000
0000
0000
1000
0000
0010
0000
,
0001
0000
1000
0000
0010
0100
0010
0110
,
0000
1000
0100
0001
0100
0010
1000
0001
,
0000
0000
0010
0001
1000
0010
0001
1001
,
0000
0010
0001
0010
0000
1000
0000
0010
,
0100
0000
0100
0010
1000
0001
0100
0010
,
0000
0000
0010
0100
0001
1000
0010
0001
,
0000
0000
0000
0000
0010
0000
0000
0100
0000
0000
0010
0000
0000
0000
0100
0000
,
2000
0000
3100
0020
0000
0000
0030
0100
,
0001
0010
0100
1000
0100
0010
0001
0001
,
1001
0000
0000
0000
0110
0000
0000
0001
0000
0000
0010
0000
0000
0000
0100
0000
,
0010
0000
0000
0000
1000
0000
0000
0100
0000
0000
0010
0000
0000
0000
0001
0000
,
0110
0000
0000
0000
0101
0000
0000
1000
0000
0000
0010
0000
0000
0000
0100
0000
,
0010
0000
0000
0000
0100
0000
0000
0001
0000
0000
1000
0000
0000
0000
0010
0000
,
0100
0010
0001
1000
0010
0000
0010
0100
,
0010
1000
0100
0001
0100
0000
0100
0000
,
0010
0000
0001
0000
1000
0000
0010
0000
0001
0000
0000
0001
0000
0000
0010
0000
,
0100
0010
1000
0001
,
0100
1000
1000
0100
0010
0000
0110
0000
,
0100
0001
1000
0010
0100
0000
0010
0000
,
1001
0000
0000
0000
;

//---------------dance-single - ----------------
#NOTES:
     dance-single:
     :
     Medium:
     4:
     0.299,0.293,0.077,0.022,0.000:
1001
0000
0110
0000
0001
0010
0000
0010
,
0100
0000
0001
0000
1000
0010
0000
0010
,
0110
0000
1001
0000
0010
0100
0000
0100
,
0001
0010
0100
1000
,
0100
0000
0010
0001
0010
0000
0100
0000
,
0010
1000
0001
0001
,
0010
0000
0100
0010
0100
0000
0010
1000
,
0000
1000
0100
0000
0010
0000
0001
0000
,
0110
0000
1000
0100
1000
0000
0100
0000
,
0010
0000
0100
0001
0100
0000
0010
0000
,
0100
0000
0010
0000
1000
0000
0001
0010
,
0100
0010
0001
0100
,
0010
0100
1000
0001
,
0100
0010
0100
0010
1000
0000
0000
0000
,
0010
0010
0100
0100
,
0010
1000
0001
0100
,
0001
0010
0100
1000
,
0010
0100
0010
0100
0001
0000
0010
0000
,
0100
0100
0010
0010
,
1001
0000
0000
0000
0010
0100
0010
0100
,
0000
0100
0001
0000
1000
0000
0010
0000
,
0100
0000
0100
0000
1000
0100
0010
0001
,
0000
0001
0010
0000
0100
0000
0010
0000
,
0100
0000
0100
0000
0001
0010
0100
0010
,
0000
0010
1000
0000
1000
0000
0001
0000
,
0100
1000
0001
0010
,
0200
0000
0300
0020
0000
0030
0000
0100
,
0010
0000
0001
0000
1000
0001
1000
0001
,
0010
0000
0010
0000
0100
0010
0000
0010
,
0100
0000
1000
0000
0100
0001
0000
0001
,
0100
0000
0010
0000
0001
0010
0000
0010
,
0100
0100
1000
1000
,
0010
0000
0100
0001
1000
0000
0100
0000
,
0010
1000
0100
0001
0100
0000
0010
0000
,
0100
0000
0010
0100
0010
0000
0010
0001
,
0010
0010
0100
1000
,
1000
0000
0100
0010
0001
0000
0010
0000
,
0100
0010
0100
0000
0001
0000
1000
0000
,
1001
0000
0000
0000
;

//---------------dance-single - ----------------
#NOTES:
     dance-single:
     :
     Easy:
     2:
     0.246,0.251,0.121,0.088,0.000: // measure 1
1001
0110
0001
0010
,  // measure 2
0100
0100
0001
0001
,  // measure 3
0110
1001
0100
0100
,  // measure 4
0010
1000
0100
0001
,  // measure 5
0010
0100
0200
0300
,  // measure 6
0010
1000
0001
0100
,  // measure 7
0010
0001
0010
0100
,  // measure 8
2000
3000
0100
0100
,  // measure 9
0010
1000
0010
0000
,  // measure 10
0100
0010
0001
0001
,  // measure 11
0010
0100
0010
0001
,  // measure 12
2000
3000
0010
0010
,  // measure 13
0100
0001
1000
0001
,  // measure 14
0010
0010
0010
0000
,  // measure 15
0001
1000
0001
0100
,  // measure 16
1000
0000
0100
0000
,  // measure 17
0010
1000
0001
0100
,  // measure 18
1000
1000
1000
0000
,  // measure 19
0010
0100
0001
1000
,  // measure 20
0010
0000
0001
1000
,  // measure 21
1001
0010
0001
0100
,  // measure 22
0020
0030
0100
0100
,  // measure 23
0010
1000
0001
1000
,  // measure 24
0200
0300
0010
0010
,  // measure 25
0110
1000
0100
0010
,  // measure 26
0001
0001
0010
0100
,  // measure 27
0002
0003
0020
0030
,  // measure 28
0100
0100
0010
0010
,  // measure 29
1001
0110
1000
1000
,  // measure 30
0100
0010
0100
0001
,  // measure 31
0110
1001
0010
0010
,  // measure 32
0001
0010
0100
1000
,  // measure 33
0010
0010
0100
0000
,  // measure 34
0100
0010
1000
0100
,  // measure 35
0010
0001
0100
0010
,  // measure 36
0200
0300
0010
0010
,  // measure 37
1000
0100
0010
0000
,  // measure 38
0001
0010
0100
1000
,  // measure 39
1001
0000
0000
0000
;
