#TITLE:DM;
#SUBTITLE:;
#ARTIST:fromis_9;
#TITLETRANSLIT:;
#SUBTITLETRANSLIT:;
#ARTISTTRANSLIT:;
#CREDIT:;
#BANNER:DM banner.png;
#BACKGROUND:DM bg.png;
#LYRICSPATH:;
#CDTITLE:;
#MUSIC:DM.mp3;
#OFFSET:-6.220;
#SAMPLESTART:54.860;
#SAMPLELENGTH:15.000;
#SELECTABLE:YES;
#BPMS:0.000=122.000;
#STOPS:;
#BGCHANGES:0.000=DM.avi=1.000=0=0=0,
99999=-nosongbg-=1.000=0=0=0 // don't automatically add -songbackground-
;

//---------------dance-single - ----------------
#NOTES:
     dance-single:
     :
     Hard:
     8:
     0.541,0.522,0.164,0.143,0.367:
0000
0000
0000
0000
,
0001
0010
0100
0000
0010
1000
0001
0100
,
0000
0000
0100
0000
0000
0000
0010
0000
0110
0000
0100
0000
0100
0000
0001
1000
,
0001
0000
0100
0010
0000
0010
0100
0000
0010
0000
0000
0000
0100
0000
0010
1000
,
0010
0000
0000
0000
0000
0000
0100
0000
0000
0001
0000
0000
0000
0000
0000
0001
0000
0000
0100
0000
0000
0000
0000
0000
0000
0000
0000
0000
0000
0000
0000
0000
0010
0000
0000
0000
0100
0000
0000
0000
0010
0000
0000
0000
0100
0000
0000
0000
,
1000
0000
0100
0000
0010
0000
0001
0010
,
0100
1000
0000
1001
0100
0010
0100
0001
,
0000
1000
0000
0010
0000
0100
0000
0010
,
0010
0100
0001
1000
0010
0100
0110
0000
,
1001
1000
0100
0010
0001
0001
0010
0100
,
1000
0000
0001
0000
0100
0010
0100
0010
,
0100
0000
0000
0001
0000
0000
0010
0000
0000
0000
0100
0000
0010
0000
1000
0000
,
0010
0000
0000
1000
0000
0000
0100
0000
0000
0000
0010
0000
0100
0000
0001
0000
,
1000
0010
0001
0010
1000
0100
0001
0100
,
1000
0000
0000
0000
0001
0000
0000
0000
1000
0000
0001
0000
0100
0000
0010
0100
,
0010
0000
0000
0000
0100
0000
0010
0001
0010
0000
0100
0000
0010
0000
0002
0000
,
0000
0013
0100
2000
3100
0000
0010
0100
,
0002
0023
0230
0000
0300
1000
0100
2000
,
0000
0000
0000
3010
0000
0000
0001
0000
0010
0000
0100
0000
1000
0000
0000
0000
0000
0000
0100
0000
0000
0000
0000
0000
,
0010
0000
0100
0001
1000
0010
0001
0000
0000
0001
0000
0000
,
0010
0000
0000
0100
0000
0000
0010
0000
0110
0000
0000
0000
0001
0000
0010
0000
,
0100
0000
0000
0001
0010
0000
0000
0100
1000
0000
0000
1000
0100
0000
0000
0010
,
0100
0000
0000
0001
1000
0000
0000
0100
0010
0000
0000
0000
0010
0000
0100
0000
,
0001
2000
0000
3200
0310
0001
1000
0001
,
0020
0000
0000
0030
0100
0010
1000
0001
,
1001
1000
0100
0010
0001
0010
0100
1000
,
0100
0010
0000
0000
0001
1000
0000
0000
0110
0000
0000
0000
0001
0000
0000
0010
,
0100
0000
0010
0000
0001
0000
1000
0000
0100
0000
0010
0000
0100
0001
0100
0000
,
0001
0010
0000
0000
0010
0100
0000
0000
1001
0000
0000
0000
0010
0000
0000
0100
,
0001
1000
0001
1000
0000
0000
0100
0000
0010
0100
0010
0000
1000
0000
0001
0020
,
0000
0000
0130
0000
0001
0000
1000
0000
0010
0100
0010
0000
0100
0000
1000
0100
,
0000
0100
0020
0000
0000
0000
0130
0000
0100
0000
0000
0000
0001
1000
0001
0000
,
0010
0100
0000
0000
0100
0010
0000
0000
1000
0001
0000
0000
0001
1000
0000
0000
,
0110
0100
0001
1000
0010
0001
0010
0100
,
1000
0100
0000
0000
0100
0010
0000
0000
0011
0000
0000
0000
0100
0000
0000
0010
,
0100
0000
0001
0000
0010
0000
1000
0000
0010
0000
0000
0100
0000
0000
0010
0000
,
0001
0010
0000
0000
0010
0100
0000
0000
1100
0000
0000
0000
0110
0000
0000
0000
,
0010
0100
0010
0100
0000
0000
0010
0000
0001
1000
0001
0000
0100
0000
0010
2000
,
0000
0000
3100
0000
0010
0000
0100
0000
0001
1000
0001
0000
0100
0000
0010
0002
,
0000
0000
0000
0000
0013
0000
0010
0000
1000
0000
0001
0000
0100
0010
0100
0000
,
1001
0000
0000
0000
0001
0010
0001
0000
0010
0000
0100
0000
1000
0000
0100
0000
,
0010
0000
0000
0110
0000
0000
0000
0000
1001
0000
0000
0000
0000
0000
1000
0100
,
1000
0000
0100
0010
0100
0000
0010
0001
0010
0000
0100
0000
0010
0000
1000
0000
,
0001
0000
0000
0010
0000
0000
0000
0000
0110
0000
0000
0000
0010
0000
0100
0000
,
0010
0000
1000
0001
1000
0000
0010
0100
0010
0000
0100
0000
0002
0000
0023
0000
,
0130
0000
1000
0100
1000
0100
0010
0000
0001
0000
0000
1000
0000
0000
0001
0000
,
0100
0000
0001
0000
0001
0010
0001
0000
0010
0000
0000
0100
0000
0000
1000
0000
,
0010
0000
1000
0001
1000
0000
0000
0000
1000
0000
0100
0000
0010
0000
0001
0000
,
0010
0000
0100
0000
0010
0000
1000
0000
0001
0000
0000
1000
0000
0000
0001
0000
,
2002
0000
0000
0000
0003
0000
3100
0100
,
0010
0100
0000
0010
0100
0010
0000
1000
,
0001
0010
0100
0000
,
1001
0000
0010
0000
0001
0000
0100
0000
0010
0000
1000
0000
0100
0010
0100
0000
,
1000
0001
0000
0000
0100
0010
0000
0000
0110
0000
1000
0001
1000
0000
0001
0000
,
0010
0100
0010
0100
0000
0000
0001
0000
0010
0100
1000
0000
1000
0000
0100
0010
,
0000
0000
0010
0000
0100
0000
0001
0000
1000
0010
1000
0000
0100
0000
0001
0010
,
0000
0010
0100
0000
1000
0000
0100
0000
0010
0000
0100
0000
0001
1000
0001
0000
,
0010
0100
0000
0000
0001
1000
0000
0000
0010
0100
0000
0000
0010
0000
0010
0000
,
1001
0100
0010
1000
0001
0100
0010
1000
,
0001
0010
0000
0000
1000
0100
0000
0000
0010
0000
0100
0010
0100
0000
0000
0001
,
0000
0000
0100
0000
0010
0000
1000
0000
0100
0000
0000
0010
0000
0100
0010
0000
,
0100
0000
0001
0000
1000
0010
1000
0000
0200
0000
0010
0000
0310
0000
0000
0000
,
1001
0000
0010
0000
0001
0000
0010
0000
0100
0010
0100
0000
0001
0000
0010
1000
,
0000
1000
0010
0000
0100
0000
0010
0000
1000
0001
1000
0000
0010
0000
0001
0100
,
0000
0100
1000
0000
0100
0000
0010
0000
0100
0000
0001
0000
1000
0100
1000
0000
,
0110
0000
0000
0000
0001
0010
0001
0000
1000
0000
0000
0000
0001
0000
0000
2002
,
0000
0000
3003
0000
;

//---------------dance-single - ----------------
#NOTES:
     dance-single:
     :
     Medium:
     6:
     0.372,0.332,0.100,0.114,0.000:
0000
0000
0000
0000
,
0100
0010
0100
0000
0001
0000
1000
0010
,
0000
0100
0000
0010
0100
0000
0001
1000
,
0001
0000
0001
0010
0100
0000
0100
0000
,
0010
1000
0010
0000
0100
0000
0001
1000
,
0010
0100
0010
0000
0010
0000
0001
0200
,
0000
0310
0000
0010
0100
0010
1000
0100
,
0000
0001
0000
0100
0000
1000
0000
0010
,
0000
0100
0000
0010
0001
0000
1000
0000
,
1001
1000
0100
0000
0010
0000
0100
0010
,
0100
0001
0010
1000
,
0010
0000
0001
0010
0000
0100
0000
0010
,
1000
0000
0001
0100
0000
0010
0000
0010
,
0100
0100
0100
0000
0010
1000
0010
0000
,
0100
0001
1000
0110
,
0010
0010
0001
0001
,
1000
1000
0100
0010
,
0200
0000
0320
0000
0000
0030
0100
0000
,
0010
0000
0100
0001
1000
0000
0100
0000
,
0010
1000
1000
0200
,
0310
0001
0010
0100
,
0001
0000
0001
0010
0100
0000
0100
1000
,
0100
0000
0100
0010
0001
0000
1000
0001
,
0100
0020
0000
0000
0130
0000
0010
0100
,
0220
0000
0000
0000
0330
0000
0001
1000
,
0001
0200
0000
0310
1000
0000
0010
0100
,
0010
0001
1000
1001
,
0001
0010
0100
0000
0010
0000
1000
0010
,
0100
0000
0100
0000
0010
1000
0001
0100
,
0010
0010
0010
0000
0001
0100
1000
0000
,
2000
0000
3100
0000
0010
0100
0010
0000
,
0002
0000
0013
0000
0100
0000
0010
1000
,
0001
0000
0001
0000
0010
0100
0010
0000
,
0001
2000
0000
3010
0100
0010
0001
0010
,
0100
0010
1001
0100
,
0100
0010
0100
0000
0010
0000
1000
0001
,
0010
0100
0010
0110
,
1000
0001
1000
0000
0100
0100
0010
0001
,
0010
0000
0001
0000
0010
0010
0100
1000
,
0100
0000
0010
0200
0000
0300
0010
1000
,
0001
0000
0001
1000
0010
0000
0010
0000
,
0110
0000
0000
0000
0001
0000
0000
0001
,
0010
1000
0010
0001
,
0110
0000
1000
0100
,
0010
0000
0100
0000
0010
1000
0001
0100
,
0010
0000
0010
0000
0100
0010
0001
0000
,
1000
0000
0010
0000
0001
0010
0100
0000
,
1000
0001
1000
0000
0010
0100
0010
0000
,
1000
0001
1000
0001
0100
0000
0010
0200
,
0000
0000
0010
0310
,
0001
1000
0000
1000
0001
1000
0000
0100
,
0010
0100
0110
0000
,
1001
0010
0100
0000
0010
0000
1000
0001
,
0100
0000
0010
0100
0010
1000
0001
0000
,
0001
0010
0100
0000
0010
1000
0010
0100
,
0010
0000
0100
0000
0001
0010
1000
0010
,
0001
0000
0100
0000
0010
0000
1000
0001
,
0100
0000
0100
0000
0010
1000
0010
0100
,
0010
0002
0000
0013
0100
0010
0000
0100
,
0010
0000
1000
0001
1000
0000
0110
0000
,
0100
0100
0100
0010
0001
0000
1000
0010
,
1000
0101
0010
1010
,
0100
0001
1000
0000
0100
0100
0100
0010
,
1000
0000
0100
0000
0001
1000
0001
0010
,
0100
0000
0010
0000
0100
0000
0001
1000
,
0001
0000
0010
0100
0001
0000
1000
0000
,
2002
0000
3003
0000
;

//---------------dance-single - ----------------
#NOTES:
     dance-single:
     :
     Easy:
     4:
     0.276,0.261,0.050,0.200,0.000: // measure 1
0000
0000
0000
0000
,  // measure 2
1000
2000
3000
0100
,  // measure 3
0010
0100
0000
0001
,  // measure 4
0010
0010
0100
0000
,  // measure 5
0100
0010
1000
0100
,  // measure 6
0001
0002
0003
0010
,  // measure 7
0010
0100
0010
0001
,  // measure 8
1000
1000
0100
0100
,  // measure 9
0010
0100
0000
0100
,  // measure 10
1001
0010
0100
0010
,  // measure 11
0001
0001
1000
1000
,  // measure 12
0100
0010
0200
0300
,  // measure 13
0001
1000
0002
0003
,  // measure 14
1000
0100
0010
0001
,  // measure 15
0010
0010
0100
0100
,  // measure 16
0001
0010
0100
1000
,  // measure 17
0010
0010
0100
0100
,  // measure 18
0002
0023
0000
0230
,  // measure 19
0300
0010
0100
0200
,  // measure 20
0300
1000
1000
0100
,  // measure 21
0010
0100
0010
0001
,  // measure 22
0010
0010
1000
1000
,  // measure 23
0001
0001
0100
0010
,  // measure 24
1000
0200
0000
0310
,  // measure 25
0002
0000
0013
0010
,  // measure 26
1001
0010
0100
0010
,  // measure 27
0001
0001
0010
0100
,  // measure 28
1000
1000
0100
0010
,  // measure 29
0100
0100
0010
0010
,  // measure 30
1000
0100
0001
0001
,  // measure 31
0010
0100
0010
0010
,  // measure 32
1000
0001
0100
0010
,  // measure 33
0001
0001
0010
0100
,  // measure 34
0020
0030
0100
0010
,  // measure 35
0001
0001
1000
1000
,  // measure 36
0020
0030
0100
0001
,  // measure 37
1000
0001
0010
0002
,  // measure 38
0013
0010
0100
0100
,  // measure 39
1000
0100
0010
0010
,  // measure 40
0200
0300
0002
0013
,  // measure 41
0100
0010
1000
1000
,  // measure 42
0100
0000
0010
0000
,  // measure 43
0001
0001
0010
0100
,  // measure 44
0010
0000
0001
0000
,  // measure 45
1000
1000
0200
0320
,  // measure 46
0130
0001
1000
0010
,  // measure 47
0001
0001
1000
1000
,  // measure 48
0010
0100
0010
0100
,  // measure 49
1000
0100
0010
0001
,  // measure 50
2002
0000
0003
3100
,  // measure 51
0020
0030
0200
0300
,  // measure 52
0001
1000
0001
0000
,  // measure 53
1001
0110
0010
1000
,  // measure 54
0100
0010
0100
0100
,  // measure 55
0010
0001
0010
1000
,  // measure 56
0020
0130
0001
1000
,  // measure 57
0002
0013
0100
0010
,  // measure 58
1000
1000
0100
0010
,  // measure 59
0200
0300
0001
1000
,  // measure 60
0001
0001
0010
0010
,  // measure 61
0100
0010
1000
0100
,  // measure 62
0001
0001
0200
2300
,  // measure 63
3100
0100
0010
1000
,  // measure 64
0001
0001
0010
0100
,  // measure 65
0010
0010
0010
0100
,  // measure 66
1001
0010
1000
0001
,  // measure 67
2002
0000
3003
0000
;
