#TITLE:Cola (SUPER EURO VERSION);
#SUBTITLE:;
#ARTIST:Lana Del Rey;
#TITLETRANSLIT:;
#SUBTITLETRANSLIT:;
#ARTISTTRANSLIT:;
#CREDIT:;
#BANNER:Cola (SUPER EURO VERSION) banner.png;
#BACKGROUND:Cola (SUPER EURO VERSION) bg.png;
#LYRICSPATH:;
#CDTITLE:;
#MUSIC:Cola (SUPER EURO VERSION).mp3;
#OFFSET:-6.300;
#SAMPLESTART:36.380;
#SAMPLELENGTH:15.000;
#SELECTABLE:YES;
#BPMS:0.000=155.000;
#STOPS:;
#BGCHANGES:;

//---------------dance-single - ----------------
#NOTES:
     dance-single:
     :
     Hard:
     9:
     0.645,0.630,0.283,0.154,0.187:
0001
0010
0100
1000
0000
0110
0000
0011
,
0000
0100
0000
0010
0000
1001
0000
0000
,
0001
0000
0100
0010
0000
0010
0100
0000
,
1000
0000
0100
0000
0010
0000
0001
0000
0010
0000
0100
0000
1000
0100
0010
0001
,
0000
1000
0001
0100
0010
0000
0010
0100
,
0001
0000
0001
0020
0000
0230
0000
1300
,
0010
0100
0001
1000
0001
0000
1001
0000
,
1000
0020
0000
0230
0000
0310
1000
0001
,
0100
0010
0010
0100
0010
0000
0011
0000
,
0010
0100
1000
1100
0000
0110
0000
0010
,
1000
0100
0001
0100
1000
0000
0010
0100
,
0010
0100
0000
1001
0000
0110
0000
0010
,
1000
0100
0010
0001
0020
0000
0031
0100
,
0100
0010
0001
0010
1000
0100
0010
0100
,
1000
0200
0000
0000
0310
0010
0010
0000
,
1000
0100
0001
0100
1000
0010
0010
0010
,
0110
0001
1000
0001
0020
0000
0130
0001
,
1000
0001
0010
0010
0100
0010
1000
0100
,
0000
0020
0000
0000
0130
0100
0100
0000
,
1000
0000
0100
0000
0010
0000
0001
0000
0010
0000
0100
0010
0100
0000
0010
0000
,
1001
0000
0010
0000
0100
0000
0010
0000
0001
0000
1000
0100
1000
0000
0100
0000
,
0010
0100
0100
0010
0001
1000
0100
0010
,
0010
0000
0100
0000
0001
0000
1000
0000
0010
0000
0001
1000
0001
0000
0010
0000
,
0010
0100
0010
0100
1000
0100
0001
0200
,
0310
0000
0010
0000
0010
0000
0100
0000
0001
0000
1000
0000
0010
0000
0100
0010
,
0100
1000
0100
0010
0001
0010
0100
0001
,
0011
0010
0100
1000
1100
0010
0100
0010
,
1000
0000
0100
0000
0010
0000
0001
0000
1000
0001
1000
0001
1000
0000
0110
0000
,
0010
0012
0000
0013
0100
1000
0100
0010
,
0100
0001
1000
0010
0100
0010
0100
1000
,
0100
0120
0000
0130
0001
1000
0010
0001
,
1001
0000
0001
0010
0010
0100
1000
0000
,
1000
0100
0100
0010
0000
0001
0010
0000
,
0100
0010
0100
0000
1100
0000
0011
0000
,
1000
0001
0100
0010
0100
0010
0110
0000
,
0001
0000
1000
0000
0010
0000
0100
0000
0010
0000
0001
0000
1000
0001
1000
0001
,
0010
0000
0010
0000
0100
0000
0001
0010
0000
0000
0010
0000
0100
0000
1000
0100
,
0000
0000
0100
0010
0000
0000
0010
0001
0000
0000
1001
0000
0000
0000
0010
0000
,
0100
0000
0010
0000
1000
0000
0001
0010
0000
0000
0100
0010
0000
0000
1000
0010
,
0000
0000
0100
0010
0000
0000
0001
1000
0000
0000
0010
0100
0000
0000
0001
0000
,
0010
0000
1000
0000
0001
0000
1000
0100
0000
0000
0010
0000
0100
0000
0010
1000
,
0000
0000
0100
0001
0000
0000
0001
0100
0000
0000
0010
1000
0000
0000
0000
0000
,
0110
0001
1000
0010
0000
0010
0100
0010
,
0001
0000
1000
0000
0001
0000
0100
0000
0001
1000
0001
1000
0010
0100
0001
2000
,
0000
0000
3000
0000
;

//---------------dance-single - ----------------
#NOTES:
     dance-single:
     :
     Medium:
     6:
     0.436,0.401,0.142,0.090,0.000:
1000
0001
0000
0100
0000
0010
0000
1000
,
0000
0001
0000
1000
0000
1001
0000
0000
,
0010
0000
0100
0010
0000
0100
0000
0010
,
0001
0000
0010
0000
0100
0000
1000
0100
,
0000
0010
0100
0010
0100
0000
1000
0000
,
0001
0000
0100
0010
0000
0002
0000
0000
,
0003
0010
0000
0010
0100
0000
1000
0000
,
0100
0010
0000
2000
0000
0000
0100
3000
,
0000
0001
1000
0010
0001
0000
0001
0000
,
0010
0100
0010
1000
0000
0200
0000
0000
,
0300
0010
1000
0001
0100
0000
0100
0010
,
0001
0010
0000
0100
0000
0010
0000
1000
,
0001
0010
0001
1000
0100
0000
0100
0010
,
0000
0010
0100
1000
0100
0000
0010
0100
,
0000
0200
0000
0000
0310
0000
0010
0000
,
1000
0001
0100
0010
,
0001
1000
0001
0010
0001
0000
0001
0010
,
0000
0100
0010
0000
1000
0000
0010
0100
,
0000
0200
0000
0000
1300
0000
0100
0000
,
0010
0000
0100
0000
0001
1000
0000
0010
,
0100
0000
0100
0010
0100
0000
0001
0000
,
0011
0000
0010
0000
0100
0010
1000
0100
,
0000
0100
0000
0010
1000
0000
1000
0010
,
0000
0100
0000
0010
0001
0000
0001
0010
,
0000
0000
0100
0010
0100
0000
0010
0100
,
0010
0000
1000
0000
0001
0010
0100
1000
,
0000
1000
0000
0100
0010
0000
0010
0100
,
0010
0000
0001
0000
1000
0000
0010
0100
,
0000
0100
0000
0001
1000
0000
1000
0001
,
1000
0000
0100
0000
0010
0001
0010
0001
,
0000
0010
0000
0010
0100
0000
1000
0200
,
0000
0300
0010
0100
0000
0100
0010
0000
,
1000
0000
0010
0100
0000
0100
0010
0000
,
0001
1000
0001
0000
0010
0000
0110
0000
,
1000
0001
1000
0001
0100
0000
0100
0000
,
0001
0010
0100
1000
0100
0000
0010
0000
,
0100
0001
0000
1000
0000
0010
0100
0010
,
0000
1000
0000
0101
0000
1010
0000
0000
,
0100
0010
1000
0001
0000
0001
0000
0010
,
0000
0100
0000
0110
0000
1001
0000
0000
,
0010
1000
0100
0010
0000
0001
0000
0100
,
0000
0011
0000
1100
0000
1001
0000
0000
,
0110
0000
1000
0001
0000
0010
0000
0000
,
0100
0010
1000
0001
0100
0010
1000
0020
,
0000
0000
0030
0000
;

//---------------dance-single - ----------------
#NOTES:
     dance-single:
     :
     Easy:
     3:
     0.335,0.311,0.064,0.142,0.000: // measure 1
0010
0100
0010
0100
,  // measure 2
0001
1000
0001
1000
,  // measure 3
0001
0001
0010
0010
,  // measure 4
0200
0000
0320
0000
,  // measure 5
1030
1000
0100
0010
,  // measure 6
0001
0010
0100
0010
,  // measure 7
0001
0010
0100
0010
,  // measure 8
1000
0001
0020
0030
,  // measure 9
0100
0010
0001
0010
,  // measure 10
0100
0010
1000
0100
,  // measure 11
0010
0100
0010
1000
,  // measure 12
0001
1000
0020
0030
,  // measure 13
0100
0100
0010
0010
,  // measure 14
0001
1000
0001
0010
,  // measure 15
0001
0020
0030
0000
,  // measure 16
0100
0010
0100
0100
,  // measure 17
1000
0100
1000
0010
,  // measure 18
0100
0010
0001
1000
,  // measure 19
0001
0020
0030
0000
,  // measure 20
0100
0100
0010
0010
,  // measure 21
1001
0010
0001
0010
,  // measure 22
0200
0300
0010
1000
,  // measure 23
0100
0001
0100
1000
,  // measure 24
0020
0030
0001
0010
,  // measure 25
0100
0100
1000
0100
,  // measure 26
2000
3000
0100
0010
,  // measure 27
0100
0010
0001
1000
,  // measure 28
0001
0001
0001
1000
,  // measure 29
0010
0100
0001
1000
,  // measure 30
0020
0130
0001
0010
,  // measure 31
0100
0010
1000
0100
,  // measure 32
0020
0130
0100
0100
,  // measure 33
0010
0001
0001
0001
,  // measure 34
1000
0100
0100
0100
,  // measure 35
0010
1000
0010
0100
,  // measure 36
0001
0010
0100
1000
,  // measure 37
0110
0100
0010
0001
,  // measure 38
0010
0100
0010
1000
,  // measure 39
1001
0010
0001
0010
,  // measure 40
0100
0010
1000
0100
,  // measure 41
0110
1000
0100
1000
,  // measure 42
0010
0100
0010
0001
,  // measure 43
0100
0100
0010
0010
,  // measure 44
0100
0010
1000
0001
,  // measure 45
1001
0000
0000
0000
;
