#TITLE:Cardboard Box;
#SUBTITLE:;
#ARTIST:FLO;
#TITLETRANSLIT:;
#SUBTITLETRANSLIT:;
#ARTISTTRANSLIT:;
#CREDIT:;
#BANNER:Cardboard Box banner.png;
#BACKGROUND:Cardboard Box bg.png;
#LYRICSPATH:;
#CDTITLE:;
#MUSIC:Cardboard Box.mp3;
#OFFSET:-6.800;
#SAMPLESTART:36.560;
#SAMPLELENGTH:15.000;
#SELECTABLE:YES;
#BPMS:0.000=80.500;
#STOPS:;
#BGCHANGES:;

//---------------dance-single - ----------------
#NOTES:
     dance-single:
     :
     Challenge:
     8:
     0.468,0.421,0.142,0.115,0.493:
0001
0000
1000
0000
0010
0000
0000
0000
0010
0000
0100
0001
1000
0010
0001
0100
,
0010
1000
0001
0100
0020
0000
0230
0000
,
0310
0001
0000
1000
0000
0001
0000
1000
0000
0100
0000
0010
0000
0100
0000
0010
,
0000
0000
0100
0000
0010
0000
1000
0000
0100
0010
0001
0010
0000
0100
0000
0000
,
1000
0001
0000
0010
0000
0001
0000
1000
0000
0100
0000
1000
0000
0010
0000
0002
,
0000
0000
0010
0000
0013
0000
0100
0000
0010
0000
1000
0001
0000
0000
1001
0000
,
0010
0100
0010
0100
1000
0000
1000
0100
0010
0000
0100
0000
0101
0000
0000
0000
,
0001
0010
0100
1000
0100
0010
0001
0010
0100
0010
0100
0000
1001
0000
0000
0000
,
0100
0010
0100
0010
1000
0000
0001
0100
0001
0000
0010
0000
1010
0000
0000
0000
,
0100
0010
1000
0100
0010
0001
0010
0000
0110
0000
0000
0010
0000
0000
0100
0000
,
0001
0010
0100
1000
0100
0000
0100
0010
0001
0000
0001
0000
0011
0000
0010
0000
,
0100
0010
0100
0010
0001
1000
0001
1000
0100
0010
0100
0000
0110
0000
1000
0000
,
0100
0010
1000
0001
0100
0010
0001
0010
0100
0000
0100
0000
0010
0000
0000
0000
,
0000
0100
0010
0100
0001
1000
0001
0000
0010
0000
0000
0100
0000
0000
0010
0000
,
2000
0000
3100
0010
0200
0000
0310
1000
,
0002
0000
0000
0000
0013
0000
0100
0000
2000
0000
0000
0000
3100
0010
0100
0010
,
0001
0000
0010
0000
0100
1000
0100
0000
0010
0100
0010
0000
1000
0000
0001
0000
,
1000
0000
0010
0100
0010
0001
0010
0000
0100
1000
0100
0000
0010
0000
0100
0000
,
0020
0100
0130
0001
0020
1000
1030
0100
,
2000
0000
0100
0000
3100
0000
0010
0000
0200
0000
0001
0000
0301
0010
0100
1000
,
0100
0000
0010
0000
0010
1000
0001
0000
0010
0100
0010
0000
1000
0000
0100
0000
,
0010
0000
0001
0000
0010
0100
0010
0000
1000
0001
1000
0000
0100
0000
0010
0000
,
0110
0000
0100
0001
1000
0000
1000
0001
0100
0000
0010
0000
0110
0000
0100
0000
,
0001
1000
0010
0001
0010
0100
1000
0100
0010
0001
0010
0000
0110
0000
1000
0000
,
0001
0010
0100
1000
0100
0000
0010
0100
0010
0000
1000
0000
1001
0000
0001
0000
,
0010
0100
0010
0100
0001
1000
0001
0000
0100
0000
0010
1000
0000
1000
0010
0000
,
0100
0010
0001
0010
0100
0000
1000
0010
1000
0000
1000
0000
1010
0000
0100
0010
,
0100
0010
0001
1000
0010
0100
0010
1000
0010
0001
0100
0000
0110
0000
0001
0000
,
0010
0100
0010
0001
0010
0100
1000
0100
0010
0000
0100
0000
0011
0000
0100
0000
,
0010
1000
0010
0100
0010
0001
0010
0000
0100
0000
0001
1000
0000
1000
0001
0000
,
0100
0000
0100
0010
0000
0000
0010
0000
0100
0000
0001
1000
0001
0000
0010
0000
,
0100
0000
1000
0010
0000
0000
0010
0000
0100
0010
0100
0000
0110
0000
0001
0000
,
1000
0000
0001
0010
0000
0010
0100
0000
0010
0000
1000
0001
1000
0000
0100
0000
,
0000
0010
0100
0010
1000
0001
1000
0000
0002
0000
0000
2000
0000
3003
1001
0000
;

//---------------dance-single - ----------------
#NOTES:
     dance-single:
     :
     Hard:
     7:
     0.334,0.287,0.098,0.124,0.036:
0010
0100
0010
0000
1000
0001
1000
0100
,
0010
0100
0001
1000
0200
0000
0320
0000
,
1030
1000
0100
0010
0001
0010
0100
0010
,
2000
0000
3100
0000
0010
0010
0100
0010
,
0001
0010
0001
0100
0010
0100
1000
0100
,
0020
0000
0130
0000
0001
1000
1000
0001
,
1001
0010
0100
0010
1000
1000
1001
0000
,
0001
0010
0100
0010
0001
0010
0110
0000
,
0100
0010
1000
0010
0001
0100
0010
0000
,
0010
0000
0100
0000
0001
0000
0001
0000
0010
0000
0000
0100
0000
0000
0010
0000
,
0100
1000
0100
0010
0100
0001
1001
0000
,
0001
0010
0100
0010
1000
0010
0110
0000
,
1000
0100
0010
0010
0100
0010
1000
0000
,
0100
0000
0001
0000
1000
0000
0010
0000
0001
0000
0000
1000
0000
0000
0001
0000
,
0020
0130
0002
1003
,
0200
0000
0310
0000
2000
0000
3001
0010
,
0100
0010
0010
1000
0001
0100
0010
0000
,
1000
0100
0100
0010
0001
0010
0100
0000
,
0020
0100
0130
0000
2000
0100
3100
0000
,
0200
0010
0310
0000
0002
0010
0013
0000
,
0100
0010
0001
0010
0100
0010
1000
0000
,
1000
0010
0100
0010
0001
0010
0100
0010
,
0110
0100
0001
1000
0010
0010
0110
0100
,
1000
0100
0010
0001
0010
0100
1000
1000
,
0100
0010
0001
0010
0100
0010
1001
0000
,
0010
0000
0100
0000
0010
0000
0010
0000
0001
0000
0000
1000
0000
0000
0001
0000
,
0010
0100
0010
0100
0100
1000
1100
0100
,
0010
0100
0010
0001
0100
0010
0110
0001
,
0010
0100
0010
1000
0001
1000
0010
0000
,
0010
0000
0100
0000
0100
0000
1000
0000
0010
0000
0000
0100
0000
0000
0010
0000
,
0100
0000
0001
0000
1000
0000
0010
0000
0100
0010
0100
0000
0010
0000
0000
0000
,
0001
0000
0010
0000
0100
0000
1000
0000
0100
0000
0010
1000
0010
0000
0000
0000
,
0100
0000
0010
0000
1000
0000
0001
0000
1000
0001
1000
0000
0100
0000
0000
0000
,
0000
0000
0010
0000
0100
0000
0001
0000
2000
0000
0000
0200
0000
3300
0010
0000
,
1001
0000
0000
0000
;

//---------------dance-single - ----------------
#NOTES:
     dance-single:
     :
     Medium:
     6:
     0.273,0.242,0.044,0.169,0.000:
0010
0000
0100
0000
0001
0010
0100
0000
,
1000
0000
0100
0010
0200
0000
0020
0300
,
1030
0000
1100
0000
0100
0000
0010
0001
,
0010
0000
0110
0000
0100
0000
0001
1000
,
0001
0000
0011
0000
0010
0000
0100
1000
,
0100
0000
0110
0000
0010
1000
0001
1000
,
0010
0010
0010
0000
0100
0001
1000
0000
,
1000
0100
0010
0000
0001
0001
0001
0000
,
0010
0001
0100
0000
0010
0010
0010
0000
,
1000
1000
1000
0100
0002
0000
0103
0010
,
0100
0001
1000
0000
0100
0100
0010
0000
,
1000
0010
0001
0000
0001
0010
0010
0000
,
0100
0010
0100
0001
1000
1000
0100
0000
,
0000
0010
0100
0010
0100
0000
0001
0010
,
2000
3000
0020
0030
,
0200
0000
0300
0000
0002
0000
0013
0010
,
0010
0000
0100
0010
0100
0000
0010
0000
,
1000
0000
1000
0100
1000
0100
0100
0000
,
0020
0031
0002
0103
,
0200
0000
1300
0000
2000
0000
3010
0100
,
0010
0010
0001
0010
0010
0100
0010
0000
,
1000
0000
0001
0000
0100
0000
0010
0010
,
0100
0000
0001
1000
0010
0100
0100
0000
,
0010
1000
0010
0000
0100
0001
0100
0000
,
0010
0001
0001
1000
0100
1000
0100
0000
,
0010
1000
0001
0000
0200
0000
0310
1000
,
0010
0010
0010
0000
0100
0001
0100
0000
,
0010
0100
0001
0000
0001
0100
0010
0000
,
1000
1000
0100
0010
0001
0001
0010
0000
,
0000
0010
0100
0001
0020
0000
0130
1000
,
0020
0000
0130
0100
0002
0000
0013
0000
,
1000
0000
0010
0100
0010
0001
0010
0000
,
0200
0000
0310
1000
0020
0000
0130
0000
,
0000
0010
0100
0010
2000
0000
0002
3003
,
1001
0000
0000
0000
;

//---------------dance-single - ----------------
#NOTES:
     dance-single:
     :
     Easy:
     2:
     0.203,0.181,0.098,0.187,0.000: // measure 1
0010
0010
0100
0001
,  // measure 2
1000
0100
0020
0031
,  // measure 3
0010
0100
0001
0100
,  // measure 4
2000
3000
0200
0310
,  // measure 5
0100
1000
0100
0010
,  // measure 6
0002
0003
0010
0110
,  // measure 7
0100
0001
1000
1000
,  // measure 8
0100
0010
0001
0001
,  // measure 9
0010
0100
0010
0010
,  // measure 10
1000
0001
0200
0320
,  // measure 11
0130
0001
0100
0110
,  // measure 12
0010
1000
0010
0110
,  // measure 13
1000
0001
1000
1001
,  // measure 14
0000
0100
0100
0020
,  // measure 15
0230
0300
0020
0030
,  // measure 16
2000
3000
0002
0013
,  // measure 17
0100
0100
1000
1000
,  // measure 18
0110
0100
0010
0010
,  // measure 19
2000
3000
0200
0310
,  // measure 20
0002
0003
0020
0130
,  // measure 21
0010
0010
0100
0100
,  // measure 22
0001
1000
0001
0100
,  // measure 23
0110
1000
0010
0010
,  // measure 24
0100
0001
0100
0100
,  // measure 25
1001
0001
0010
0010
,  // measure 26
0100
1000
0002
0203
,  // measure 27
0310
1000
0010
0110
,  // measure 28
0100
0001
0100
0110
,  // measure 29
1000
0010
0001
1001
,  // measure 30
0000
0010
0020
0230
,  // measure 31
0310
0001
1000
0010
,  // measure 32
0100
1000
0010
0100
,  // measure 33
0001
1000
0010
0100
,  // measure 34
0010
0000
0010
0000
0002
0000
2000
3003
,  // measure 35
1001
0000
0000
0000
;
