#TITLE:CUTIE HONEY;
#SUBTITLE:;
#ARTIST:Kumi Koda;
#TITLETRANSLIT:;
#SUBTITLETRANSLIT:;
#ARTISTTRANSLIT:;
#CREDIT:;
#BANNER:CUTIE HONEY banner.png;
#BACKGROUND:CUTIE HONEY bg.png;
#LYRICSPATH:;
#CDTITLE:;
#MUSIC:CUTIE HONEY.mp3;
#OFFSET:-6.260;
#SAMPLESTART:24.380;
#SAMPLELENGTH:15.000;
#SELECTABLE:YES;
#BPMS:0.000=155.000;
#STOPS:;
#BGCHANGES:0.000=CUTIE HONEY.avi=1.000=1=0=0,
99999=-nosongbg-=1.000=0=0=0 // don't automatically add -songbackground-
;

//---------------dance-single - ----------------
#NOTES:
     dance-single:
     :
     Hard:
     9:
     0.645,0.671,0.424,0.289,0.207:
1001
0000
0010
0000
0100
0000
0010
0000
0000
0001
0000
0010
0100
0000
1000
0000
,
0010
0000
0100
0000
0001
0000
2000
0000
0000
0000
3100
0010
0100
0000
0001
0000
,
1001
1000
0100
0010
0100
0010
0001
1000
,
0020
0000
0130
0001
1000
0020
0000
0030
,
0100
0001
1000
0001
1001
0000
0010
0100
,
0020
0000
0031
0100
1000
0200
0000
0300
,
0001
0010
0000
0000
0010
0100
0000
0000
0100
1000
0000
0000
1000
0100
0010
0000
,
0110
0220
0000
0030
0301
0000
0001
0000
,
0010
0100
0000
0100
0110
0000
1000
0001
,
1100
0000
0000
0000
0100
0000
0010
0000
0110
0000
0000
0001
0010
0000
0100
0000
,
0110
0000
0000
0000
1000
0100
0010
0001
0010
0100
1000
0100
0010
0001
0010
0100
,
1000
1001
0000
0110
0000
0001
0010
0100
,
1000
2100
0000
0000
3100
0000
0010
0100
,
0010
0012
0000
0000
0013
0000
0100
0000
,
0010
0110
0100
0001
0001
0010
1000
0020
,
0100
0030
0100
0000
1000
0100
0010
0001
,
0010
0100
1000
0000
0110
0000
1000
1000
,
0100
0010
0100
0010
0002
0000
0013
0000
,
0011
0110
1000
1000
0100
0010
0100
0001
,
1000
0100
0010
0001
,
1001
0001
0010
0001
0011
0010
0100
0010
,
0110
0000
0000
0100
0000
0000
1000
0000
0000
0100
0000
0000
1000
0000
0001
0000
1000
0000
0001
0000
0000
0010
0000
0000
,
0100
2000
0000
3000
0010
1000
0001
0100
,
0110
0110
0110
0000
0001
2000
0000
3000
,
1001
0100
0000
0010
0000
0100
0001
1000
,
0020
0000
0130
0001
1000
0010
0100
0010
,
0100
0000
0100
0000
0001
0000
0000
0000
0010
0000
0000
0010
0000
0000
0100
0000
,
1000
0100
0010
0100
0001
1000
1000
0100
,
0010
0000
0100
0000
1000
0000
0000
0000
0100
0000
0000
0010
0000
0000
0100
0000
,
0010
0001
0000
0000
1000
0100
0000
0000
0010
0001
0000
0000
1000
0100
0000
0000
,
0110
0000
0100
0000
0001
0000
1000
0000
0000
0010
0000
0100
0010
0000
1000
0000
,
0010
0000
0100
0000
0001
0000
0020
0000
0000
0000
0130
1000
0100
0000
0010
0000
,
0110
1000
0100
0010
0100
0100
0010
0001
,
0020
0000
0130
0001
1000
0020
0000
0030
,
0100
0100
0010
1000
1001
0001
0010
0100
,
0010
0000
0010
1000
0001
0200
0000
0310
,
1000
0100
0000
0000
0100
0010
0000
0000
0010
0001
0000
0000
0001
0010
0100
0000
,
1001
2002
0000
0003
3001
0010
0100
1000
,
0100
0010
0001
0010
0010
0100
0010
0100
,
1001
0000
0000
0000
0001
0000
0010
0000
0001
0000
0000
0010
0100
0000
0010
0000
,
1000
0000
0000
0000
0001
0010
0100
1000
0100
0010
0001
0010
0100
1000
0100
0010
,
0001
0010
0100
1100
0000
0010
0100
0010
,
1001
0200
0310
0001
0010
0100
1000
0100
,
0110
0002
0013
0100
0010
1000
0100
0000
,
0001
0001
0110
1000
0100
0010
1000
0002
,
0013
0000
0100
0000
0010
1000
1000
0100
,
0010
0100
0110
0000
0010
0000
1000
0001
,
0100
0100
0010
1000
0002
0000
0013
0000
,
1100
0100
0110
0010
0001
1000
0001
0010
,
0001
0010
0100
1000
,
1100
0100
0010
0100
0110
0010
0001
0010
,
0011
0000
0000
0001
0000
0000
0010
0000
0000
0001
0000
0000
0001
0000
1000
0000
0001
0000
1000
0000
0000
0010
0000
0000
,
0100
0000
0020
0000
0000
0000
0030
0000
0100
0010
0100
0001
1000
0001
0100
0010
,
0100
0100
0110
0000
1000
0002
0000
0003
,
1001
0010
0000
0100
0000
0010
1000
0001
,
0200
0010
1000
0301
,
0000
0000
0000
0000
,
2002
0000
0000
0000
,
0000
0000
0000
0000
,
3003
0000
0000
0000
,
0110
0000
0000
0000
0001
0010
2000
0000
0000
0000
3000
0000
0000
0000
0000
0000
;

//---------------dance-single - ----------------
#NOTES:
     dance-single:
     :
     Challenge:
     8:
     0.579,0.607,0.356,0.693,0.029:
0010
0000
0001
0000
1000
0000
0100
0000
0000
1000
0000
0100
1000
0000
0100
0000
,
0010
0000
0002
2000
0000
0000
3003
0000
,
0010
0010
0001
0010
0001
1000
0100
0000
,
0020
0000
0031
0000
1000
1100
0000
0000
,
0100
0100
0001
0100
0001
1000
0010
0000
,
0200
0000
0301
0000
1000
1010
0000
0000
,
0010
0001
0010
0001
0100
0001
0100
0001
,
1000
0010
1000
0010
1000
0100
1000
0100
,
0010
0001
1000
0001
0010
0000
1001
0000
,
0010
1000
0001
1000
0010
0000
1001
0000
,
0100
0010
1000
0001
1000
0010
0100
0001
,
1000
0100
0000
2002
0000
0000
0000
3003
,
1020
0000
2030
0010
0001
0000
3100
0000
,
0021
0000
0031
0010
0002
1000
0103
0000
,
1200
0000
2300
0100
0001
0000
3010
0000
,
0201
0000
0301
0100
0002
1000
0013
0000
,
0020
0032
2003
3200
,
2300
3002
0203
0310
,
2010
0010
3001
0000
1002
1000
0103
0000
,
0012
0010
1003
0000
2001
0001
3100
0000
,
0020
0001
0031
0000
0002
1000
1003
0000
,
2000
0100
3100
0000
0200
0010
0310
0000
,
0002
0013
2000
3100
,
1001
1001
1001
0000
0000
0000
0000
0000
,
0010
0002
0000
2003
0000
3001
1000
0100
,
0010
0000
0100
0000
0010
0001
1000
0001
1000
0000
0100
0000
0010
0000
0000
0000
,
0100
0000
0020
0000
0130
0001
0100
0000
,
0010
0000
2000
0000
3100
0010
0100
0010
,
0001
0000
0020
0000
0130
0001
1000
0010
,
1100
0000
0110
0000
0011
0000
1000
0010
,
0010
0000
1000
0000
0001
0000
0100
0000
0000
0001
0000
0100
0001
0000
0100
0000
,
0010
0000
2000
0002
0000
0000
3003
0000
,
0010
0010
1000
0010
1000
0001
0100
0000
,
0020
0000
1030
0000
0001
0101
0000
0000
,
0100
0100
1000
0100
1000
0001
0010
0000
,
0200
0000
1300
0000
0001
0011
0000
0000
,
0010
1000
0010
1000
0100
1000
0100
1000
,
0001
0010
0001
0010
0001
0100
0001
0100
,
0010
1000
0001
1000
0010
0000
1001
0000
,
0010
0001
1000
0001
0010
0000
1001
0000
,
0010
0100
0001
1000
0001
0100
0010
1000
,
0001
0010
0000
2002
0000
0000
3003
0000
,
0021
0000
0032
0010
1000
0000
0103
0000
,
1020
0000
1030
0010
2000
0001
3100
0000
,
0201
0000
0302
0100
1000
0000
0013
0000
,
1200
0000
1300
0100
2000
0001
3010
0000
,
0020
2030
3002
0203
,
0302
2003
3200
0310
,
0012
0010
1003
0000
2001
0001
3100
0000
,
2010
0010
3001
0000
1002
1000
0103
0000
,
0020
1000
1030
0000
2000
0001
3001
0000
,
0002
0100
0103
0000
0200
0010
0310
0000
,
2000
3010
0002
0103
,
1001
1001
1001
0000
0000
0000
0000
0000
,
0010
2000
0000
3002
0000
1003
0001
0100
,
0020
0000
0000
0030
,
0000
0000
0000
0000
,
2002
0000
0000
0000
,
0000
0000
0000
0000
0000
3003
0000
0000
,
0000
0000
0000
0000
,
0110
0000
0000
0000
;

//---------------dance-single - ----------------
#NOTES:
     dance-single:
     :
     Medium:
     7:
     0.475,0.462,0.164,0.202,0.000:
0100
0010
0100
0010
0000
0001
0010
0100
,
1000
0000
1000
0002
0000
0000
0103
0000
,
0010
1000
0100
0010
0100
0010
0001
0010
,
0100
0000
0100
0010
1000
0002
0000
0003
,
0010
0100
0010
0010
0001
0000
0010
0100
,
1000
0000
0100
0010
0100
0020
0000
0030
,
1000
0000
0100
0000
0010
0000
0001
0010
,
0100
2000
0000
3000
0100
0000
0010
0000
,
0100
0001
0000
1000
0010
0000
0010
0100
,
0010
0000
0001
1000
0001
0000
0010
0000
,
0110
0000
1000
0001
0100
0010
1000
0001
,
0100
0010
0000
0001
0000
1001
1000
0100
,
0010
0002
0000
0000
0013
0000
0100
1000
,
0100
2000
0000
0000
3100
0000
0110
0000
,
0010
1000
0010
0001
0010
0100
0000
0110
,
0000
0000
0100
0010
0100
0000
0001
1000
,
0010
0001
0000
0001
0010
0000
0100
0010
,
0100
0010
0000
1000
0001
0000
1001
0000
,
1000
1000
0100
0100
0010
0001
0000
0001
,
0020
0230
0302
2003
,
3010
0000
0110
0000
,
0100
0000
0000
0000
0001
1000
0010
0001
,
0100
0020
0000
0030
1000
0100
0010
0001
,
0010
0010
0010
0000
1000
0001
0000
0000
,
1001
0000
0100
0010
0000
0010
0100
0010
,
1000
0100
0010
0001
,
0010
0100
0010
0000
0001
0000
0010
0000
,
0100
1000
0100
0000
0010
0000
0010
0000
,
1000
0001
1000
0000
0100
0010
0100
0000
,
0001
0010
0100
1000
,
0001
0001
0010
0100
0000
1000
0100
0010
,
0001
0000
1000
0002
0000
0003
0100
0000
,
0010
1000
0001
0100
0010
0000
0010
1000
,
0010
0000
0100
0001
1000
0020
0000
0030
,
0100
0001
0100
0100
0010
0000
0001
0010
,
0001
0000
0010
0100
1000
0200
0000
0300
,
0010
0000
0001
0010
0100
0000
0010
0100
,
1000
0200
0000
0300
1000
0020
0000
0030
,
0100
0001
0000
1000
0001
0000
0100
0010
,
0110
0000
0001
1000
1001
0000
0010
0100
,
0010
0000
0001
0010
0100
1000
0100
0010
,
0001
0010
0000
0110
0000
0100
0001
1000
,
0010
0100
0010
0000
1001
0000
0010
0100
,
1000
0100
0010
0000
1001
0000
0001
0000
,
0010
0100
0010
0010
0001
0010
0100
0020
,
0130
0000
0001
0000
1000
0000
0001
0001
,
0010
0100
0010
0000
0010
0000
1000
0100
,
1000
0100
0000
0010
0110
0000
0100
0000
,
0010
1000
0010
0001
0010
0100
0000
0100
,
0010
0100
0010
1000
,
0001
0000
1001
0000
,
1000
0000
0000
0000
0100
0010
1000
0001
,
0100
0020
0000
0030
0100
0010
0001
0010
,
0100
0100
0100
0000
0001
1000
0000
0000
,
1001
0000
0010
0001
0000
0010
0100
0010
,
0200
0010
0001
0310
,
0010
0000
0000
0000
,
2002
0000
0000
0000
,
0000
0000
0000
0000
,
3003
0000
0000
0000
,
0110
0000
0000
0000
;

//---------------dance-single - ----------------
#NOTES:
     dance-single:
     :
     Easy:
     3:
     0.305,0.318,0.106,0.193,0.000: // measure 1
0100
0010
0100
0010
,  // measure 2
0001
1000
0020
0030
,  // measure 3
0100
0100
1000
0100
,  // measure 4
0010
0100
0020
0030
,  // measure 5
0001
0010
0100
0010
,  // measure 6
0001
0010
2000
3000
,  // measure 7
0100
0100
0010
0010
,  // measure 8
0002
0003
0020
0030
,  // measure 9
0100
0100
0010
1000
,  // measure 10
0001
0001
0010
0100
,  // measure 11
1000
0100
0100
0010
,  // measure 12
0100
0010
0001
1000
,  // measure 13
0002
0003
0010
0100
,  // measure 14
2000
3000
0100
0010
,  // measure 15
0100
0100
0010
0010
,  // measure 16
0001
0000
0010
0000
,  // measure 17
0100
0100
1000
0100
,  // measure 18
0010
0100
0020
0030
,  // measure 19
0100
0100
0010
0010
,  // measure 20
1000
0001
0100
0010
,  // measure 21
0001
0000
0010
0000
,  // measure 22
0100
0000
1000
1000
,  // measure 23
0100
0010
0100
0001
,  // measure 24
1001
1001
0000
0000
,  // measure 25
0110
0000
1000
0000
,  // measure 26
0001
0000
0100
0000
,  // measure 27
0010
0010
0100
0100
,  // measure 28
0001
0001
1000
1000
,  // measure 29
0100
0010
0100
0010
,  // measure 30
0001
1000
0001
1000
,  // measure 31
0001
0010
0100
1000
,  // measure 32
0100
0010
0200
0300
,  // measure 33
0010
0010
0100
0010
,  // measure 34
0001
1000
0020
0030
,  // measure 35
0100
0001
1000
1000
,  // measure 36
0100
0010
0200
0300
,  // measure 37
1000
0100
0010
0001
,  // measure 38
0020
0030
0002
0003
,  // measure 39
0100
0100
0010
0010
,  // measure 40
0001
1000
0001
0001
,  // measure 41
0010
0100
0010
1000
,  // measure 42
0100
0100
0010
0010
,  // measure 43
2001
3000
0100
0010
,  // measure 44
0120
0030
0100
0100
,  // measure 45
0010
1000
0100
0001
,  // measure 46
0010
0010
0100
0100
,  // measure 47
0001
0020
0030
1000
,  // measure 48
0010
0010
0110
0001
,  // measure 49
0010
0100
0010
0001
,  // measure 50
2000
3000
0100
0000
,  // measure 51
0010
0000
0100
0000
,  // measure 52
0010
0000
1000
0001
,  // measure 53
1000
0010
0100
0100
,  // measure 54
0110
0110
0000
0000
,  // measure 55
1001
0000
0010
0100
,  // measure 56
0020
0000
0130
0001
,  // measure 57
0100
0000
0000
0000
,  // measure 58
2002
0000
0000
0000
,  // measure 59
0000
0000
0000
0000
,  // measure 60
3003
0000
0000
0000
,  // measure 61
0110
0000
0000
0000
;
