#TITLE:CANDY GIRL;
#SUBTITLE:;
#ARTIST:hitomi;
#TITLETRANSLIT:;
#SUBTITLETRANSLIT:;
#ARTISTTRANSLIT:;
#CREDIT:;
#BANNER:CANDY GIRL banner.png;
#BACKGROUND:CANDY GIRL bg.png;
#LYRICSPATH:;
#CDTITLE:;
#MUSIC:CANDY GIRL.mp3;
#OFFSET:-11.540;
#SAMPLESTART:95.300;
#SAMPLELENGTH:15.000;
#SELECTABLE:YES;
#BPMS:0.000=106.000;
#STOPS:;
#BGCHANGES:;

//---------------dance-single - ----------------
#NOTES:
     dance-single:
     :
     Hard:
     8:
     0.445,0.394,0.141,0.091,0.355:
0010
0100
0001
0010
0001
0010
0100
1000
,
0100
1000
0010
0100
0001
0010
0100
0000
,
0100
1000
0000
0100
0000
0000
0010
0000
0100
0000
0000
0010
0000
0000
0001
0000
,
0010
0000
0000
0100
0000
0000
1000
0000
0100
0000
0000
0010
0000
0000
0100
0000
,
0001
0010
0000
0010
0000
0000
0010
0100
0000
0100
0000
0000
1000
0100
0000
0010
,
0001
0010
0100
1000
0100
0010
0001
0000
,
0010
0100
0000
0100
0000
0000
1000
0001
0000
0001
0000
0000
0010
0100
0000
0001
,
1000
0010
0100
0010
1000
0100
1001
1000
,
0100
0001
0000
0010
0000
0000
0010
0100
0000
1000
0000
0000
0100
0010
0000
1000
,
0001
0100
0010
1000
0100
0010
0100
0010
,
0001
0000
0000
0010
0000
0000
0100
0000
1000
0000
0000
0100
0000
0000
0010
0000
,
0110
0000
0000
0010
0000
0000
0100
0000
0101
0000
0000
0010
0000
0000
1000
0000
,
1001
0000
0110
1000
0001
0000
0010
0000
,
0100
0010
0100
0000
0002
0000
0003
0010
,
0110
0000
1000
0100
1000
0000
0010
0000
,
0100
1000
0001
0100
0010
1000
0001
0000
,
1000
0010
0100
0010
0001
0010
0100
0010
,
1000
0000
0001
0000
0100
0010
0000
0001
0000
0010
0000
0000
0100
0000
0000
0000
,
0010
1000
0100
0010
0100
0001
0100
1000
,
0100
0010
0000
1000
0000
0000
0000
0000
0200
0000
0000
0000
0310
0000
0000
0000
,
0001
0010
0100
0010
1000
0100
0001
0100
,
1000
0000
0010
0200
0000
0000
0300
0000
0010
0000
0001
0000
0010
0000
0000
0000
,
0100
0010
0100
0001
1000
0001
0100
0010
,
1000
0000
0100
0000
0001
0000
0010
0100
0010
0000
2000
0000
0000
0000
3000
0000
,
0100
0000
0010
0000
1000
0000
0001
0000
0100
0010
0100
0010
0000
0001
1000
0001
,
0000
0100
0000
1000
0000
0000
0000
0000
0100
0000
0010
0000
0100
0000
0000
0000
,
0010
0100
0000
0010
0001
0000
0010
0000
0100
1000
0000
0100
0000
0000
0010
0000
,
0100
0000
0001
0000
1000
0000
0010
0001
0000
0000
0000
0000
0110
0000
0000
0000
,
1000
0000
0100
0010
0100
0000
0010
0000
0001
0000
0000
0010
0000
0100
0010
0000
,
0100
0000
0001
2000
0000
0000
3000
0000
0001
0000
1000
0000
0001
0000
0000
0000
,
0100
0010
0000
1000
0010
0000
0100
0000
0001
0000
1000
0010
0000
0000
0100
0000
,
0010
0001
1000
0001
1000
0100
0110
0000
,
0001
0010
0000
0020
0000
0000
0030
0000
0100
1000
0000
2000
0000
0000
3100
0000
,
0110
0000
0001
1000
1001
0000
0010
0100
,
0001
0000
0001
0010
1000
0000
1000
0100
,
0010
0000
0100
0010
0200
0000
0310
0000
,
0001
0000
0000
1000
0000
0000
0002
0000
0000
0000
0003
0000
0010
0000
0100
0000
,
1000
0001
0000
0100
0000
0000
1000
0001
0000
0100
0000
0000
0010
0100
0000
0010
,
0000
0000
1000
0001
0000
0001
1000
0000
0010
0000
0100
0000
0110
0000
0010
0000
,
0001
0100
0000
0010
0000
0000
0001
0100
0000
0010
0000
0000
0001
1000
0000
0010
,
0100
0010
1000
0001
0100
0010
1010
1000
,
0100
0010
0000
1000
0000
0000
0100
0010
0000
1000
0000
0000
0100
0010
0000
0001
,
0010
0100
0010
1000
0001
0001
0001
0000
,
0011
0000
0000
0010
0000
0000
0100
0000
0010
0000
0000
1100
0000
0000
0100
0000
,
0110
0000
0000
1000
0000
0000
0001
0000
0100
0000
0000
0010
0000
0000
1000
0000
,
0010
0100
0000
0100
0010
0000
0010
1000
0000
1000
0010
0000
0100
0000
0001
0000
,
0100
0010
1000
0010
0100
0010
0100
0001
,
1000
0010
0000
0010
0001
0000
0001
0010
0000
0010
1000
0000
0100
0010
0000
0100
,
0010
1000
0001
0010
0001
0010
0100
0100
,
0001
0010
0000
0010
0001
0000
0100
0010
0000
0010
0100
0000
1000
0001
0000
0001
,
1000
0100
0010
0001
0010
0100
1001
0000
,
2000
0000
0000
3100
0000
0000
0010
0000
0200
0000
0000
0310
0000
0000
0001
0000
,
0020
0000
0000
0130
0000
0000
0100
0000
0020
0000
0000
1030
0000
0000
0001
0000
,
1001
0000
0110
1000
0001
0100
0010
0000
,
0100
0010
0001
0010
0100
1000
0100
0010
,
0110
0000
1000
0100
0001
0100
1000
0000
,
1001
0000
0000
0000
;

//---------------dance-single - ----------------
#NOTES:
     dance-single:
     :
     Medium:
     6:
     0.351,0.315,0.056,0.077,0.000:
1000
0100
0010
0000
0010
0100
0001
0000
,
0001
0010
0100
0000
0010
1000
0010
0000
,
0100
0000
0010
0001
0100
0000
0010
1000
,
0001
0000
0001
0010
1000
0000
1000
0010
,
0100
0001
0100
0000
0100
0010
0100
0000
,
0001
1000
0001
0000
0100
0010
0010
0100
,
0010
1000
0010
0000
0100
0001
0100
0000
,
0010
1000
0010
0100
0001
0001
0001
0010
,
0100
0001
0100
0000
0010
1000
0010
0000
,
0100
0010
1000
0100
0001
0100
1000
0000
,
0110
0000
1000
0000
0100
0000
0010
0001
,
0010
0000
0100
0010
0100
0000
1000
0100
,
1000
0000
0110
0000
1000
0001
0100
0000
,
0100
0001
1000
0000
0020
0000
0030
0100
,
0110
0000
0010
0100
0010
0000
1000
0000
,
0001
0010
0100
1000
0100
0010
0001
0000
,
1000
0000
0010
0000
0100
0010
0001
0000
,
0001
0010
0100
0000
2000
0000
3100
0000
,
0010
0100
0010
0000
1000
0001
1000
0000
,
0100
0100
0020
0000
0130
0100
1000
0000
,
0100
0001
0100
0000
0010
1000
0010
0000
,
0100
0001
0020
0000
0031
0000
0100
0000
,
0010
1000
0001
0000
0001
1000
0010
0000
,
0100
0100
0100
0000
0001
0020
0000
0030
,
0100
0001
1000
0001
0010
0000
0100
0000
,
0010
1000
0010
0000
0100
0001
0100
0000
,
0010
1000
0100
0001
0100
0000
0100
0000
,
1000
0100
0010
0000
0010
0001
0010
0000
,
1000
0100
0010
0001
0010
0000
0100
0010
,
0001
0011
0010
0100
,
1000
0010
0100
0001
0100
0000
0010
0000
,
1000
0010
1000
0000
0100
0001
0100
0000
,
0010
1000
0002
0003
0010
0001
2000
3000
,
0100
0010
0000
0010
0200
0000
0310
1000
,
0001
0200
0000
0310
0002
0000
0013
0000
,
0100
0010
0000
0010
0100
0000
1000
0000
,
0001
0000
1000
0002
0000
0000
1003
0010
,
0001
1000
0001
0000
0010
0100
0010
0000
,
1000
0100
0010
0100
0010
0001
0010
0000
,
0100
0010
0100
0000
0001
0010
0001
0000
,
0010
0100
0010
0001
0010
0100
1000
0000
,
0100
1000
0100
0000
0010
0100
0010
0000
,
1000
0100
0010
0100
0010
0001
0010
0000
,
0010
0000
0100
0001
1000
0000
1000
0001
,
0100
0000
0010
0100
0010
0000
1001
0000
,
0010
0100
0010
0001
0010
0100
1000
0000
,
1000
0000
0100
0010
0100
0010
0001
0000
,
0001
1000
0100
1000
0010
0001
0010
0000
,
0100
0010
0100
0000
1000
0000
1001
0000
,
0001
0010
0100
0010
0001
1000
0100
0000
,
0010
1000
0010
0100
0010
0100
0010
0000
,
0001
0000
1000
0010
0001
0000
0001
0010
,
1000
0000
0100
0010
0100
0000
0001
0010
,
0100
1001
0010
0100
,
0010
0000
1000
0000
0001
0000
0100
0010
,
0010
0100
0001
1000
,
1001
0000
0000
0000
;

//---------------dance-single - ----------------
#NOTES:
     dance-single:
     :
     Easy:
     2:
     0.238,0.217,0.070,0.120,0.000: // measure 1
1000
0100
0010
0001
,  // measure 2
0001
0010
0100
1000
,  // measure 3
0010
0100
0010
0001
,  // measure 4
0010
0100
0010
0100
,  // measure 5
0001
0001
1000
1000
,  // measure 6
0020
0030
0100
0010
,  // measure 7
0100
0100
0010
0010
,  // measure 8
2000
3000
0100
0010
,  // measure 9
0001
0001
0010
0010
,  // measure 10
0200
0300
0010
1000
,  // measure 11
0010
0010
0100
0100
,  // measure 12
0001
0010
0100
1000
,  // measure 13
1000
1001
0010
0100
,  // measure 14
0010
1000
0002
0003
,  // measure 15
1001
0100
0010
0100
,  // measure 16
0010
0010
0010
0010
,  // measure 17
0100
0010
1000
0100
,  // measure 18
0001
0010
0200
0300
,  // measure 19
0010
0001
0010
0100
,  // measure 20
0020
0030
1000
1000
,  // measure 21
0100
1000
0100
0010
,  // measure 22
0100
0002
0003
0010
,  // measure 23
0001
0010
0100
0010
,  // measure 24
0100
1000
0100
0010
,  // measure 25
0110
0100
0010
1000
,  // measure 26
0100
0002
0013
0010
,  // measure 27
0100
0010
1000
0100
,  // measure 28
0001
0100
0020
0030
,  // measure 29
0100
0010
1000
1000
,  // measure 30
0100
0002
1003
1000
,  // measure 31
0100
0010
0100
0001
,  // measure 32
1000
0001
1000
1000
,  // measure 33
0100
0010
0100
0010
,  // measure 34
0002
0003
2000
3000
,  // measure 35
0020
0030
0200
0300
,  // measure 36
0001
1000
0002
0000
,  // measure 37
0013
0100
2000
3000
,  // measure 38
0110
0100
0010
1000
,  // measure 39
0100
0001
0001
0010
,  // measure 40
0100
0010
1000
0100
,  // measure 41
1000
1000
0001
0001
,  // measure 42
0100
0010
0001
0010
,  // measure 43
0100
0100
0010
0010
,  // measure 44
1000
0001
0100
0010
,  // measure 45
0001
1000
0001
0010
,  // measure 46
1001
1000
0100
0010
,  // measure 47
0100
0001
0001
1001
,  // measure 48
0100
0010
0001
0010
,  // measure 49
0100
1000
0100
0110
,  // measure 50
0010
0001
1000
0001
,  // measure 51
0100
0010
0001
1001
,  // measure 52
0100
0100
0100
0010
,  // measure 53
1000
1000
0001
0001
,  // measure 54
0100
0110
0001
1000
,  // measure 55
0010
0100
0020
0030
,  // measure 56
0100
0010
1000
0001
,  // measure 57
1001
0000
0000
0000
;
