#TITLE:Boogie Up;
#SUBTITLE:;
#ARTIST:WJSN;
#TITLETRANSLIT:;
#SUBTITLETRANSLIT:;
#ARTISTTRANSLIT:;
#CREDIT:;
#BANNER:Boogie Up banner.png;
#BACKGROUND:Boogie Up bg.png;
#LYRICSPATH:;
#CDTITLE:;
#MUSIC:Boogie Up.mp3;
#OFFSET:-9.620;
#SAMPLESTART:52.880;
#SAMPLELENGTH:15.000;
#SELECTABLE:YES;
#BPMS:0.000=129.000;
#STOPS:;
#BGCHANGES:;

//---------------dance-single - ----------------
#NOTES:
     dance-single:
     :
     Hard:
     8:
     0.563,0.534,0.232,0.151,0.453:
0010
0000
0100
0000
0001
0000
0010
0000
1000
0000
0000
1000
0000
0000
0100
0000
,
0001
0010
0000
0000
0010
0100
0000
0000
1001
0000
0000
0000
0010
0000
0000
0000
,
0100
0000
0010
0000
1000
0000
0001
0000
0100
0000
0000
0200
0000
0000
0000
0300
,
0010
1000
0001
1000
0001
0010
0010
0000
,
0001
0000
0010
0000
0100
0000
1000
0000
0010
0000
0000
0010
0000
0000
0100
0000
,
1000
0100
0000
0000
0100
0010
0000
0000
1001
0000
0000
0000
0100
0000
0010
0000
,
0002
0000
2003
0000
3010
0100
0020
0000
,
0130
0000
0001
0000
1000
0000
0010
0000
0100
0000
0010
0000
1000
0001
1000
0001
,
0000
0000
0001
0000
0010
0000
0100
0020
0000
0000
0000
0000
0130
1000
0100
1000
,
0000
0000
0100
0000
0010
0000
0100
0020
0000
0000
0000
0000
0031
0000
0000
0000
,
1100
0000
0000
0000
0010
0000
0100
0000
0010
0000
0001
2000
0000
0000
3010
0000
,
0011
0000
0001
0000
0010
0000
0100
0020
0000
0000
0030
0000
0100
0001
1000
0001
,
0000
0000
0001
0000
1000
0000
0001
2000
0000
0000
0000
3000
0100
0010
0100
0010
,
0000
0000
0100
0000
1001
0000
0010
0001
0000
0000
0010
0000
0110
0000
0000
0000
,
0100
0001
1000
0001
2000
0000
3100
0010
,
0100
0010
0002
0000
2003
0000
3100
0000
,
0010
0000
0000
0000
0100
0010
0100
0000
0000
0000
0000
0000
0001
0010
0001
0000
,
0000
0000
0000
0000
1000
0100
1000
0000
0010
0000
0100
0000
0001
1000
0001
0000
,
0100
0000
0000
0000
0010
0100
0010
0000
0000
0000
0000
0000
1000
0100
1000
0000
,
0000
0000
0000
0000
0100
0010
0100
0000
0001
0000
1000
0000
0010
0100
0010
0000
,
0100
0000
0001
0000
1000
0100
0010
0001
0000
0000
0001
0000
0010
0100
0010
0100
,
0000
0000
0010
0000
0001
0010
0100
1000
0000
0000
0100
0000
0010
0000
1000
0001
,
1000
0000
0000
0100
0000
0000
0010
0000
0000
0001
0000
0000
1001
0000
0000
0000
,
0100
0000
0000
0000
0010
0100
0000
0000
0010
0100
0000
0000
0010
0100
0000
0000
,
1001
0000
0000
0000
0100
0001
1000
0001
0000
0000
0001
0000
0010
0100
0010
1000
,
0000
0000
0100
0000
0010
1000
0010
0100
0000
0000
0100
0000
0001
1000
0000
0000
,
0110
0000
0000
0000
0100
0001
1000
0001
0000
0000
0001
0000
1000
0100
0010
0100
,
0010
0001
0000
0000
0010
0100
0000
0000
0010
1000
0000
0000
1000
0100
0000
0000
,
0110
0000
0100
0000
0001
0010
0001
0010
0000
0000
0010
0000
0100
1000
0100
1000
,
0000
0000
0100
0000
0010
0100
0010
0100
0000
0000
0001
0000
1000
0010
0001
0000
,
0110
0000
1100
0000
0100
0010
0011
0000
,
0110
0000
0010
0100
0001
1000
0010
0100
,
0110
0000
0010
0000
0001
0000
1000
0000
0010
0000
0001
0000
0100
0000
0000
0010
,
0001
0010
0000
0000
0100
0000
0010
0000
1000
0000
0100
0000
0001
0000
0100
0000
,
1000
0000
0010
0000
0100
0000
0010
0000
1000
0000
0001
0000
0100
0000
0000
0010
,
1000
0010
0000
0000
0100
0001
0000
0000
0001
0100
0000
0000
0010
1000
0000
0000
,
1000
0000
0100
0000
0010
0000
0001
0000
0010
0000
0100
0000
1000
0000
0010
0100
,
0010
0100
0000
0000
0010
0001
1000
0001
0000
0000
0010
0000
0100
0010
0100
0000
,
0011
0010
0210
0000
0310
1000
1010
0100
,
0101
0000
0000
0000
0010
0100
0000
0000
0100
0010
0000
0000
0010
0100
0000
0000
,
1001
0000
0000
0000
;

//---------------dance-single - ----------------
#NOTES:
     dance-single:
     :
     Medium:
     4:
     0.388,0.349,0.186,0.093,0.000:
0100
0000
0010
0100
0010
0000
1000
0000
,
0100
0001
1001
0010
,
0001
0000
0010
0100
0010
0000
1000
0000
,
0100
0001
0100
0000
0010
1000
0010
0000
,
0100
0000
0001
1000
0001
0000
0010
0000
,
0100
1000
0110
0001
,
0010
0000
0020
0000
0030
0100
0100
0000
,
0200
0000
0310
0000
1000
0000
0001
1000
,
0001
0000
0010
0100
0010
0000
0001
0010
,
0100
0000
0100
1000
0100
0000
1000
0000
,
0110
0000
1000
0001
1000
0010
0001
0000
,
0001
0010
0100
1000
0100
0000
0010
0100
,
0010
0000
1000
0100
0001
0000
0001
0100
,
1000
0000
0010
0010
0010
0000
0110
0000
,
0100
0001
1000
0001
0010
0000
0010
0100
,
0010
1000
0001
0000
0001
0000
0010
0000
,
0100
0000
0010
0020
0000
0030
0100
0200
,
0000
0300
0001
0010
1000
0000
0010
0000
,
0100
0000
0001
0002
0000
0003
1000
2000
,
0000
3000
0100
0010
0100
0000
1001
0000
,
0010
0000
0100
0010
0001
0000
0001
0010
,
0100
0000
0100
1000
0010
0000
0100
0010
,
1000
0000
0001
1000
0000
1000
0001
0000
,
0000
0110
0110
0110
,
1001
0000
0100
0010
1000
0100
0001
0000
,
0001
0000
0010
0100
0010
1000
0001
0000
,
1001
0000
0010
0010
0100
0010
1000
0000
,
0200
0302
0013
0010
,
0110
0000
0100
0010
1000
0001
0010
0010
,
0010
0000
0100
0100
0100
0000
1000
1000
,
0100
0000
0010
0000
0001
0100
0010
0000
,
0001
0000
0010
1000
0010
0000
0100
0001
,
1000
0000
0010
0100
0010
0000
1000
0000
,
0010
0100
0000
0001
0100
0010
0100
0000
,
0110
0000
0001
1000
0010
0000
0010
1000
,
0001
0010
0100
0100
,
0110
0000
1000
0100
0001
0000
0100
0010
,
0001
0010
0000
0010
0100
0000
0100
0000
,
0011
0010
0100
1100
,
0100
0001
1000
0001
,
1001
0000
0000
0000
;

//---------------dance-single - ----------------
#NOTES:
     dance-single:
     :
     Easy:
     3:
     0.275,0.302,0.105,0.093,0.000: // measure 1
0001
0001
0010
0010
,  // measure 2
0100
0001
0200
0300
,  // measure 3
1000
1000
0100
0100
,  // measure 4
0010
0010
0010
0010
,  // measure 5
0100
0001
1000
1000
,  // measure 6
0100
0010
0002
0003
,  // measure 7
0010
0020
0030
0100
,  // measure 8
0200
0300
0010
0100
,  // measure 9
0001
1000
1000
0100
,  // measure 10
0010
0001
0001
0010
,  // measure 11
0100
0110
0110
0010
,  // measure 12
0001
1001
1001
1000
,  // measure 13
0100
0010
0100
0001
,  // measure 14
1000
0100
0100
0010
,  // measure 15
1000
0100
0020
0130
,  // measure 16
0001
0100
0200
0310
,  // measure 17
0001
0000
0010
0000
,  // measure 18
0100
0000
1000
1000
,  // measure 19
0100
0000
0010
0000
,  // measure 20
1000
0000
0100
0010
,  // measure 21
0100
0100
0001
0001
,  // measure 22
1000
1000
0010
0000
,  // measure 23
0100
0010
0001
1000
,  // measure 24
0000
1000
0001
1000
,  // measure 25
1001
0010
0001
0100
,  // measure 26
0010
1000
0100
0010
,  // measure 27
0100
0010
0010
0001
,  // measure 28
1000
0001
0100
0010
,  // measure 29
0110
0010
1000
0100
,  // measure 30
0010
0100
0010
0001
,  // measure 31
0010
0200
0310
0200
,  // measure 32
0310
0001
0010
0100
,  // measure 33
0110
1000
0001
0100
,  // measure 34
0010
0001
0010
0100
,  // measure 35
0010
1000
0100
0010
,  // measure 36
1000
0001
0100
0010
,  // measure 37
0110
0001
0010
0001
,  // measure 38
0010
0100
0010
1000
,  // measure 39
0100
0100
0010
0001
,  // measure 40
0001
1000
0001
1000
,  // measure 41
1001
0000
0000
0000
;
