#TITLE:Basics;
#SUBTITLE:;
#ARTIST:TWICE;
#TITLETRANSLIT:;
#SUBTITLETRANSLIT:;
#ARTISTTRANSLIT:;
#CREDIT:;
#BANNER:Basics banner.png;
#BACKGROUND:Basics bg.png;
#LYRICSPATH:;
#CDTITLE:;
#MUSIC:Basics.mp3;
#OFFSET:-7.500;
#SAMPLESTART:90.940;
#SAMPLELENGTH:15.000;
#SELECTABLE:YES;
#BPMS:0.000=138.000;
#STOPS:;
#BGCHANGES:;

//---------------dance-single - ----------------
#NOTES:
     dance-single:
     :
     Hard:
     9:
     0.598,0.657,0.156,0.148,0.342:
0110
0000
0000
0010
0000
0000
0000
0000
0100
0001
0100
0000
0010
0000
1000
0000
,
0001
0000
0000
0001
0000
0000
1000
0100
1000
0000
0100
0000
0010
0000
0100
0000
,
1001
0000
0000
1000
0000
0000
0000
0000
0100
0000
0010
0000
0100
0000
0010
0000
,
1000
0000
0000
0100
0000
0000
0010
0000
0001
0000
0000
0010
0000
0000
0100
0000
,
1000
0000
0000
0020
0000
0000
0000
0000
0130
0000
0001
0000
1000
0000
0010
0000
,
0110
0000
0000
0200
0000
0000
0000
0000
0310
0000
0010
0000
1000
0000
0001
0000
,
0010
0000
0000
0010
0000
0000
1000
0001
1000
0000
0010
0000
0100
0000
0001
1000
,
0001
0000
0000
0010
0000
0000
0100
0000
0000
0000
0001
0000
1000
0000
0001
0000
,
2001
0000
3100
0000
0001
0010
0100
1000
,
0010
0100
0010
1000
0001
0100
0010
1000
,
0020
0000
0130
0000
0001
0010
0001
1000
,
0100
1000
0010
0100
0010
1000
0100
0010
,
0002
0000
1003
0000
0010
1000
0001
0100
,
0010
1000
0001
1000
0100
0010
0001
0010
,
0200
0000
0310
1000
0100
0001
0100
1000
,
0010
0000
0010
0000
0100
0000
0000
0000
0100
0010
0000
0010
0100
0000
0010
0000
,
1001
0000
1000
0100
0000
0100
0010
0100
,
0000
0010
0001
0010
0000
0001
0010
0100
,
0000
0010
0100
1000
0000
0010
0100
0010
,
0000
1000
0001
1000
0000
0000
0010
0100
,
0110
0000
0010
0001
0010
0000
0010
1000
,
0010
0000
0100
0010
0200
0000
0300
0010
,
1000
0100
0010
0001
0010
0000
0010
0000
0001
0010
0100
0000
1000
0000
1000
0000
,
0100
0010
0100
0000
0001
0000
1000
0000
0010
0000
0100
0000
0100
0000
0000
0000
,
0110
0010
1000
0001
0100
0010
1000
0001
,
1000
1000
0001
0001
0100
0000
0110
0000
,
0010
1000
0010
0001
0010
1000
0010
0001
,
0001
0010
0010
0100
1000
0000
2000
0000
,
3001
0000
0010
0010
0100
0100
0010
1000
,
0001
0100
0010
0000
1000
0000
1001
0000
,
0110
0000
0001
0010
0010
0100
0200
0000
,
0310
1000
1000
0100
0200
0000
0310
0000
,
1000
0001
0100
0010
1000
0001
0100
0010
0100
0010
0000
0000
,
0001
0010
0100
0010
0001
0010
1000
0100
1000
0100
0000
0000
,
0010
0100
1000
0100
0010
0001
0010
0100
0010
1000
0000
1000
,
0100
0010
0100
0010
0001
0010
0100
0010
0100
0010
0000
0000
,
0001
0010
0001
1000
0100
1000
0010
0100
0010
2000
0000
0000
,
3100
0010
0001
0010
0100
1000
0100
0010
0100
0020
0000
0000
,
1030
0100
1000
0100
0010
0100
0010
0001
0010
0001
0010
0100
,
0010
0000
1000
0000
0001
0000
0100
0000
0010
0000
1000
0000
0100
0000
0010
0000
0100
0000
0001
0000
0000
1000
0000
0000
,
1001
0000
0010
0100
0000
0100
0010
1000
,
0100
0000
0010
0001
0000
0001
0010
0100
,
0110
0000
1000
0001
0000
1000
0100
0010
,
0100
0000
0100
0010
0000
0000
0010
0001
,
0011
0000
0010
0100
1000
0000
1000
0100
,
0010
0000
0100
0010
0002
0000
0003
1000
,
0100
0010
0001
0010
0100
0000
0100
0000
0010
0100
1000
0000
0100
0000
0100
0000
,
0001
1000
0001
0000
1000
0000
0010
0000
0100
0000
0001
0000
0001
0000
0000
0000
,
1001
0100
0010
1000
0001
0100
0010
0001
,
0100
0000
0100
0000
0010
0000
0010
0000
0001
1000
0000
0000
0010
0100
0000
0000
,
0010
0100
1000
0100
0010
0001
0010
0100
,
0010
0001
0010
0100
0010
1000
0020
0000
,
0130
0000
0001
0001
0010
1000
0010
0001
,
0100
0000
0100
0000
0010
0000
1000
0000
0001
0010
0000
0000
0010
0100
0000
0000
,
1001
0000
0100
0010
0010
1000
0002
0000
,
0013
0100
1000
0100
0020
0000
0130
0000
,
0110
0010
1000
0001
0010
0001
0010
1000
,
0100
0000
0100
0000
0010
0000
0010
0000
1000
0001
0000
0000
0010
0100
0000
0000
,
0110
0000
1000
0000
0001
0000
0010
0000
0001
0000
1000
0000
0100
0000
0000
1000
,
0100
0010
0100
0001
1000
0100
0020
0000
,
0130
0001
0010
0010
0100
0100
1000
0001
,
1000
0000
0100
0000
0010
0000
0001
0000
0010
0100
0000
0000
0010
0100
0000
0000
,
0110
0000
1000
0100
0010
0001
0020
0000
,
0130
0001
1000
0010
0100
0001
1000
1001
;

//---------------dance-single - ----------------
#NOTES:
     dance-single:
     :
     Medium:
     7:
     0.433,0.447,0.107,0.066,0.037:
1000
0000
0000
1000
0000
0000
0000
0000
0100
0000
0000
0000
0010
0000
0000
0000
,
0001
0000
0000
0001
0000
0000
0000
0000
0100
0000
0000
0000
0010
0000
0000
0000
,
0100
0000
0000
0100
0000
0000
0000
0000
1000
0000
0000
0000
0001
0000
0000
0000
,
0010
0000
0000
0010
0000
0000
0000
0000
0100
0000
0000
0100
0000
0000
0000
0000
,
0001
0000
0000
1000
0000
0000
0000
0000
0100
0000
0000
0000
0010
0000
0100
0000
,
0010
0000
0000
0001
0000
0000
0000
0000
0010
0000
0000
0000
0100
0000
1000
0000
,
0100
0000
0000
0010
0000
0000
0000
0000
0100
0000
0000
0000
0100
0000
0000
0000
,
0001
0000
0000
1000
0000
0000
0001
0000
0000
0000
0000
0000
1000
0000
0001
0000
,
1001
0000
0010
0000
0100
1000
0100
0000
,
0100
0010
0100
0000
0001
1000
0010
0001
,
0020
0000
0130
0000
0001
0010
0001
0000
,
0010
0100
0010
0000
0001
0010
0100
1000
,
0200
0000
0310
0000
1000
0100
0010
0000
,
0010
0100
1000
0000
0100
0010
0100
0010
,
1000
0000
0001
0100
0100
0000
0010
0000
,
1000
0001
1000
0000
1001
0000
0001
0010
,
0200
0000
0310
1000
0000
1000
0010
0100
,
0010
0000
0100
0010
0000
1000
0001
0010
,
0200
0000
0310
1000
0000
0001
0010
0100
,
0010
0000
0010
1000
0000
0000
1000
0001
,
1000
0000
0100
0010
0100
0000
0010
0001
,
0010
0000
1000
0001
1000
0000
0000
0100
,
0010
0010
0010
0010
0100
0100
0100
0100
,
0001
1000
0001
1000
0001
0000
0010
0000
,
0110
1000
0100
0010
,
0001
0010
0001
0010
0100
0000
0110
0000
,
1000
0100
0010
0100
,
1000
0100
0010
0001
0010
0000
0200
0000
,
0310
0000
1000
0001
1000
0000
0100
0000
,
0010
0100
0010
0000
1000
0000
1001
0000
,
0010
0000
0100
0001
0100
0001
0001
0000
,
0010
1000
0010
1000
1000
0000
1001
0000
,
0020
0000
0000
0030
,
0100
0000
0100
0010
,
0100
0000
0100
0000
0001
1000
0100
0000
,
0100
0000
0010
0000
1000
0001
0010
0000
,
0010
1000
0010
0000
0100
0001
0100
0000
,
0010
0001
0010
0000
0100
1000
0100
0000
,
0010
0010
1000
1000
0001
0001
0100
0100
,
0010
1000
0001
0100
0010
1000
0001
0100
,
0020
0000
0130
0100
,
0001
0000
1000
0010
0000
0100
0010
0100
,
0000
0000
0001
0010
0000
0010
0100
0010
,
0000
0000
0100
1000
0000
0000
1000
0100
,
0010
0000
0100
0010
0001
0000
0001
0010
,
0100
0000
0010
0100
1000
0000
0010
0000
,
0100
0100
0100
0100
0010
0010
0010
0010
,
1000
0001
1000
0001
0100
0010
0100
0000
,
0110
0000
1000
0100
0010
0000
0001
0000
,
0100
0010
0100
0001
1000
0000
1001
0000
,
0010
0000
0100
0010
0001
0000
0001
0010
,
0100
1000
0100
0010
0001
0000
0200
0000
,
0310
0000
0001
0001
1000
1000
0010
0000
,
0100
1000
0100
0000
0010
0000
0100
0000
,
0010
0000
1000
0001
0100
0000
0100
0000
,
0010
0000
0001
1000
0010
0000
0100
0000
,
0110
0000
1000
0100
0010
0001
0010
0000
,
0010
0100
0010
0000
1000
0000
1001
0000
,
0010
0000
0001
0010
0100
0000
0100
0010
,
0001
0000
0001
1000
0100
0010
0100
0000
,
0110
0000
0001
0010
1000
0000
1000
0010
,
0001
0000
0100
0010
0100
0000
1001
0000
,
0010
0000
1000
0100
0010
0000
0010
0000
,
0100
0000
0001
0000
1000
0001
1000
1001
;

//---------------dance-single - ----------------
#NOTES:
     dance-single:
     :
     Easy:
     3:
     0.295,0.289,0.074,0.132,0.000: // measure 1
0010
0000
0010
0100
,  // measure 2
0010
0000
1000
0100
,  // measure 3
1000
0000
0100
0010
,  // measure 4
0100
0100
0010
0010
,  // measure 5
0001
0000
0001
0010
,  // measure 6
0100
0000
0100
1000
,  // measure 7
0100
0000
0100
0010
,  // measure 8
0100
0000
0020
0030
,  // measure 9
0210
0300
0100
0010
,  // measure 10
0100
0100
0001
1000
,  // measure 11
0002
0003
0010
0100
,  // measure 12
1000
0100
0010
0001
,  // measure 13
0020
0030
0100
1000
,  // measure 14
0100
0010
0100
0100
,  // measure 15
2000
3000
0100
0100
,  // measure 16
0010
1000
0001
0100
,  // measure 17
0020
0030
0100
0010
,  // measure 18
0200
0300
0001
0010
,  // measure 19
2000
3000
0100
0010
,  // measure 20
0100
0010
0010
0000
,  // measure 21
0100
0001
0010
1000
,  // measure 22
0100
0010
0100
0000
,  // measure 23
1000
1000
0100
0100
,  // measure 24
0010
0001
0010
0100
,  // measure 25
0110
0010
0001
1000
,  // measure 26
0010
0010
0100
0100
,  // measure 27
0001
0010
0100
0100
,  // measure 28
1000
0100
0010
0002
,  // measure 29
0013
0100
0010
0100
,  // measure 30
1000
0100
0001
0100
,  // measure 31
1000
0000
0010
0110
,  // measure 32
0000
0100
0110
0010
,  // measure 33
2000
0000
0000
3000
,  // measure 34
0001
0000
0010
0000
,  // measure 35
0100
0010
0100
0100
,  // measure 36
0001
1000
0001
0001
,  // measure 37
0010
0100
1000
0200
,  // measure 38
0310
1000
0010
0002
,  // measure 39
0013
0100
0010
1000
,  // measure 40
0100
0010
0001
0010
,  // measure 41
0200
0000
0310
1000
,  // measure 42
0001
0001
1000
0100
,  // measure 43
0020
0000
0130
1000
,  // measure 44
0100
0100
0001
0000
,  // measure 45
0001
0010
0100
1000
,  // measure 46
0100
0010
0001
0000
,  // measure 47
0100
0100
0010
0010
,  // measure 48
0001
1000
0001
0001
,  // measure 49
0110
1000
0010
0100
,  // measure 50
0010
0010
0100
0010
,  // measure 51
0001
1000
0010
0100
,  // measure 52
1000
1000
0100
0020
,  // measure 53
0031
0100
0010
1000
,  // measure 54
0001
0010
0001
0001
,  // measure 55
0110
0000
0100
0100
,  // measure 56
0001
1000
1000
0001
,  // measure 57
1001
0010
0001
0010
,  // measure 58
0100
0100
0010
1000
,  // measure 59
0010
0100
0100
0020
,  // measure 60
0130
0001
0001
1000
,  // measure 61
1001
0010
0001
1000
,  // measure 62
0100
0010
0100
0100
,  // measure 63
0010
0000
1000
0001
,  // measure 64
0000
0000
0001
0000
1000
0000
1000
1001
;
