#TITLE:Baby;
#SUBTITLE:;
#ARTIST:Madison Beer;
#TITLETRANSLIT:;
#SUBTITLETRANSLIT:;
#ARTISTTRANSLIT:;
#CREDIT:;
#BANNER:Baby banner.png;
#BACKGROUND:Baby bg.png;
#LYRICSPATH:;
#CDTITLE:;
#MUSIC:Baby.mp3;
#OFFSET:-8.400;
#SAMPLESTART:39.880;
#SAMPLELENGTH:15.000;
#SELECTABLE:YES;
#BPMS:0.000=118.000;
#STOPS:64.000=1.560
;
#BGCHANGES:;

//---------------dance-single - ----------------
#NOTES:
     dance-single:
     :
     Hard:
     8:
     0.533,0.503,0.242,0.269,0.410:
0001
0000
0010
0000
0000
0100
0000
0000
0110
0000
0000
0100
0000
0000
1000
0000
,
0000
0100
0000
0000
0010
0000
0100
0000
0001
0000
0000
1000
0000
0000
0001
0000
,
0010
0000
0100
0000
0000
0001
0000
0000
1010
0000
0000
1000
0000
0000
0100
0000
,
0000
0010
0000
0000
0100
0000
0010
0000
1000
0000
0000
0001
0000
0000
1000
0000
,
0010
0000
0100
0000
0000
0010
0000
0000
0110
0000
0000
0110
0000
0000
1001
0000
,
0000
0000
0001
0000
0000
0010
0000
0000
1100
0000
0000
0110
0000
0000
0011
0000
,
0000
0000
0100
0000
0000
0010
0000
0000
0101
0000
0000
1010
0000
0000
0110
0000
,
0000
0000
0100
0000
0000
0001
0000
0000
0010
0000
0000
1001
0000
0000
0100
0000
,
0010
1000
0100
0010
0001
1000
0010
1000
0100
0000
0000
0010
0100
0000
0000
0000
,
0010
0000
1000
0100
0010
0001
0010
0100
1000
0000
0000
0010
0001
0000
0000
0000
,
0010
0000
0100
0010
1000
0001
0100
0010
0100
0000
0000
0001
0010
0000
0000
0000
,
0002
0023
0230
2300
3200
0000
0320
0000
,
0130
0000
1000
0001
1000
0010
0100
0010
0100
0000
0000
1000
0001
0000
0000
0000
,
0010
0000
1000
0001
0100
0010
0001
0010
0100
0000
0000
0010
0100
0000
0000
0000
,
1000
0000
0001
0100
1000
0100
0001
0100
1000
0000
0000
0100
0010
0000
0000
0000
,
2000
0000
3002
0000
2003
0000
3000
0000
0010
0100
0010
1000
0001
0000
0010
0000
,
0110
0000
0000
0000
1001
0000
0000
0010
0100
0000
0010
0000
0001
0010
0100
1000
,
0100
0000
0010
0000
1100
0000
0000
0110
0000
0000
0001
0010
0001
0000
0010
0000
,
0100
0010
1001
0000
0010
0000
0100
0010
,
0001
0010
0200
0000
0310
1000
0020
0000
,
0130
1000
0200
0000
0310
0000
1000
0001
,
0100
0010
0002
0000
0013
0100
0020
0000
,
0130
0000
0010
0000
0002
0000
0000
0000
2003
0000
0000
0000
3010
0100
0010
1000
,
0001
0000
0010
0000
0100
1000
0100
0000
0100
0000
0010
0001
0010
0000
0100
0010
,
0100
0000
0010
0000
0001
0100
0001
0000
0010
0000
0100
0010
0100
0000
1000
0010
,
1000
0000
0100
0000
0010
0000
1000
0001
1000
0000
0100
0010
0100
0000
0001
0000
,
0010
0100
1000
0000
0101
0000
1000
0010
,
0100
0001
0020
0100
0130
1000
0200
0010
,
0310
0001
1000
0000
0010
0000
0100
0001
,
1000
0010
2000
0100
3100
0010
0002
0010
,
0013
0000
0100
0000
0001
1000
0000
0000
1000
0001
0000
0000
0001
0000
0000
0010
,
0000
0100
0000
0000
0000
0000
0000
0000
;

//---------------dance-single - ----------------
#NOTES:
     dance-single:
     :
     Medium:
     6:
     0.354,0.314,0.121,0.202,0.000:
0000
1000
0000
0100
0000
0010
0000
0100
,
0000
0010
0100
0000
0001
0000
1000
0010
,
0000
0100
0000
0010
0000
1000
0000
0001
,
0000
0100
0010
0000
0001
0000
0010
0100
,
1000
0000
0100
0010
0100
0000
0010
0000
,
0001
0000
0010
0100
0010
0000
1000
0000
,
0100
0000
0001
1000
0001
0000
0010
0000
,
0100
0000
0001
0010
0001
0000
0110
0000
,
1000
0100
0010
0001
0010
0000
0200
0000
,
0300
0001
0010
0000
0100
0000
0020
0000
,
0030
1000
0001
0000
1000
0000
1001
0000
,
0010
0000
0010
0000
0200
0300
0200
0000
,
0310
0000
1000
0001
0100
0000
0100
0000
,
0010
1000
0010
0000
0100
0000
0101
0000
,
0010
1000
0001
0000
0100
0000
1100
0000
,
0010
0010
0010
0000
0100
0001
1000
0010
,
0110
0000
1001
0000
0010
0000
1000
0010
,
0100
0010
0001
0000
0010
0000
0100
1000
,
0100
0010
0100
0000
0010
0000
1000
0001
,
0100
0010
0002
0000
0013
0000
0020
0000
,
0130
0000
0200
0000
1300
0000
0010
0100
,
0010
0100
2000
0000
3100
0000
0200
0000
,
0310
0000
0020
0000
0031
0000
0010
1000
,
0001
1000
0010
0000
0110
0000
0100
0010
,
1000
0100
0001
0000
0001
0000
0010
0100
,
0010
0100
1000
0000
1000
0000
0100
0010
,
1000
0001
0100
0000
0110
0000
0001
1000
,
0100
0010
0002
0000
0013
0000
0020
0000
,
0130
0000
0200
0000
1300
0000
0010
0010
,
0100
0010
2000
0000
3001
0000
0002
0000
,
1003
0010
0100
0001
,
1000
0110
0000
0000
0000
0000
0000
0000
;

//---------------dance-single - ----------------
#NOTES:
     dance-single:
     :
     Easy:
     2:
     0.244,0.252,0.067,0.283,0.000: // measure 1
0010
0000
0100
0000
,  // measure 2
0001
0001
0001
0000
,  // measure 3
0010
0000
1000
0000
,  // measure 4
0100
0100
0100
0000
,  // measure 5
1000
0100
0010
0000
,  // measure 6
0100
0010
0001
0000
,  // measure 7
0001
0010
0100
0000
,  // measure 8
0010
0100
1000
0000
,  // measure 9
0010
0010
0020
0030
,  // measure 10
0100
0100
0200
0300
,  // measure 11
0001
0001
0002
0003
,  // measure 12
1000
0010
0200
0310
,  // measure 13
1000
1000
2000
3100
,  // measure 14
0010
0010
0020
0031
,  // measure 15
0010
0100
0010
1000
,  // measure 16
0001
0000
0001
1000
,  // measure 17
1001
0110
0010
0001
,  // measure 18
0010
0200
0310
0100
,  // measure 19
1000
0200
0310
1000
,  // measure 20
1000
0200
0300
0020
,  // measure 21
0030
0002
0003
0100
,  // measure 22
0100
0020
0030
2000
,  // measure 23
3000
0002
0003
0010
,  // measure 24
0010
0110
0001
0010
,  // measure 25
1000
0020
0130
0001
,  // measure 26
0010
1000
1000
0100
,  // measure 27
0010
0200
0310
0001
,  // measure 28
1000
0002
0003
0020
,  // measure 29
0030
0200
0300
0010
,  // measure 30
1000
0020
0030
0200
,  // measure 31
0300
0010
0001
1000
,  // measure 32
1001
0110
0000
0000
;
