#TITLE:Attention;
#SUBTITLE:;
#ARTIST:NewJeans;
#TITLETRANSLIT:;
#SUBTITLETRANSLIT:;
#ARTISTTRANSLIT:;
#CREDIT:;
#BANNER:Attention banner.png;
#BACKGROUND:Attention bg.png;
#LYRICSPATH:;
#CDTITLE:;
#MUSIC:Attention.mp3;
#OFFSET:-9.660;
#SAMPLESTART:53.860;
#SAMPLELENGTH:15.000;
#SELECTABLE:YES;
#BPMS:0.000=105.000;
#STOPS:;
#BGCHANGES:;

//---------------dance-single - ----------------
#NOTES:
     dance-single:
     :
     Hard:
     7:
     0.415,0.415,0.168,0.084,0.021:
1000
0001
1001
1000
0001
1000
1001
0001
,
0010
0100
0110
0010
0100
0010
0110
0100
,
0001
0010
0100
1000
0100
0010
0001
0001
,
1000
0100
0010
1001
,
0010
0000
0110
0000
0100
0100
0001
0000
,
0001
0010
0100
1000
1000
0100
0100
0010
,
0200
0000
0310
1000
0010
0000
0100
0010
,
0002
0000
0013
0100
0100
0100
0110
0000
,
1001
0000
0001
0000
0001
0010
0100
1000
,
1000
0001
0100
0100
0010
1000
0001
0100
,
0020
0000
0130
0000
0100
0000
0010
1000
,
0020
0000
0030
0100
0001
1000
0010
0000
,
1000
1000
0100
0100
0010
0011
0001
0000
,
0001
0010
0100
1000
0100
0011
0010
0000
,
0010
0100
0010
0010
1000
0001
1001
1000
,
0100
0010
0010
0010
1000
0100
0001
0001
,
1000
0010
0100
0001
0100
0010
0100
0100
,
0000
0100
0010
1000
0100
0001
0010
0010
,
0000
1000
0100
0010
0001
0010
0100
1000
,
0100
0000
0001
1000
1000
0001
0100
0010
,
0210
0000
0010
0010
0010
0000
0010
0010
,
0310
0001
1000
0001
0100
1000
0010
1000
,
0120
0000
0100
0100
0100
0000
0100
0100
,
0130
1000
0001
0100
0010
1000
0001
0000
,
0010
0000
0100
1000
0100
0000
0100
0000
0010
0000
0010
0001
0010
0000
0100
0000
,
0010
0000
1000
0001
1000
0000
0010
0100
0010
0000
1000
0000
0001
0000
0100
0000
,
0220
0000
0030
0000
0000
0010
0310
0000
,
0001
1000
0010
0100
0001
1000
0010
0000
,
1000
1000
1000
0100
0010
0010
0001
0001
,
1000
0001
0100
0010
1000
0001
0001
0000
,
0001
0001
0001
0010
0010
0100
1000
1000
,
0010
1000
0001
0010
0001
1000
1001
0000
,
0010
0100
0010
1000
0001
1000
0100
0010
,
1000
1000
0100
0010
0100
0010
0001
0000
,
1000
0001
1000
0010
0100
0010
0001
1000
,
0000
0100
0000
0001
1000
0010
1000
0001
,
1001
0000
0000
0000
;

//---------------dance-single - ----------------
#NOTES:
     dance-single:
     :
     Medium:
     6:
     0.332,0.302,0.084,0.136,0.000:
2000
0000
3100
0010
0200
0000
0310
0001
,
0020
0000
0130
0000
0001
0000
1000
0010
,
0002
0000
0013
0100
0020
0000
0130
1000
,
0001
0010
0100
1000
,
1001
0000
0010
0000
0100
0010
0100
0000
,
0010
0001
0010
0000
1000
1000
1000
0000
,
0200
0000
0310
0100
0000
0001
0000
1000
,
0020
0000
0130
1000
1000
1000
0001
0000
,
0110
0000
1000
0000
0010
0100
0010
0000
,
0100
0010
0001
0010
0100
0000
1000
0000
,
2000
0000
3100
0000
0100
0010
0010
0000
,
0200
0000
0310
0001
0010
0100
0010
0000
,
1000
1000
0001
0001
0100
0000
0110
0000
,
0010
1000
0001
0010
1000
0000
0100
0000
,
0010
0010
0100
0000
0100
0100
0110
0000
,
0010
0000
1000
0000
0001
1000
0001
0000
,
0010
0100
0000
0001
0000
1000
0010
0001
,
0000
0010
0000
0100
0010
1000
0001
0000
,
1000
1000
0100
0100
0010
0010
0001
0010
,
0002
0000
0003
0010
0100
0010
0100
0000
,
2001
0001
0000
3001
,
0010
0100
0010
0000
1000
0001
0010
0000
,
0210
0010
0000
0310
,
1000
0100
1000
0000
0100
0010
0100
0000
,
0001
0001
0010
0100
0010
0000
1000
0000
,
0100
0100
0010
0000
1000
0001
1000
0000
,
1002
0100
0000
0103
,
0010
0100
0001
1000
,
0001
0001
0010
0010
0100
0100
1000
1000
,
0010
0100
0010
0000
1000
0001
1000
0000
,
0100
0100
0010
0010
1000
1000
0001
0001
,
0100
0010
0100
0000
0001
1000
0001
0000
,
1000
0100
1000
0000
0100
0010
0100
0000
,
1000
0000
0100
0000
0010
0001
0100
0000
,
0001
0010
0001
0000
0010
0100
0010
0100
,
0000
0010
0000
1000
0001
1000
0001
0000
,
1001
0000
0000
0000
;

//---------------dance-single - ----------------
#NOTES:
     dance-single:
     :
     Easy:
     3:
     0.228,0.208,0.073,0.094,0.000: // measure 1
0020
0100
0000
0130
,  // measure 2
0001
1000
0001
0100
,  // measure 3
2000
0001
3000
1001
,  // measure 4
0010
0010
0100
0100
,  // measure 5
0001
1000
0010
0010
,  // measure 6
0100
0001
1000
0010
,  // measure 7
0200
0300
0010
1000
,  // measure 8
0020
0030
0100
0100
,  // measure 9
0001
0010
0001
0010
,  // measure 10
1000
0100
0010
0001
,  // measure 11
2000
3000
0100
0100
,  // measure 12
0020
0030
1000
0001
,  // measure 13
0010
0010
0100
0020
,  // measure 14
0130
0001
1000
0001
,  // measure 15
1000
1001
0001
0001
,  // measure 16
0010
0110
0100
0100
,  // measure 17
0010
1000
0001
0100
,  // measure 18
0010
0001
0010
0100
,  // measure 19
0010
0010
0100
0100
,  // measure 20
0020
0030
1000
0001
,  // measure 21
1001
0100
0010
0100
,  // measure 22
0001
0001
1000
1000
,  // measure 23
0110
0001
0010
0100
,  // measure 24
0010
0010
0100
0100
,  // measure 25
0001
1000
0001
0100
,  // measure 26
0010
0010
1000
0001
,  // measure 27
2001
0001
0000
3001
,  // measure 28
0010
0010
0100
0100
,  // measure 29
0001
0010
0100
1000
,  // measure 30
1000
0100
0010
0001
,  // measure 31
0100
0010
1000
0001
,  // measure 32
0010
0100
0001
1000
,  // measure 33
0100
0100
0010
0010
,  // measure 34
0100
0001
1000
0010
,  // measure 35
1000
1000
0001
0001
,  // measure 36
0100
0000
1000
0001
,  // measure 37
1001
0000
0000
0000
;
