#TITLE:All Night;
#SUBTITLE:;
#ARTIST:Girls' Generation;
#TITLETRANSLIT:;
#SUBTITLETRANSLIT:;
#ARTISTTRANSLIT:;
#CREDIT:;
#BANNER:All Night (SNSD) banner.png;
#BACKGROUND:All Night (SNSD) bg.png;
#LYRICSPATH:;
#CDTITLE:;
#MUSIC:All Night (SNSD).mp3;
#OFFSET:-8.840;
#SAMPLESTART:117.040;
#SAMPLELENGTH:15.000;
#SELECTABLE:YES;
#BPMS:0.000=130.000;
#STOPS:;
#BGCHANGES:;

//---------------dance-single - ----------------
#NOTES:
     dance-single:
     :
     Hard:
     8:
     0.545,0.557,0.183,0.101,0.203:
1000
0001
1000
0001
0100
0010
1000
0001
,
0000
0001
0010
0100
0010
1000
0001
0000
,
0010
0100
0010
0100
0001
1000
0001
0010
,
0000
0100
0010
1000
0100
0001
0010
0100
,
1000
0100
0010
0001
0010
0100
0010
0100
,
0000
0100
0001
1000
0010
0001
0010
1000
,
1001
0000
0010
0000
0100
0001
0000
0110
,
0000
0100
0010
0200
0000
0010
0310
0000
,
0001
0010
0100
1000
0100
0010
0001
0010
,
0100
0010
0001
0000
1001
0000
1000
0000
,
0100
0010
1000
0100
0001
0100
0010
1000
,
0100
0001
0100
0000
0100
0000
0002
0000
,
0013
0100
0010
0001
0010
0100
1000
0100
,
0010
0001
0100
0000
0110
0000
2000
0000
,
3001
0002
1003
0020
,
0130
0100
0100
0100
0000
0001
1000
0001
,
0010
0000
0100
0001
0010
1000
0100
0001
,
0000
0001
0000
0010
0100
0010
1000
0100
,
0000
0010
0000
0010
0001
1000
0010
0100
,
0000
0100
0000
0001
0000
1000
0010
0001
,
0100
0000
0000
0001
0000
0000
0010
0000
0100
0000
0010
0000
0100
0000
1000
0000
,
0000
0100
0000
0010
0000
0001
0000
1000
,
1001
0000
0010
0110
0000
0001
0010
1100
,
0000
1000
0100
0011
0000
0001
0010
0100
,
1000
0000
0000
0001
0010
0000
0000
0100
0000
0010
0100
0010
0100
0000
0001
0000
,
1000
0000
0000
0100
0010
0000
0001
0000
0010
0000
1000
0010
1000
0000
0100
0000
,
0001
0100
0000
0010
0010
0100
0001
0010
,
1010
0000
0000
0000
0010
0000
0001
0000
0100
0000
0010
0000
1000
0000
0000
0100
,
0000
0000
0000
0000
0010
0000
0001
0010
0001
0000
1000
0100
1000
0000
0010
0000
,
0110
0000
0000
0100
0010
0000
0001
0000
1000
0000
0010
0001
0010
0000
0100
0000
,
0010
1000
0000
0001
0001
0000
0200
0000
,
0310
0002
0013
0200
,
1300
0000
1000
0000
1000
0000
1000
0000
0000
0000
0010
0100
0010
0000
0100
0000
,
1001
0000
0000
0010
0100
0000
0001
0000
0010
0000
0100
0010
0100
0000
0010
0000
,
1000
0001
0010
0100
0010
1000
1000
1000
,
0100
0000
0010
0000
0100
0000
0010
0000
0001
0000
0010
0000
0100
0000
0000
0100
,
0000
0000
0000
0000
0110
0000
0010
0100
0010
0000
1000
0001
1000
0000
0010
0000
,
0001
0000
0000
0001
0010
0000
0100
0000
0010
0000
1000
0001
1000
0000
0010
0000
,
0100
0010
1000
0001
0001
0000
0020
0000
,
0130
2000
3001
0020
,
0130
0100
0100
0100
0000
0001
0010
0100
,
1000
0000
0000
0100
0000
0000
0010
0000
0001
0000
0000
0001
0010
0000
0100
0000
,
0010
0000
0000
0001
0000
0000
0010
0000
0100
0000
0010
0000
1000
0000
0010
0000
,
0100
0010
0000
0010
1000
0001
1000
0000
,
0001
0010
0100
1000
0100
0010
0001
0010
0100
1000
0100
0000
0020
0000
0000
0000
,
0000
0000
0130
0000
0000
0000
0001
0010
0001
0000
0000
0010
0100
0000
0010
0000
,
1000
0100
0010
0000
0001
0010
0000
0010
0100
0000
0100
1000
0000
1000
0100
0000
,
0010
1000
0001
0100
0010
0020
0000
0130
,
0000
0001
0020
0000
0000
0130
1000
0000
,
0100
0000
0000
0010
0100
0010
1000
0100
,
0000
0100
0000
0010
0000
0001
0000
0010
,
0000
1000
0000
0010
0000
0001
0000
0100
,
0000
0110
0000
0001
0000
0110
0000
1000
,
0000
0000
0100
0010
0001
1000
0000
0010
,
0000
1000
0000
0010
0000
0100
0000
0110
,
0000
1001
0000
0001
0000
0010
0000
0200
,
0000
0000
0000
0000
,
0000
0001
1000
0301
1000
0001
1000
0001
,
1000
0000
0001
0000
1000
0000
0001
0000
0000
0000
0010
0100
0010
0000
0100
0000
,
1001
0000
0010
0100
0010
0000
0001
0000
0010
0000
1000
0100
1000
0000
0010
0000
,
0100
0000
0001
0010
0001
0000
0010
0000
0100
0000
0010
0000
1000
0000
0001
0000
,
0011
0000
0000
0010
0100
0000
0010
0000
1000
0000
0100
0000
0010
0000
0000
0010
,
0100
0000
0001
0000
1000
0000
0010
0000
0100
0000
0001
0010
0001
0000
0010
0000
,
0110
0000
1000
0100
1000
0000
0010
0000
0100
0000
0001
0010
0001
0000
0100
0000
,
0010
0000
0100
0010
0100
0000
0001
0000
1000
0000
0010
0000
0001
0000
0000
0000
,
0110
1000
0110
0001
,
1000
0000
0100
0000
0010
0000
0001
0000
0010
0000
0100
0010
0100
0000
1000
0000
,
0100
0000
0010
0001
0010
0000
0100
1000
0100
0000
0010
0100
0010
0000
1000
0001
,
1000
0000
0100
0010
0001
0000
0001
0010
0100
0000
0100
1000
0100
0000
0010
0100
,
0010
0000
1000
0000
0100
0000
0001
0000
0100
0000
1000
0000
0010
0000
0000
0100
,
0010
0000
1000
0000
0100
0000
0010
0000
0001
0000
0010
0100
0010
0000
1000
0000
,
0100
0000
0010
0100
0010
0000
0001
0010
0001
0000
1000
0010
1000
0000
0100
0001
,
0100
0010
0001
1000
0010
0001
0101
0000
,
1010
0011
0110
1001
,
0010
0100
0010
0001
1000
0010
0100
0110
;

//---------------dance-single - ----------------
#NOTES:
     dance-single:
     :
     Medium:
     6:
     0.399,0.405,0.149,0.041,0.000:
1000
0100
1000
0100
0000
0000
0010
0100
,
0000
0010
0100
0000
0010
0000
0001
0000
,
0100
0010
0100
0010
0000
0000
0001
0010
,
0000
0010
0100
0000
0001
0000
0010
0000
,
1000
0001
1000
0001
0000
0000
0010
0100
,
0000
0001
1000
0000
1000
0001
1000
0000
,
0110
0000
0001
0000
0010
0100
0000
0010
,
0000
0100
0010
0100
0000
0000
0110
0000
,
0001
0010
0100
0000
0010
0000
1000
0000
,
0100
0010
0200
0300
,
1000
0010
0100
0000
0100
0000
0010
0000
,
1000
0100
0002
0003
,
0010
0100
0010
0000
1000
0000
0010
0001
,
0010
0100
0010
2000
,
3100
0200
0310
0020
,
0031
0001
0001
0001
0000
0000
1001
0000
,
0010
0000
0100
0000
0010
0000
1000
0100
,
0000
0001
0000
0100
0010
0000
0001
0010
,
0100
0000
0010
0000
1000
0000
0001
0010
,
0000
0100
0000
0010
0000
1000
0001
1000
,
0010
0000
0010
0000
0100
0000
0010
0100
,
0000
1000
0000
0001
0000
1000
0000
0010
,
0001
0000
0001
0010
0000
0010
0100
1000
,
0000
1000
0100
0010
0000
0010
0100
0000
,
0110
0000
0000
0000
0000
1000
0100
0010
,
1001
0000
0100
0010
0100
0000
0010
0100
,
0010
0000
0000
0001
1000
0000
1001
0000
,
0100
0000
0010
1000
0100
0000
0100
0000
,
0010
0000
0001
0000
0010
0000
0100
0010
,
0100
0000
0001
0010
0001
0000
1000
0100
,
1000
0000
0010
0100
0010
0000
1000
0000
,
1100
0100
0110
0001
,
0100
0100
0100
0100
0000
0010
0100
0000
,
0010
0000
0100
0000
0001
0000
1000
0010
,
0001
0000
0001
0010
1000
0000
0100
0100
,
0100
0000
0010
1000
0001
0000
0001
0000
,
0010
0000
0100
0000
1000
0010
0100
0001
,
0010
0000
0100
0010
0100
0000
0010
1000
,
0010
0000
0100
0001
0100
0000
0001
0000
,
0011
0010
0110
0100
,
1000
0010
0100
0001
0000
0000
0010
0100
,
0010
0000
1000
0001
0010
0000
0010
0001
,
0100
0010
1000
0100
0010
0000
0100
0000
,
0110
0000
1000
0001
1000
0000
0100
0000
,
0001
0010
0100
1000
0100
0000
0010
0000
,
0000
0000
0000
0100
0110
0000
0010
0000
,
0001
1000
0010
0001
1000
0000
0010
0000
,
0100
0010
0100
0000
0001
0010
1000
0000
,
1000
0010
0001
0000
0000
0001
0010
0000
,
0110
0000
0000
0100
0010
0000
0010
0100
,
0000
1000
0000
0100
0000
0010
0000
0001
,
0000
0010
0000
0100
0000
0010
0000
0001
,
0000
1000
0000
0010
0000
0100
0000
0110
,
0000
0000
0000
1000
0010
0100
0010
0100
,
0000
0010
0000
1000
0000
0100
0000
0001
,
0000
0010
0000
1000
0000
0010
0000
0200
,
0000
0000
0001
1000
,
0001
1300
0001
1000
,
0001
0000
1000
0000
0000
0000
0001
1000
,
1001
0100
0010
0000
1000
0001
0100
0010
,
0100
0000
0010
0001
0010
0000
0010
0100
,
0010
0000
1000
0010
0100
0001
0010
0000
,
0100
0000
0100
0000
0110
0000
1000
0010
,
0100
0000
0001
0100
0010
1000
0001
0000
,
0001
0000
0010
1000
0010
0000
0110
0000
,
1000
1100
0010
0011
,
0100
0010
0100
0010
0000
1000
0001
0000
,
0010
0100
0010
0100
0001
1000
0001
1000
,
0100
1000
0100
1000
0001
0010
0001
0010
,
0100
0010
1000
0001
0100
0010
0100
0000
,
0100
0000
0010
1000
0010
0000
0001
0100
,
0010
0001
0010
0100
0010
1000
0100
0010
,
0100
0010
0001
0010
0100
0010
1000
0000
,
1100
0100
0110
0010
,
0001
1000
0001
1000
0000
0000
0010
0110
;

//---------------dance-single - ----------------
#NOTES:
     dance-single:
     :
     Easy:
     2:
     0.284,0.279,0.129,0.027,0.000: // measure 1
0010
0010
0000
0100
,  // measure 2
0010
0001
1000
0010
,  // measure 3
0100
0100
0000
1000
,  // measure 4
0100
0010
0001
0010
,  // measure 5
0001
0001
0000
0010
,  // measure 6
0100
0010
1000
0100
,  // measure 7
1001
0000
0010
0100
,  // measure 8
0010
0000
0100
0001
,  // measure 9
1000
0100
0010
0100
,  // measure 10
0010
0001
0020
0030
,  // measure 11
0100
0010
0100
0010
,  // measure 12
0001
1000
0002
0003
,  // measure 13
0010
0100
1000
0100
,  // measure 14
0010
0100
0002
1003
,  // measure 15
1001
0001
1001
1000
,  // measure 16
0010
0100
0010
0000
,  // measure 17
1000
0100
0010
0001
,  // measure 18
0001
0010
0100
1000
,  // measure 19
0010
0000
0010
0001
,  // measure 20
0100
0010
0001
0010
,  // measure 21
1000
0000
0100
0010
,  // measure 22
0100
0010
1000
0100
,  // measure 23
0001
0000
0010
0000
,  // measure 24
0100
0000
1000
0000
,  // measure 25
0110
0000
0000
1000
,  // measure 26
1001
0010
0010
0100
,  // measure 27
0010
0000
0001
0010
,  // measure 28
0100
0010
1000
0100
,  // measure 29
0010
0000
0100
0100
,  // measure 30
0110
0100
1000
0100
,  // measure 31
0001
0000
0010
0010
,  // measure 32
0110
0100
0110
0010
,  // measure 33
0001
1000
0001
0100
,  // measure 34
1000
1000
0100
0100
,  // measure 35
0010
0000
0010
0100
,  // measure 36
0010
0001
0010
0100
,  // measure 37
0010
0000
1000
0100
,  // measure 38
0001
0100
1000
0010
,  // measure 39
0100
0000
0100
0100
,  // measure 40
0001
1001
1000
1001
,  // measure 41
0010
0010
0010
0001
,  // measure 42
0100
0010
1000
0100
,  // measure 43
0010
0010
0100
0100
,  // measure 44
0010
1000
0100
0001
,  // measure 45
1000
1000
0001
0001
,  // measure 46
0000
0000
0110
0100
,  // measure 47
0010
0001
1000
0010
,  // measure 48
0001
0010
0100
1000
,  // measure 49
0100
0010
0000
0110
,  // measure 50
0100
0000
0010
0001
,  // measure 51
1000
0010
0100
0010
,  // measure 52
0001
0010
0100
0010
,  // measure 53
1000
0100
0010
0001
,  // measure 54
0110
0000
0001
0001
,  // measure 55
0010
0100
0010
1000
,  // measure 56
0100
0010
0100
1000
,  // measure 57
0020
0000
0100
0100
,  // measure 58
0100
0130
0100
0100
,  // measure 59
0100
0010
0000
0010
,  // measure 60
1001
0010
0100
0010
,  // measure 61
1000
0100
0010
0100
,  // measure 62
0010
0010
0001
0001
,  // measure 63
0010
0100
1000
0100
,  // measure 64
0010
1000
0100
0001
,  // measure 65
0100
0100
0010
0010
,  // measure 66
1000
0100
0010
0001
,  // measure 67
0010
0100
1000
0010
,  // measure 68
1001
1001
0010
0001
,  // measure 69
0100
0010
1000
0100
,  // measure 70
0110
0110
1000
0100
,  // measure 71
0001
0001
0010
0010
,  // measure 72
0100
0010
1000
0001
,  // measure 73
0100
0100
0010
0010
,  // measure 74
1000
0100
0010
0001
,  // measure 75
0010
0000
0100
0000
0000
0000
0001
1001
;
