#TITLE:Hard Times;
#SUBTITLE:;
#ARTIST:NateWantsToBattle;
#TITLETRANSLIT:;
#SUBTITLETRANSLIT:;
#ARTISTTRANSLIT:;
#GENRE:;
#CREDIT:;
#BANNER:Banner.png;
#BACKGROUND:Background.png;
#LYRICSPATH:;
#CDTITLE:;
#MUSIC:NateWantsToBattle - Hard Times.mp3;
#OFFSET:0.000000;
#SAMPLESTART:33.400002;
#SAMPLELENGTH:12.000000;
#SELECTABLE:YES;
#BPMS:0.000000=120.000000
;
#STOPS:
;
#BGCHANGES:0.000=NateWantsToBattle - Hard Times .avi=1.000=0=0=0=StretchNoLoop====,
99999=-nosongbg-=1.000=0=0=0 // don't automatically add -songbackground-
;
#KEYSOUNDS:;
#ATTACKS:;

//---------------dance-single - Live----------------
#NOTES:
     dance-single:
     :
     Beginner:
     2:
     0.237804,0.271866,0.050884,0.370726,0.000000,229.000000,222.000000,7.000000,51.000000,0.000000,4.000000,0.237804,0.271866,0.050884,0.370726,0.000000,229.000000,222.000000,7.000000,51.000000,0.000000,4.000000:
0000
0000
0000
0000
,
0000
0000
0000
0000
,
0000
0000
0000
0000
,
0000
0000
0100
2000
,
3001
0001
0010
0010
,
1000
1000
0100
0100
,
0001
0001
0010
0010
,
1000
1000
0100
0100
,
0001
0001
0010
0110
,
0001
0001
0010
1001
,
1000
1000
0010
1000
,
0001
0001
0010
1000
,
0001
0000
0000
0000
0001
0000
2000
0000
0000
3000
0000
0000
0010
0000
0000
0000
,
1000
0001
0010
1000
,
0001
1000
0010
1000
,
0001
0001
0100
1000
,
2000
3002
1003
2002
,
3023
1030
0100
0001
,
1000
0010
1000
0020
,
2030
3010
0001
0100
,
0100
0010
0010
0002
,
2003
3001
0100
0001
,
0100
0010
0001
2000
,
3002
1003
0000
0002
,
2003
3001
0010
0001
,
0100
1000
0010
2000
,
3001
0001
0100
1000
,
0000
0010
0100
0010
,
0000
0010
0100
1000
,
0000
0000
0010
0000
0001
0000
0000
2000
,
0000
0000
0000
3000
0001
0000
0000
0000
0100
0000
0000
0000
1000
0000
0000
0000
,
0000
0010
0100
0000
,
0000
0010
0100
1000
,
0000
0000
0010
0000
0001
0000
0000
2000
,
0000
0000
0000
3000
0000
0000
0000
0000
0000
0000
0000
0000
0000
0000
0000
0000
,
0000
0000
0010
0000
0001
0000
0000
2000
,
0000
0000
0000
0000
0000
0000
0000
3000
0000
0000
0000
0000
0000
0000
0000
0000
,
0000
0000
0010
0000
1000
0000
0000
0002
,
0000
0000
0000
0003
0000
0000
0000
0000
0000
0000
0000
0000
0000
0000
0000
0000
,
0000
0000
0100
0000
0001
0000
0000
2000
,
0000
0000
0000
0000
0000
0000
0000
3000
0000
0000
0000
0000
0000
0000
0000
0000
,
0000
0000
0010
0000
0001
0000
0000
2000
,
0001
0000
0000
3000
0001
0000
0000
0000
0001
0000
0000
0000
2002
0000
0000
0000
,
3203
0310
0100
1000
,
0001
0100
0010
0200
,
0302
0103
1000
0010
,
0010
0100
0100
2000
,
3002
1003
0010
0001
,
0010
0100
1000
0002
,
2003
3001
0100
2000
,
3002
1003
0100
2002
,
3023
1030
0100
0001
,
1000
0001
0100
0020
,
2030
3010
0001
0100
,
0100
0010
0010
0002
,
2003
3001
0100
0001
,
0010
0010
0001
2000
,
3002
1003
0000
0002
,
2003
3001
2000
3002
,
0013
1000
0010
0000
,
0100
1000
0100
0000
,
0010
0001
0010
0000
,
0010
0000
0000
0000
1000
0000
0000
0000
0022
0000
0000
0000
2033
0000
0000
3000
,
0001
1000
0010
0000
,
0001
1000
0100
0000
,
1000
0001
0010
0000
,
1000
0001
0100
0010
,
1000
0001
0100
0202
,
0303
0000
0000
0000
;

//---------------dance-single - Live----------------
#NOTES:
     dance-single:
     :
     Easy:
     7:
     0.368649,0.420156,0.123575,0.377995,0.000000,355.000000,338.000000,17.000000,52.000000,0.000000,5.000000,0.368649,0.420156,0.123575,0.377995,0.000000,355.000000,338.000000,17.000000,52.000000,0.000000,5.000000:
0000
0000
0000
0000
,
0000
0000
0000
0000
,
0000
0000
0000
0000
,
0000
0000
0000
0000
0100
0010
2000
0000
,
3001
0000
0001
1000
0010
0001
1010
0000
,
1000
0000
1000
0001
0100
0000
0101
0000
,
0001
0000
0001
1000
0010
0001
1010
0000
,
1000
0000
1000
0001
0100
0000
0101
0000
,
0001
0100
0001
0000
0010
0000
0110
0000
,
0001
0100
0001
0000
0010
0000
1001
0000
,
1000
0010
1000
0000
0010
0001
1000
0100
,
0001
0000
0001
1000
0010
0000
1010
0000
,
0001
0000
0100
0000
0001
0000
2000
0000
0000
3000
0000
0000
1010
0000
0000
0000
,
1000
0100
0001
0000
0010
0001
1010
0000
,
0001
0100
1000
0000
0010
0001
1000
0100
,
0001
0010
0001
0000
0100
0001
1100
0000
,
2000
0000
3002
0000
1003
0010
2002
0000
,
3023
0000
1030
0100
0100
0000
0001
1000
,
1000
0000
0010
1000
1000
0001
0020
0000
,
2030
0001
3010
0000
0001
0010
0100
0000
,
0100
1000
0010
0000
0010
0001
0002
0000
,
2003
0100
3001
0000
0100
0001
0001
0000
,
0100
1000
0010
0000
0001
0010
2000
0000
,
3002
0010
1003
0000
0000
0100
0002
0010
,
2003
0100
3001
0000
0010
1000
0011
0001
,
0100
0000
1000
0100
0010
0000
2020
0000
,
3031
0001
0100
1000
,
0000
0000
0010
0000
0100
1000
0010
0000
,
0000
0010
0100
1000
,
0000
0000
0010
0100
0001
0000
0000
2000
,
0000
0000
0000
3000
0001
0000
0000
0000
0100
0000
0000
0000
1000
0000
0000
0000
,
0000
0000
0010
0000
0100
0000
0000
0001
,
0000
0010
0100
1000
,
0000
0000
0010
0100
0001
0000
0000
2000
,
0000
0000
0000
3000
0000
0000
0000
0000
0000
0000
0000
0000
0000
0000
0000
0000
,
0000
0000
0010
0100
0001
0000
0000
2000
,
0000
0000
0000
0000
0000
0000
0000
3000
0000
0000
0000
0000
0000
0000
0000
0000
,
0000
0000
0010
0100
1000
0000
0000
0002
,
0000
0000
0000
0003
0000
0000
0000
0000
0000
0000
0000
0000
0000
0000
0000
0000
,
0000
0000
0100
0010
0001
0000
0000
2000
,
0000
0000
0000
0000
0000
0000
0000
3000
0000
0000
0000
0000
0000
0000
0000
0000
,
0000
0000
0010
0100
0001
0000
0000
2000
,
0001
0000
0000
3000
0001
0000
0000
0000
0001
0000
0001
0000
2002
0000
0000
0000
,
3203
0001
0310
0000
0100
1000
1000
0000
,
0001
0100
0100
0000
0010
1000
0200
0000
,
0302
1000
0103
0000
1000
0100
0010
0000
,
0010
0001
0100
0000
0100
1000
2000
0000
,
3002
0010
1003
0000
0010
1000
0001
0000
,
0010
0001
0100
0000
1000
0100
0002
0000
,
2003
0100
3001
0000
0100
0010
2000
0000
,
3002
0010
1003
0000
0100
0001
2002
0000
,
3023
1000
1030
0000
0100
0001
0001
0000
,
1000
0010
0001
0000
0100
0001
0020
0000
,
2030
0001
3010
0000
0001
0010
0100
0000
,
0100
1000
0010
0000
0010
0001
0002
0000
,
2003
0100
3001
0000
0100
0001
0001
0000
,
0010
1000
0010
0000
0001
0010
2000
0000
,
3002
0010
1003
0010
0000
0100
0002
0010
,
2003
0000
3001
0010
2000
0000
3002
0000
,
0013
0100
1000
0100
0010
0001
0000
1000
,
0100
0010
1000
0010
0100
0001
0000
1000
,
0010
1000
0001
0100
0010
1000
0000
0001
,
0010
0000
0100
0000
1000
0000
0100
0000
0022
0000
0000
0000
2033
0000
0000
3000
,
0001
0100
1000
0001
0010
0100
0000
0001
,
0001
0010
1000
0001
0100
0010
0000
0001
,
1000
0100
0001
1000
0010
0100
0000
1000
,
1000
0010
0001
1000
0100
0001
0010
1000
,
1000
0100
0001
0010
0100
1000
0202
0000
,
0303
0000
0000
0000
;

//---------------dance-single - Live----------------
#NOTES:
     dance-single:
     :
     Medium:
     9:
     0.449648,0.469586,0.145383,0.377995,0.061788,433.000000,413.000000,20.000000,52.000000,0.000000,6.000000,0.449648,0.469586,0.145383,0.377995,0.061788,433.000000,413.000000,20.000000,52.000000,0.000000,6.000000:
0000
0000
0000
0000
,
0000
0000
0000
0000
,
0000
0000
0000
0000
,
0000
0000
0000
0000
0100
0010
2000
0000
,
3001
0100
0001
1000
0010
0001
1010
0000
,
1000
0010
1000
0001
0100
1000
0101
0000
,
0001
0100
0001
1000
0010
0001
1010
0000
,
1000
0010
1000
0001
0100
1000
0101
0000
,
0001
0100
0001
1000
0010
0001
0110
0000
,
0001
0100
0001
1000
0010
0001
1001
0000
,
1000
0010
1000
1000
0010
0001
1000
0100
,
0001
0100
0001
1000
0010
0100
1010
0000
,
0001
0000
0100
0000
0001
0000
2000
0000
0000
3000
0001
0000
1010
0000
0000
0000
,
1000
0100
0001
1000
0010
0001
1010
0000
,
0001
0100
1000
0100
0010
0001
1000
0100
,
0001
0010
0001
1000
0100
0001
1100
0000
,
2000
0000
3002
0000
1013
0110
2002
0000
,
3023
1000
1030
0100
0100
0001
0001
1000
,
1000
0010
0010
1000
1000
0001
0020
0000
,
2030
0001
3010
1000
0001
0010
0100
0001
,
0100
1000
0010
1000
0010
0001
0002
0010
,
2003
0100
3001
1000
0100
0001
0001
0100
,
0100
1000
0010
0100
0001
0010
2000
0100
,
3002
0000
0010
0000
1003
0000
0010
0000
0000
0010
0100
0000
0002
0000
0010
0000
,
2003
0100
3001
0010
0010
1000
0011
0001
,
0100
0010
1000
0100
0010
0001
2020
0000
,
3031
0001
0100
1000
,
0000
0000
0000
0000
0010
0000
0000
0000
0100
0000
0000
1000
0000
0000
0001
0000
,
0000
0010
0100
1000
,
0000
0000
0000
0000
0010
0000
0100
0000
0001
0000
0000
0010
0000
0000
2000
0000
,
0000
0000
0000
3000
0001
0000
0000
0000
0100
0000
0000
0000
1000
0000
0000
0000
,
0000
0000
0000
0000
0010
0000
0000
0000
0100
0000
0000
1000
0000
0000
0001
0000
,
0000
0010
0100
1000
,
0000
0000
0000
0000
0010
0000
0100
0000
0001
0000
0000
0010
0000
0000
2000
0000
,
0000
0000
0000
3000
0000
0000
0000
0000
0000
0000
0000
0000
0000
0000
0000
0000
,
0000
0000
0000
0000
0010
0000
0100
0000
0001
0000
0000
0010
0000
0000
2000
0000
,
0000
0000
0000
0000
0000
0000
0000
3000
0000
0000
0000
0000
0000
0000
0000
0000
,
0000
0000
0000
0000
0010
0000
0100
0000
1000
0000
0000
0010
0000
0000
0002
0000
,
0000
0000
0000
0003
0000
0000
0000
0000
0000
0000
0000
0000
0000
0000
0000
0000
,
0000
0000
0000
0000
0100
0000
0010
0000
0001
0000
0000
0100
0000
0000
2000
0000
,
0000
0000
0000
0000
0000
0000
0000
3000
0000
0000
0000
0000
0000
0000
0000
0000
,
0000
0000
0000
0000
0010
0000
0100
0000
0001
0000
0000
0010
0000
0000
2000
0000
,
0001
0000
0001
3000
0001
0000
0001
0000
0001
0000
0001
0000
2002
0000
0000
0000
,
3203
0001
0310
0010
0100
1000
1000
0001
,
0001
0100
0100
0001
0010
1000
0200
0000
,
0302
1000
0103
0001
1000
0100
0010
1000
,
0010
0001
0100
0001
0100
1000
2000
0100
,
3002
0010
1003
0001
0010
1000
0001
0010
,
0010
0001
0100
0010
1010
0100
0002
0010
,
2003
0000
0100
0000
3001
0000
0100
0000
0000
0100
0010
0000
2000
0000
0100
0000
,
3002
0010
1003
0100
0100
0001
2002
0000
,
3023
1000
1030
0100
0100
0001
0001
1000
,
1000
0010
0001
1000
0100
0001
0020
0000
,
2030
0001
3010
1000
0001
0010
0100
0001
,
0100
1000
0010
1000
0010
0001
0002
0010
,
2003
0100
3001
1000
0100
0001
0001
0100
,
0010
1000
0010
0100
0001
0010
2000
0100
,
3002
0000
0010
0000
1003
0000
0010
0100
0000
0000
0100
0000
0002
0000
0010
0000
,
2003
0100
3001
0010
2000
0000
3002
0000
,
0013
0000
0100
0000
1000
0000
0100
0000
0010
0000
0001
0000
0000
0100
1000
0000
,
0100
0000
0010
0000
1000
0000
0010
0000
0100
0000
0001
0100
0000
0000
1000
0000
,
0010
0000
1000
0000
0001
0000
0100
0000
0010
0000
1000
0010
0000
0000
0001
0000
,
0010
0000
0100
0000
1000
0000
0100
0000
0022
0000
0000
0000
2033
0000
0000
3000
,
0001
0000
0100
0000
1000
0000
0001
0000
0010
0000
0100
1000
0000
0000
0001
0000
,
0001
0000
0010
0000
1000
0000
0001
0000
0100
0000
0010
0000
0000
0100
0001
0000
,
1000
0000
0100
0000
0001
0000
1000
0000
0010
0000
0100
0000
0000
0010
1000
0000
,
1000
0010
0001
1000
0100
0001
0010
1000
,
1000
0100
0001
0010
0100
1000
0202
0000
,
0303
0000
0000
0000
;

//---------------dance-single - Live----------------
#NOTES:
     dance-single:
     :
     Hard:
     10:
     0.517147,0.543731,0.159921,0.377995,0.290765,498.000000,476.000000,22.000000,52.000000,0.000000,6.000000,0.517147,0.543731,0.159921,0.377995,0.290765,498.000000,476.000000,22.000000,52.000000,0.000000,6.000000:
0000
0000
0000
0000
,
0000
0000
0000
0000
,
0000
0000
0000
0000
,
0000
0000
0000
0000
0000
0000
0000
0000
0100
0001
0010
0000
2000
0000
0000
0000
,
3001
0000
0100
0000
0001
0000
1000
0000
0010
0000
0001
0100
1010
0000
0000
0000
,
1000
0000
0010
0100
1000
0000
0001
0000
0100
0000
1000
0000
0101
0000
0000
0000
,
0001
0000
0100
0010
0001
0000
1000
0000
0010
0000
0001
0000
1010
0000
0000
0000
,
1000
0000
0010
0100
1000
0000
0001
0000
0100
0000
1000
0010
0101
0000
0000
0000
,
0001
0000
0100
0000
0001
0000
1000
0000
0010
0100
0001
0000
0110
0000
0000
0000
,
0001
0000
0100
0000
0001
0000
1000
0100
0010
0000
0001
0000
1001
0000
0000
0000
,
1000
0000
0010
0100
1000
0000
1000
0000
0010
0000
0001
0000
1000
0000
0100
0000
,
0001
0100
0001
1000
0010
0100
1010
0000
,
0001
0000
0100
0010
0001
0000
2000
0000
0000
3010
0001
0000
1010
0000
0000
0000
,
1000
0000
0100
0010
0001
0000
1000
0000
0010
0000
0001
0000
1010
0000
0000
0000
,
0001
0000
0100
0010
1000
0000
0100
0000
0010
0000
0001
0010
1000
0000
0100
0000
,
0001
0010
0001
1000
0100
0001
1100
0000
,
2000
0000
3002
0000
1013
1001
2002
0000
,
3023
0000
1000
0000
1030
0000
0100
0000
0100
0000
0001
0010
0001
0000
1000
0100
,
1000
0000
0010
0000
0010
0000
1000
0100
1000
0000
0001
0100
0020
0000
0000
0000
,
2030
0000
0001
0000
3010
0000
1000
0000
0001
0000
0010
1000
0100
0000
0001
0010
,
0100
0000
1000
0000
0010
0000
1000
0000
0010
0000
0001
1000
0002
0000
0010
0100
,
2003
0000
0100
0000
3001
0000
1000
0000
0100
0000
0001
0010
0001
0000
0100
0010
,
0100
0000
1000
0000
0010
0000
0100
0000
0101
0000
0010
0100
2000
0000
0100
0000
,
3002
0000
0010
0000
1003
0000
0010
0100
0000
0010
0100
0000
0002
0000
0010
0000
,
2003
0000
0100
0000
3001
0000
0010
0100
0010
0000
1000
0100
0011
0000
0001
0000
,
0100
0010
1000
0100
0010
0001
2020
0000
,
3131
0001
0100
1000
,
0000
0000
0000
0000
0010
0000
0000
0000
0100
0000
0000
1000
0000
0000
0001
0000
,
0000
0010
0100
1000
,
0000
0000
0000
0000
0010
0000
0100
0000
0001
0000
0000
0010
0000
0000
2000
0000
,
0000
0000
0000
3000
0001
0000
0000
0000
0100
0000
0000
0000
1000
0000
0000
0000
,
0000
0000
0000
0000
0010
0000
0000
0000
0100
0000
0000
1000
0000
0000
0001
0000
,
0000
0010
0100
1000
,
0000
0000
0000
0000
0010
0000
0100
0000
0001
0000
0000
0010
0000
0000
2000
0000
,
0000
0000
0000
3000
0000
0000
0000
0000
0000
0000
0000
0000
0000
0000
0000
0000
,
0000
0000
0000
0000
0010
0000
0100
0000
0001
0000
0000
0010
0000
0000
2000
0000
,
0000
0000
0000
0000
0000
0000
0000
3000
0000
0000
0000
0000
0000
0000
0000
0000
,
0000
0000
0000
0000
0010
0000
0100
0000
1000
0000
0000
0010
0000
0000
0002
0000
,
0000
0000
0000
0003
0000
0000
0000
0000
0000
0000
0000
0000
0000
0000
0000
0000
,
0000
0000
0000
0000
0100
0000
0010
0000
0001
0000
0000
0100
0000
0000
2000
0000
,
0000
0000
0000
0000
0000
0000
0000
3000
0000
0000
0000
0000
0000
0000
0000
0000
,
0000
0000
0000
0000
0010
0000
0100
0000
0001
0000
0000
0010
0000
0000
2000
0000
,
0001
0000
0001
3001
0001
0000
0001
0001
0001
0000
0001
0001
2002
0000
0000
0000
,
3203
0000
0001
0000
0310
0000
0010
0000
0100
0000
1000
0100
1000
0000
0001
0010
,
0001
0000
0100
0000
0100
0000
0001
0000
0010
0000
1000
0010
0200
0000
0000
0000
,
0302
0000
1000
0000
0103
0000
0001
0000
1000
0000
0100
0001
0010
0000
1000
0100
,
0010
0000
0001
0000
0100
0000
0001
0010
0100
0000
1000
0001
2000
0000
0100
0000
,
3002
0000
0010
0000
1003
0000
0001
0000
0010
0000
1000
0000
0001
0000
0010
0100
,
0010
0000
0001
0010
0100
0000
0010
0000
1010
0000
0100
0000
0002
0000
0010
0000
,
2003
0000
0100
0000
3001
0000
0100
0010
0000
0100
0010
0000
2000
0000
0100
0000
,
3002
0000
0010
0000
1003
0000
0100
0010
0100
0000
0001
0010
2002
0000
0000
0000
,
3023
0000
1000
0000
1030
0000
0100
0000
0100
0000
0001
0010
0001
0000
1000
0100
,
1000
0000
0010
0000
0001
0000
1000
0000
0100
0000
0001
0100
0020
0000
0000
0000
,
2030
0000
0001
0000
3010
0000
1000
0000
0001
0000
0010
1000
0100
0000
0001
0010
,
0100
0000
1000
0000
0010
0000
1000
0000
0010
0000
0001
1000
0002
0000
0010
0000
,
2003
0000
0100
0000
3001
0000
1000
0010
0100
0000
0001
0010
0001
0000
0100
0000
,
0010
0000
1000
0000
0010
0000
0100
0010
0001
0000
0010
0100
2000
0000
0100
0000
,
3002
0000
0010
0000
1003
0000
0010
0100
0000
0010
0100
0000
0002
0000
0010
0000
,
2003
0000
0100
0000
3001
0000
0010
0100
2000
0000
0000
0000
3002
0000
0000
0000
,
0013
0000
0100
0000
1000
0000
0100
0000
0010
0000
0001
0010
0000
0100
1000
0000
,
0100
0000
0010
0000
1000
0000
0010
0000
0100
0000
0001
0100
0000
0010
1000
0000
,
0010
0000
1000
0000
0001
0000
0100
0000
0010
0000
1000
0010
0000
0100
0001
0000
,
0010
0000
0100
0000
1000
0000
0100
0000
0022
0000
0000
0000
2033
0000
0000
3000
,
0001
0000
0100
0000
1000
0000
0001
0000
0010
0000
0100
1000
0000
0010
0001
0000
,
0001
0000
0010
0000
1000
0000
0001
0000
0100
0000
0010
1000
0000
0100
0001
0000
,
1000
0000
0100
0000
0001
0000
1000
0000
0010
0000
0100
0001
0000
0010
1000
0000
,
1000
0000
0010
0000
0001
0000
1000
0000
0100
0000
0001
0000
0010
0000
1000
0010
,
1000
0000
0100
0000
0001
0000
0010
1000
0100
0000
1000
0000
0202
0000
0000
0000
,
0303
0000
0000
0000
;

//---------------dance-single - Live----------------
#NOTES:
     dance-single:
     :
     Challenge:
     13:
     0.598146,0.667306,0.181728,0.377995,0.563358,576.000000,551.000000,25.000000,52.000000,0.000000,6.000000,0.598146,0.667306,0.181728,0.377995,0.563358,576.000000,551.000000,25.000000,52.000000,0.000000,6.000000:
// measure 0
0000
0000
0000
0000
,  // measure 1
0000
0000
0000
0000
,  // measure 2
0000
0000
0000
0000
,  // measure 3
0000
0000
0000
0000
0000
0000
0000
0000
0100
0001
0010
0100
2000
0000
0000
0000
,  // measure 4
3001
0000
0100
0010
0001
0000
1000
0000
0010
0000
0001
0100
1010
0000
0000
0000
,  // measure 5
1000
0000
0010
0100
1000
0000
0001
0000
0100
0000
1000
0010
0101
0000
0000
0000
,  // measure 6
0001
0000
0100
0010
0001
0000
1000
0000
0010
0000
0001
0100
1010
0000
0000
0000
,  // measure 7
1000
0000
0010
0100
1000
0000
0001
0000
0100
0000
1000
0010
0101
0000
0000
0000
,  // measure 8
0001
0000
0100
0010
0001
0000
1000
0000
0010
0100
0001
0000
0110
0000
0000
0000
,  // measure 9
0001
0000
0100
0010
0001
0000
1000
0100
0010
0000
0001
0000
1001
0110
0000
0000
,  // measure 10
1000
0000
0010
0100
1000
0000
1000
0000
0010
0000
0001
0100
1000
0000
0100
0000
,  // measure 11
0001
0000
0100
0000
0001
0100
1000
0000
0010
0100
0100
0000
1010
0000
0000
0000
,  // measure 12
0001
0000
0100
0010
0001
0000
2000
0100
0000
3010
0001
0000
1010
0000
0000
0000
,  // measure 13
1000
0000
0100
0010
0001
0000
1000
0000
0010
0000
0001
0100
1010
0000
0000
0000
,  // measure 14
0001
0000
0100
0010
1000
0000
0100
0001
0010
0000
0001
0010
1000
0000
0100
0000
,  // measure 15
0001
0000
0010
0100
0001
0000
1000
0000
0100
0010
0001
0000
1100
0000
0000
0000
,  // measure 16
2000
0000
0000
0000
3002
0000
0000
0000
1013
0000
1001
0110
2002
0000
0000
0000
,  // measure 17
3023
0000
1000
0100
1030
0000
0100
0010
0100
0000
0001
0010
0001
0000
1000
0100
,  // measure 18
1000
0000
0010
0100
0010
0000
1000
0100
1000
0000
0001
0100
0020
0000
0000
0000
,  // measure 19
2030
0000
0001
0100
3010
0000
1000
0100
0001
0000
0010
1000
0100
0000
0001
0010
,  // measure 20
0100
0000
1000
0001
0010
0000
1000
0100
0010
0000
0001
1000
0002
0000
0010
0100
,  // measure 21
2003
0000
0100
0010
3001
0000
1000
0010
0100
0000
0001
0010
0001
0000
0100
0010
,  // measure 22
0100
0000
1000
0100
0010
0000
0100
0010
0101
0000
0010
0100
2000
0000
0100
0010
,  // measure 23
3002
0000
0010
0100
1003
0000
0010
0100
0000
0010
0100
0000
0002
0000
0010
0100
,  // measure 24
2003
0000
0100
0010
3001
0000
0010
0100
0010
0000
1000
0100
0011
0000
0001
0100
,  // measure 25
0001
0000
0010
0000
1000
0000
0100
0001
0010
0000
0001
0000
2020
0000
0000
0000
,  // measure 26
3131
0001
0100
1000
,  // measure 27
0000
0000
0000
0000
0010
0000
0000
0000
0100
0000
0000
1000
0000
0000
0001
0000
,  // measure 28
0000
0010
0100
1000
,  // measure 29
0000
0000
0000
0000
0010
0000
0100
0000
0001
0000
0000
0010
0000
0000
2000
0000
,  // measure 30
0000
0000
0000
3000
0001
0000
0000
0000
0100
0000
0000
0000
1000
0000
0000
0000
,  // measure 31
0000
0000
0000
0000
0010
0000
0000
0000
0100
0000
0000
1000
0000
0000
0001
0000
,  // measure 32
0000
0010
0100
1000
,  // measure 33
0000
0000
0000
0000
0010
0000
0100
0000
0001
0000
0000
0010
0000
0000
2000
0000
,  // measure 34
0000
0000
0000
3000
0000
0000
0000
0000
0000
0000
0000
0000
0000
0000
0000
0000
,  // measure 35
0000
0000
0000
0000
0010
0000
0100
0000
0001
0000
0000
0010
0000
0000
2000
0000
,  // measure 36
0000
0000
0000
0000
0000
0000
0000
3000
0000
0000
0000
0000
0000
0000
0000
0000
,  // measure 37
0000
0000
0000
0000
0010
0000
0100
0000
1000
0000
0000
0010
0000
0000
0002
0000
,  // measure 38
0000
0000
0000
0003
0000
0000
0000
0000
0000
0000
0000
0000
0000
0000
0000
0000
,  // measure 39
0000
0000
0000
0000
0100
0000
0010
0000
0001
0000
0000
0100
0000
0000
2000
0000
,  // measure 40
0000
0000
0000
0000
0000
0000
0000
3000
0000
0000
0000
0000
0000
0000
0000
0000
,  // measure 41
0000
0000
0000
0000
0010
0000
0100
0000
0001
0000
0000
0010
0000
0000
2000
0000
,  // measure 42
0001
0001
0001
3001
0001
0001
0001
0001
0001
0001
0001
0001
2002
0000
0000
0000
,  // measure 43
3203
0000
0001
0010
0301
0000
0010
0100
0010
0000
1000
0100
1000
0000
0001
0010
,  // measure 44
0001
0000
0100
0010
0100
0000
0001
0010
0001
0000
1000
0010
0200
0000
0000
0000
,  // measure 45
0302
0000
1000
0010
0103
0000
0001
0010
1000
0000
0100
0001
0010
0000
1000
0100
,  // measure 46
0010
0000
0001
1000
0100
0000
0001
0010
0100
0000
1000
0001
2000
0000
0100
0010
,  // measure 47
3002
0000
0010
0100
1003
0000
0001
0100
0010
0000
1000
0100
1000
0000
0010
0100
,  // measure 48
0010
0000
0001
0010
0100
0000
0010
0100
1010
0000
0100
0010
0002
0000
0010
0100
,  // measure 49
2003
0000
0100
0010
3001
0000
0100
0010
0000
0100
0010
0000
2000
0000
0100
0010
,  // measure 50
3002
0000
0010
0100
1003
0000
0100
0010
0100
0000
0001
0010
2002
0000
0000
0000
,  // measure 51
3023
0000
1000
0100
1030
0000
0100
0010
0100
0000
0001
0010
0001
0000
1000
0100
,  // measure 52
1000
0000
0010
0100
0010
0000
1000
0100
1000
0000
0001
0100
0020
0000
0000
0000
,  // measure 53
2030
0000
0001
0100
3010
0000
1000
0100
0001
0000
0010
1000
0100
0000
0001
0010
,  // measure 54
0100
0000
1000
0001
0010
0000
1000
0100
0010
0000
0001
1000
0002
0000
0010
0100
,  // measure 55
2003
0000
0100
0010
3001
0000
1000
0010
0100
0000
0001
0010
0001
0000
0100
0010
,  // measure 56
0100
0000
1000
0100
0010
0000
0100
0010
0101
0000
0010
0100
2000
0000
0100
0010
,  // measure 57
3002
0000
0010
0100
1003
0000
0010
0100
0000
0010
0100
0000
0002
0000
0010
0100
,  // measure 58
2003
0000
0100
0010
3001
0000
0010
0100
2000
0000
0000
0000
3002
0000
0000
0000
,  // measure 59
0013
0100
0010
0000
1000
0000
0100
0000
0010
0000
0001
0010
0000
0100
1000
0000
,  // measure 60
0100
0010
0100
0000
1000
0000
0010
0000
0100
0000
0001
0100
0000
0010
1000
0000
,  // measure 61
0010
0100
0010
0000
0001
0000
0100
0000
0010
0000
1000
0010
0000
0100
0001
0000
,  // measure 62
0010
0100
0010
0000
1000
0000
0100
0000
0022
0000
0000
0000
2033
0000
0000
3000
,  // measure 63
0001
0000
0100
0000
1000
0000
0001
0000
0010
0000
0100
1000
0000
0010
0001
0000
,  // measure 64
0001
0000
0010
0000
1000
0000
0001
0000
0100
0000
0010
1000
0000
0100
0001
0000
,  // measure 65
1000
0000
0100
0000
0001
0000
1000
0000
0010
0000
0100
0001
0000
0010
1000
0000
,  // measure 66
1000
0000
0010
0000
0001
0000
1000
0000
0100
0000
0001
0100
0010
0100
1000
0010
,  // measure 67
1000
0000
0100
0000
0001
0000
0010
1000
0100
0000
1000
0000
0202
0000
0000
0000
,  // measure 68
0303
0000
0000
0000
;
