#TITLE:u gotta groove;
#SUBTITLE:(Triple Mazin Dub);
#ARTIST:DJ Mazinger;
#TITLETRANSLIT:;
#SUBTITLETRANSLIT:;
#ARTISTTRANSLIT:;
#GENRE:;
#CREDIT:;
#MUSIC:u gotta groove (TripleMazinDub).mp3;
#BANNER:triple mazin dub.PNG;
#BACKGROUND:triple mazin bg.PNG;
#CDTITLE:;
#SAMPLESTART:62.397;
#SAMPLELENGTH:12.000;
#SELECTABLE:YES;
#OFFSET:1.433;
#BPMS:0.000=94.000;
#STOPS:;
#BGCHANGES:;
#FGCHANGES:;

//--------------- dance-single - ----------------
#NOTES:
     dance-single:
     :
     Easy:
     3:
     0.209,0.23,0.205,0.055,0.075:
0000
0000
0000
0000
0000
0000
0010
0001
,
0000
0000
0100
0000
0000
0000
1000
0100
,
0000
0000
0001
0000
0000
0000
0010
0001
,
0000
0000
0100
0000
0000
0000
1000
0100
,
0000
0000
0000
0000
0000
0000
0001
1000
,
0000
0000
0010
0002
0000
0003
0100
0010
,
0000
0000
1000
0200
0000
0301
0001
0000
,
0000
0000
0010
0002
0000
0003
0100
0010
,
0000
0000
1000
0200
0000
0300
0001
1000
,
0001
0000
0000
0000
0100
0010
0000
0000
0000
0000
0000
0000
0110
0000
0000
0000
,
0000
1010
0000
0101
,
0110
1100
0000
0110
,
0011
0000
1010
0000
0000
0000
1000
0010
,
0000
0000
0010
1000
0000
0000
1000
0001
,
0000
0000
0000
0000
0001
1000
0000
0000
0000
0000
0000
0000
1000
0000
0100
0000
,
0000
0110
0000
0000
,
0000
0000
0000
0000
0000
0000
0100
0010
,
0100
0000
0000
0000
0000
0000
1000
0001
,
1000
0000
0000
0000
0000
0000
0000
0000
0000
0000
0001
1000
0000
0000
0001
1000
,
0000
0000
0000
0000
,
0110
0000
0000
0000
0000
0000
0000
0000
0000
0000
0000
1000
1000
0000
0000
0000
,
1010
0000
0000
0000
0000
0000
0000
0000
0000
1000
0001
0100
,
0010
0000
0000
1000
0000
0000
0001
0001
,
0000
0000
1001
0000
0000
0000
0000
0000
0000
0000
0000
0000
1000
0010
0100
0000
,
0000
0000
0000
0000
0000
0000
0000
0000
0000
0000
0000
1000
0001
0000
0000
0000
,
0101
0000
0000
0000
0000
0000
1000
0010
,
0001
0000
1001
0000
,
1001
0000
0000
0000
0000
0000
0000
0000
0000
1000
0100
1000
,
0100
0000
0000
0000
;

//--------------- dance-single - ----------------
#NOTES:
     dance-single:
     :
     Medium:
     5:
     0.324,0.479,0.274,0.438,0.096:
0000
0000
0000
0000
0000
0000
0010
0001
,
0000
0000
0000
0010
0000
0000
0010
0001
,
0000
0000
0000
0010
0000
0000
0010
0001
,
0000
0000
0000
0010
0000
0000
0000
0010
,
0001
0000
0001
0000
0001
0000
0001
1010
,
0000
0000
0000
0010
0000
0000
0001
1010
,
0000
0000
0000
0010
0000
0010
0001
1010
,
0000
1000
0000
0010
0000
0000
0001
1010
,
0000
0000
0000
0010
0000
1000
0001
1010
,
0000
0000
0010
0000
0100
0010
0000
0000
0000
0000
0000
0000
0001
0000
1010
0000
,
0000
0000
0000
0010
0000
1000
0001
1010
,
0100
0000
0000
0010
0000
0000
0001
1010
,
0100
0000
1000
0000
0000
0000
0010
0000
0000
0000
0000
0000
0001
1000
0100
0010
,
0000
0000
0000
0010
0000
0000
0001
1010
,
0000
0000
0000
0000
0100
0010
0000
0000
0000
0000
0000
0000
0001
1000
0100
0000
,
0000
0000
0000
0000
,
0000
0000
0000
0000
,
0202
0000
0000
0000
0303
0000
0000
0000
0000
0000
0000
0000
0202
0303
2002
3003
,
0022
0000
0030
0000
0103
0000
1000
0000
0000
0000
0002
0003
2200
3300
0002
0003
,
0022
0030
0103
1000
0000
0100
0200
0300
,
0022
0000
0030
0000
0103
0000
1000
0000
0000
0000
0000
0100
0100
0000
0100
0000
,
0002
0000
0000
0000
0103
0000
1000
0000
0000
0000
0000
0000
0100
0020
0000
0000
,
0032
0023
0130
1000
0000
0000
2200
0000
,
3300
0000
0010
0000
0100
0000
0000
0000
0100
0000
0000
0000
0000
0000
2000
0002
,
3003
0100
0000
1100
,
0200
0000
0302
0010
0003
0000
0000
0100
0000
0000
0000
0000
0100
0002
1000
0000
,
0013
0000
0000
0000
0100
0000
0000
0000
0110
0000
0000
0000
2100
0100
3100
0020
,
0031
0000
0000
0000
0000
0000
0000
0000
0000
2000
0000
0000
3000
0000
0000
0000
0000
0000
1000
0000
0002
0000
0000
0000
,
0013
0000
0000
0000
;

//--------------- dance-single - ----------------
#NOTES:
     dance-single:
     :
     Hard:
     8:
     0.508,0.465,0.342,0.123,0.527:
0000
0000
0000
0000
0000
0000
0010
0001
,
0010
0100
0010
0100
1000
0000
0010
0001
0010
0000
0100
1000
0100
0000
0010
0000
,
0001
0010
0001
0010
1000
0000
0100
0001
0100
0000
0010
1000
0010
0000
0100
0000
,
0000
0000
0001
0010
0100
0010
0001
0000
0010
0100
1000
0100
0010
0000
0000
0000
,
0000
0000
0000
0000
0000
0000
0010
1000
,
0000
0000
1000
0100
0010
0000
0100
0010
0001
0000
0010
0001
1000
0000
0000
0000
,
0100
0001
1000
0001
0010
0000
0100
1000
0010
1000
0001
0000
1001
0000
0000
0000
,
0010
0000
1000
0010
0001
0000
1000
0010
0001
0000
0000
0000
0110
0000
0000
0000
,
0000
0000
0100
1000
0100
0000
0010
0001
0010
0100
0010
0000
1000
0000
0101
0000
,
0101
0000
1000
0001
1000
0000
0101
0000
0000
0000
1000
0000
0001
0000
1010
0000
,
1010
0000
0001
0100
0010
0000
1010
0000
0000
0000
0001
0000
0110
0000
1000
0000
,
0110
0000
1000
0100
0001
0000
0110
0000
0000
0000
1000
0000
0010
0000
0101
0000
,
0101
0000
1000
0001
0100
0000
0101
0000
0000
0000
0001
0000
1100
0000
0010
0000
,
1100
0000
0010
0001
0010
0000
1100
0000
0000
0000
0100
0000
0010
0000
0011
0000
,
0011
0000
0100
1000
0100
0000
0011
0000
0000
0000
0010
0000
1001
0000
0100
0000
,
1001
0000
0100
0010
0100
0000
1001
0000
0000
0000
0000
0000
0000
0000
0000
0000
,
2002
0000
0003
0020
0000
3030
1000
0010
,
0002
0000
0010
0003
0100
0000
1000
0000
0100
0000
0010
0000
,
0002
0000
0100
0003
0010
0000
1000
0000
0010
0000
0100
0000
,
0002
0000
0010
0003
1000
0000
0100
0000
1000
0000
0010
0000
,
0002
0000
0100
0003
1000
0000
0010
0000
1000
0000
0100
0000
,
0001
0010
0000
0001
0000
1000
0000
0001
1000
0010
0100
0000
1000
0000
0000
0000
,
0100
0000
0010
0000
0100
0000
1000
0000
0001
0000
0010
0100
1000
0010
0100
0000
,
1000
0001
0000
0000
1000
0001
0000
0000
0010
0001
0100
0001
0010
0000
0000
0000
,
0010
1000
0100
0010
1000
0000
0010
0000
1000
0000
0001
0010
1000
0000
0000
0000
,
0100
0010
0000
0010
0100
0000
0100
0000
1000
0100
0010
1000
0100
0010
0000
0000
,
0001
0010
0000
0010
0000
0010
0000
0010
0001
0010
0100
0010
0001
0010
0000
0000
,
0100
0010
0000
0000
0100
0010
0000
0010
0000
0000
1000
0000
0001
0010
0000
0000
,
2002
0000
0000
0000
0000
3003
0000
0000
0000
0000
0000
0000
0000
0000
0000
0000
;
