#TITLE:tokai;
#SUBTITLE:;
#ARTIST:performed by co-key;
#TITLETRANSLIT:;
#SUBTITLETRANSLIT:;
#ARTISTTRANSLIT:;
#GENRE:;
#CREDIT:;
#MUSIC:tokai.mp3;
#BANNER:tokaibn.jpg;
#BACKGROUND:tokaibg.jpg;
#CDTITLE:;
#SAMPLESTART:62.321;
#SAMPLELENGTH:12.000;
#SELECTABLE:YES;
#OFFSET:-0.448;
#BPMS:0.000=96.973;
#STOPS:;
#BGCHANGES:;
#FGCHANGES:;

//--------------- dance-single - ----------------
#NOTES:
     dance-single:
     :
     Easy:
     3:
     0,0,0,0,0:
0000
0000
0000
0000
,
0000
0000
0000
0000
,
0000
0000
0000
0000
,
0000
0000
0100
0000
,
0100
0000
0010
0000
0000
0001
0100
0000
,
0010
0000
0100
0000
0000
1000
0100
0000
,
1000
0000
0100
0000
0000
0001
0100
0000
,
1000
0000
0100
0000
0010
1000
0010
1000
,
0000
0100
0000
1001
,
0000
0010
0000
1001
,
0000
0000
0100
0110
0000
0000
1001
0000
,
0000
0010
0000
1001
,
1000
0100
1000
0000
0001
0010
0001
0010
,
0000
1000
0100
0000
0010
0100
0010
0100
,
0000
0010
0001
0000
0010
0100
0010
0000
,
0100
1000
0100
0000
0010
0001
0010
0001
,
0000
0100
0010
0000
0000
0001
1000
0001
,
0000
0010
0100
0000
0000
1000
0001
1000
,
0000
0001
0100
0010
1000
0000
0001
0000
,
1000
0000
0100
0010
0100
0000
0110
0000
,
0000
0000
0100
0000
0010
0000
0000
0001
0000
0000
0000
0000
1000
0000
0000
0000
,
0100
1000
0010
0000
1000
0001
0010
0000
,
0000
0001
0010
0000
1000
0001
0010
0001
,
0000
0100
0110
0000
1000
1000
0001
0001
,
0000
0010
0100
0000
1000
0001
1000
0000
,
0101
0000
0000
0000
0001
0000
1000
0000
0001
0000
0000
1001
0000
0000
0000
0000
,
0000
0100
1000
0100
0010
0001
0000
0000
,
0000
0001
0010
0000
0001
1000
0100
0000
,
0000
0000
0000
0000
0000
1001
1001
0000
,
0000
0000
1001
0101
,
1001
0000
0000
0000
,
1010
0000
0000
0000
0000
0000
0000
0010
,
1010
0000
0000
0000
;

//--------------- dance-single - ----------------
#NOTES:
     dance-single:
     :
     Medium:
     4:
     0.249,0.345,0.289,0.12,0.054:
0000
0000
0000
0000
,
0000
0000
0000
0000
,
0000
0000
0000
0000
,
0000
0000
0000
0000
0000
0000
0000
0000
0002
0003
0000
0000
1000
0000
0100
0000
,
0000
0000
0100
0000
1000
0000
0000
0000
0000
0000
0000
0000
1000
0000
0020
0030
,
0000
0000
0100
0000
1000
0000
0000
0000
0200
0320
0030
0000
1000
0000
0002
0003
,
0000
0000
0100
0000
1000
0000
0000
0000
0000
0000
0000
0000
1000
0200
1300
0000
,
0020
0030
0000
0000
1000
0000
0000
0000
2000
3000
0002
0003
2000
3001
0000
0000
,
0010
0100
1000
0000
0000
0000
1000
0000
,
0000
0100
1000
0100
0000
0000
1000
0100
,
0000
0000
1000
0100
0000
0100
1000
0100
,
0000
0010
1100
0010
0010
0000
1000
0000
,
0000
1000
1000
1000
,
0000
0000
1010
1000
0000
0000
1000
0000
,
0000
1000
0000
1000
,
0000
1100
0101
1001
,
0101
1001
0101
1001
,
0101
1001
0101
1001
,
0101
1010
0100
1000
,
0100
0000
0000
0000
1000
1000
0000
0000
0100
0000
0000
0000
1100
0000
0000
0000
,
0101
0001
0101
0001
,
0101
0001
0101
0011
,
0101
0000
0100
0000
,
0100
0000
0000
0000
0100
0001
1000
0001
,
0101
0000
0100
0000
,
0100
0000
0000
0000
0000
0000
0000
0000
0100
0000
0001
0000
0010
0001
0000
0000
,
0101
0000
0100
0000
,
0100
0000
0000
0000
0000
0000
0000
0000
0100
0000
0001
0000
1000
0001
0000
0000
,
0001
0000
0000
0000
0000
0100
0000
0000
,
0000
0000
0100
0000
0000
0000
0000
0000
0000
0001
0000
0000
0001
0010
0000
0000
,
0001
0000
0000
0000
,
0100
0000
0000
0000
0000
0000
0000
0000
0000
0010
0000
0000
0010
0000
1000
0000
;

//--------------- dance-single - ----------------
#NOTES:
     dance-single:
     :
     Hard:
     6:
     0.352,0.499,0.289,0.517,0.138:
0000
0000
0000
0000
,
0000
0000
0000
0000
,
0000
0000
0000
0000
,
0000
0000
0000
0000
0000
0000
0000
0000
0002
0003
0000
0000
1000
0000
0100
0000
,
0000
0000
0100
0000
1000
0000
0000
0000
0000
0000
0000
0000
1000
0000
0020
0030
,
0000
0000
0100
0000
1000
0000
0000
0000
0200
0320
0030
0000
1000
0000
0002
0003
,
0000
0000
0100
0000
1000
0000
0000
0000
0000
0000
0000
0000
1000
0200
1300
0000
,
0020
0030
0000
0000
1000
0000
0000
0000
2000
3000
0002
0003
2000
3001
0000
0000
,
0010
0100
1000
0000
0000
0000
1000
0000
,
0000
0100
1000
0100
0000
0000
1000
0100
,
0000
0000
1000
0100
0000
0100
1000
0100
,
0000
0010
1100
0010
0010
0000
1000
0000
,
0000
1000
1000
1000
,
0000
0000
0000
0000
1010
0010
1010
0000
0000
0000
0000
0000
1000
0000
0000
0000
,
0000
1000
0000
1000
,
0000
1100
0101
1001
,
0101
1001
0101
1001
,
0101
0000
0000
0000
1001
0000
0000
0000
0101
0000
0000
0000
1001
0000
0000
0100
,
0101
1010
0100
1000
,
0100
0000
0000
0000
1000
1000
0000
0000
0100
0000
0000
0000
1100
0000
0000
0000
,
0201
0300
0000
0000
0001
0000
0000
0000
0101
0000
0000
0000
0001
0000
0000
0000
,
0101
0020
0030
0000
0001
0000
0000
0000
0101
0000
0000
0000
0011
0200
0300
0000
,
0102
0003
0000
0000
0000
0000
0000
0000
0100
0000
0002
0003
0020
0030
0200
0300
,
2000
3000
0000
0000
0000
0000
0000
0000
0100
2000
3001
0020
0230
0310
0000
0002
,
0023
0030
0000
0000
0000
0000
0002
0003
0100
0020
0030
0000
2000
3000
0000
0000
,
0100
0000
2000
3000
0000
0000
0000
0000
0100
2000
3001
0000
0020
0031
0000
0000
,
0101
0000
0020
0030
0000
0000
0000
0000
0100
2000
3000
0000
0002
0003
0000
0000
,
0100
0000
0020
0030
0000
0000
0020
0030
0100
2000
3100
0020
2030
3100
0002
0003
,
0010
0000
0000
0000
0000
0000
0002
0003
0000
0000
0100
0000
0000
0002
0003
0000
,
0000
0000
0100
0000
0000
0000
0000
0000
0000
0020
0130
0000
0002
0013
2000
3000
,
0001
0000
0000
0000
,
0100
0000
0000
0000
0000
0000
0000
0000
0000
0010
0000
0000
0010
0000
1000
0000
;

//--------------- dance-single - ----------------
#NOTES:
     dance-single:
     :
     Challenge:
     8:
     0,0,0,0,0:
0000
0000
0000
0000
,
0000
0000
0000
0000
,
0000
0000
0000
0000
,
0000
0000
0100
0000
,
1000
0000
0100
0000
1100
0000
0000
0000
0000
0000
1000
0000
0001
0010
1000
0000
,
1010
0000
0100
0000
0010
0000
0000
0000
0000
0000
1000
0000
0001
0100
1000
0000
,
1100
0000
0010
0000
0001
0000
0000
0000
0000
0000
1000
0000
0001
0010
0000
0000
,
0011
0000
0000
0000
0110
0000
0000
0000
1010
0000
1100
0000
0010
0100
0010
0100
,
0010
0000
0100
0000
1001
0000
0100
0000
0000
0000
0010
0000
1000
0001
1000
0000
,
1001
0000
0100
0000
0010
0000
0000
0000
0000
0000
0010
0000
0100
1000
0100
0000
,
0101
0000
0010
0000
1000
0000
1001
0000
0000
0000
0010
0000
0100
0001
0100
0000
,
0110
0000
1000
0100
0010
0000
0001
0010
0100
0000
0000
0000
0000
0000
0110
0000
,
1000
0000
0000
0001
0000
0000
0100
0000
0000
0001
0000
0010
0100
0000
0000
0001
0000
1000
0100
0000
0010
0001
0000
0000
,
0000
0000
0100
1000
0000
0010
0001
0000
0010
1000
0000
0000
0100
0000
0010
1000
0000
0001
0010
0000
0100
1000
0000
0000
,
0000
0000
1000
0100
0000
0010
0001
0000
0000
0000
0000
0010
1000
0000
0010
0100
0000
0001
0010
0000
0000
0100
0000
1000
,
0010
0000
1000
0010
0000
0000
0100
0000
0001
0000
0000
0100
1000
0000
0100
0010
0000
0001
0100
0000
0000
1000
0000
0000
,
0000
0000
0000
0001
0000
1000
0100
0000
0010
0001
0000
0100
1000
0000
0100
0001
0000
0010
0100
0000
1000
0001
0000
0000
,
0000
0000
0100
1000
0000
0010
0001
0000
0010
1000
0000
0100
0000
0000
0010
1000
0000
0001
0010
0000
0100
1000
0000
0000
,
0000
0000
0000
0010
0000
1000
0100
0000
0001
0010
0000
0100
1000
0000
0000
0000
0000
0000
0100
0000
0001
0010
0000
0100
,
1000
0000
0000
0000
0000
0000
1000
0000
0100
0010
0000
0001
0100
0000
1000
0010
0000
0100
0001
0000
0000
0000
0000
0000
,
0000
0000
1000
0100
0000
0010
0001
0000
0010
0100
0000
1000
0000
0000
0010
0100
0000
0000
0001
0000
0010
0100
0000
0000
,
1000
0000
0100
0001
0000
0000
0010
0000
0000
0001
0000
0100
1000
0000
0100
0001
0000
0010
0100
0000
0000
0000
0000
0000
,
0000
0000
0100
1000
0000
0000
0010
0000
0001
1000
0000
0000
0010
0000
0100
1000
0000
0010
0001
0000
0010
1000
0000
0000
,
0000
0000
0000
0010
0000
1000
0100
0000
0000
0000
0000
0001
0100
0000
1000
0010
0000
0100
0001
0000
0100
0010
0000
0000
,
0000
0000
1000
0100
0000
0010
0001
0000
0010
0000
0000
0000
1000
0000
0010
0100
0000
0001
0010
0000
1000
0000
0000
1000
,
0100
0000
0010
0000
0000
0000
0100
0000
1000
0001
0000
0100
0010
0000
0100
0001
0000
1000
0000
0000
0100
0001
0000
0000
,
0000
0000
0100
1000
0000
0010
0001
0000
0010
1000
0000
0100
0010
0000
0001
1000
0000
0010
0100
0000
0000
0000
0000
0000
,
0000
0000
0000
0010
0000
1000
0100
0000
0001
0010
0000
0100
1000
0000
0100
0010
0000
0001
0000
0000
0100
0010
0000
0000
,
0000
0000
1000
0100
1000
0100
0000
0000
0000
0000
0010
0001
0010
0001
0000
0000
,
0000
0000
0100
0010
0100
0010
0000
0000
0000
0000
1000
0001
1000
0001
0000
0000
,
1001
0000
0100
0001
0100
0001
0000
0000
0000
0000
0010
1000
0010
1000
0000
0000
,
0000
0000
0010
0001
0010
0001
0000
0000
0000
0000
0100
1000
0100
1000
1001
0000
,
0110
0000
0000
0000
;
