#TITLE:Wonderfully Made;
#SUBTITLE:;
#ARTIST:The Waiting;
#TITLETRANSLIT:;
#SUBTITLETRANSLIT:;
#ARTISTTRANSLIT:;
#GENRE:;
#CREDIT:;
#MUSIC:Wonderfully Made.mp3;
#BANNER:Wonderfully Made.png;
#BACKGROUND:Wonderfully Made-bg.png;
#CDTITLE:;
#SAMPLESTART:57.432;
#SAMPLELENGTH:14.998;
#SELECTABLE:YES;
#OFFSET:-0.466;
#BPMS:0.000=218.025
,66.000=109.012
,134.000=54.506
,136.000=218.025
,200.000=109.012
,236.000=54.506
,238.000=218.025
;
#STOPS:;
#BGCHANGES:;
#FGCHANGES:;

//--------------- dance-single - ----------------
#NOTES:
     dance-single:
     :
     Beginner:
     3:
     0,0,0,0,0:
0000
0000
0000
0000
,
0000
0000
0000
0000
,
0000
0000
0000
0000
,
0000
0000
0000
0000
,
0000
0000
0000
0000
,
1000
0000
0001
0000
,
1000
0000
0000
0000
,
0000
0000
0010
0000
,
0100
0000
0001
0000
,
0000
0000
0000
0000
,
1000
0000
0100
0000
,
0000
0000
0000
0010
,
0001
0000
0000
0000
,
1000
0000
0001
0100
,
0001
0000
0000
0000
,
1000
0000
0000
0100
,
1000
0000
0001
0000
,
0100
0000
0000
0000
0000
0000
0000
0000
0001
0000
0010
0000
0001
0000
0000
1000
,
0100
1000
0010
1000
0100
0000
1000
0000
,
0001
0010
0000
0000
0001
0000
0100
0000
,
0010
1000
0100
0000
1000
0000
0001
0000
,
0010
0001
0000
0000
1000
0000
0010
0000
,
0000
1000
0001
0000
0000
0000
0010
0000
,
0001
0010
0001
0000
0000
1000
0001
1000
,
0001
1000
0001
1000
0000
0000
0000
0000
,
0010
0100
0001
1000
,
0100
0010
0001
0010
,
0100
1000
0100
0010
,
0001
1000
0001
1000
,
0001
0010
0001
0000
1000
0000
0010
0000
,
1000
0010
0100
0001
,
0100
0001
0100
0000
0100
0000
0100
0000
,
0000
0100
0001
1000
,
0000
0000
0000
0000
1000
0000
0000
0000
0100
0010
0001
0000
1000
0000
0000
0000
,
0000
0000
0010
0000
,
0000
0100
0000
0001
,
0000
0000
0000
0010
,
0000
1000
0000
0010
,
0000
0000
0000
0000
,
0000
0010
0000
0001
,
0000
1000
0000
0100
,
0000
0010
0000
0000
,
0110
0000
0000
0000
,
0000
0000
0000
0000
,
0110
0000
0000
0000
,
0000
0000
0000
0000
,
0110
0000
0000
0000
,
0000
0000
0001
0000
,
0100
0000
0000
0000
,
0000
0010
1000
0000
,
0000
0010
0100
0001
,
1000
0000
0000
0100
,
0010
0000
0001
0000
0000
0010
0100
0000
,
1000
0000
0001
0100
,
0010
0000
0000
0000
1000
0001
1000
0000
,
0100
0010
0000
0002
,
0000
1003
0000
0010
,
0000
0000
0000
0000
0100
0000
0000
0001
0100
0000
0001
0000
1000
0000
0000
0000
,
0000
0100
0000
0001
,
0000
0010
0000
0100
1000
0000
0000
0000
,
0000
0100
0000
0001
,
0000
0000
0000
0100
,
0000
0001
0000
1000
,
0000
0000
0100
0000
,
0000
0000
0000
1000
,
0000
0100
0000
0010
,
0000
0000
0000
0001
,
0000
0000
0110
0000
,
0000
0000
0001
0000
,
0000
0000
0110
0000
,
0000
0000
1000
0000
,
0000
0000
0110
0000
;

//--------------- dance-single - ----------------
#NOTES:
     dance-single:
     :
     Easy:
     4:
     0,0,0,0,0:
0000
0000
0000
0000
,
0000
0000
0000
0000
,
0000
0000
0000
0000
,
0000
0000
0000
0000
,
0000
0000
0100
0000
,
1000
0000
0010
0100
,
0010
0000
0000
0000
,
1000
0000
0000
0001
0010
0000
0000
0000
,
0001
0000
1000
0000
,
0000
0000
0010
0100
,
0001
0000
0010
0000
,
0000
0000
0001
1000
,
0001
0000
0000
0000
,
0010
0000
0100
1000
,
0100
0000
1000
0000
,
0010
0000
0000
0100
,
0001
0000
1000
0001
2000
0000
0001
0000
,
3010
0000
0200
0000
1000
0000
2300
0000
3200
0000
0320
0000
0030
0000
0000
0001
,
2000
0020
3030
0100
0010
1000
0001
0000
,
0010
0100
1000
0000
1000
0000
0020
0000
,
1030
0200
2000
3300
0020
0000
1030
0000
,
1000
0000
0200
0000
0300
0000
0000
0000
0020
0000
0000
0000
0031
0000
0000
0100
,
0010
1000
1000
0100
,
0001
0010
0001
0020
0032
0203
0320
1030
,
0001
0010
0001
0000
2000
0000
0020
3000
,
0200
0030
0002
0300
0020
0003
0130
0000
,
2000
0001
3100
0000
0120
0000
1030
0000
,
0100
0010
0100
0000
0100
0000
0010
0000
,
0001
0000
0100
0000
0001
0000
0000
1000
0001
0000
0000
0000
0100
0000
0000
0000
,
0010
1000
0001
0000
0010
0000
0001
1000
,
0100
0010
0001
0000
0100
0000
0010
0000
,
1000
0000
0001
0000
0010
0000
0000
0000
0100
0000
0000
0000
1000
0000
0000
0010
,
0100
0001
0010
0000
0100
0000
1000
0000
,
0000
0000
0000
0000
0001
0000
0000
0000
0100
0000
0000
0000
0000
0000
0000
0000
0010
0000
1000
0000
0100
0000
0000
0010
0001
0000
1000
0000
0001
0000
1000
0000
,
0010
0000
0000
0100
,
0000
1000
0000
0001
,
0000
1000
0000
0100
,
0000
0010
0000
0001
,
0000
0000
0000
0001
,
0000
0100
0000
0010
,
0000
1000
0000
0001
,
0000
0100
0000
0000
,
1001
0000
0000
0000
,
0000
0010
0100
0000
,
1001
0000
0000
0000
,
0000
0100
0010
0000
,
1001
0000
0000
0000
,
0001
0100
0010
0000
,
1000
0000
0000
0000
0001
0000
0000
1000
,
0001
0000
1000
0000
0001
0000
0000
1000
,
0001
0000
0010
0000
0100
1000
0001
0000
,
1000
0000
0010
0000
0100
0000
0001
1000
,
0001
0000
0000
0000
1000
0000
0000
0100
0010
0000
0001
0000
1000
0000
0000
0000
,
0010
0000
0000
0000
1000
0000
0001
1000
,
0100
0000
0010
0100
1000
0001
0001
0000
,
0010
0100
0000
0010
,
0000
0000
0010
0000
0000
1000
0001
0000
,
0000
0000
0000
0000
0100
0000
0000
0100
0010
0000
0010
0000
1000
0000
0000
0000
,
0000
0000
1000
0000
0001
0100
0001
0000
,
1000
0100
0010
0000
0100
1000
0001
1000
0000
0000
0000
0000
0000
0000
0000
0000
,
0010
0000
0000
0100
,
0001
1000
0000
1000
,
0010
0000
0000
0000
,
0100
0000
0000
0000
,
0001
0000
0000
0000
,
0010
0000
0010
0000
,
0010
0000
0000
0100
,
0100
0000
0110
0000
,
0000
0000
0000
1000
,
0001
0100
0000
0000
,
0000
0001
0000
0000
,
0010
0100
0000
0000
;

//--------------- dance-single - ----------------
#NOTES:
     dance-single:
     :
     Medium:
     8:
     0,0,0,0,0:
0000
0000
0000
0000
,
0000
0000
0000
0000
,
0000
0000
0000
0000
,
0000
0000
0000
0000
,
0000
0000
0001
0100
,
0001
0000
0010
0001
0010
0001
1000
0000
,
0010
0000
1000
0010
1000
0000
0001
0000
,
0010
0000
0000
0100
1000
0000
0001
0000
,
0100
0000
0010
0000
,
1000
0000
0000
0100
1000
0000
0001
0000
,
1000
0000
0100
0000
1000
0001
0000
0000
,
0010
0000
0001
1000
0001
0000
1000
0000
,
0010
0000
0010
0000
0100
0000
0000
0100
,
0001
0000
0000
0001
1000
0100
1000
0000
,
1000
0000
0100
0010
,
0001
0000
1000
0010
0100
0000
0001
0000
,
0001
0000
0000
0000
1000
0000
0001
0000
0010
0000
0100
0000
1000
0000
0000
1000
,
0010
0000
0010
0000
0010
0000
0100
0000
0001
0000
0010
0000
0100
0000
1000
0001
,
1000
0001
1000
0001
0100
0001
0010
0000
0010
0000
0001
0000
0100
0000
0100
0010
,
1000
0100
1000
0000
0001
0100
0001
0000
0010
0000
0100
0000
1000
0000
0010
0100
,
0010
0000
1000
0010
1000
0100
1000
0000
0002
0000
0000
0000
0103
0000
0010
1000
,
0010
0100
0001
0000
0100
0000
0001
0000
0001
0000
1000
0000
0100
0000
1000
0010
,
1000
0010
1000
0000
0100
0000
0010
0000
0001
0000
0000
0000
0100
0000
0000
0010
,
1000
0000
0001
0000
0010
0000
0000
0000
0100
0000
1000
0010
0100
0000
0010
0100
,
0001
0000
1000
0000
0100
1000
0100
1000
0001
0000
1000
0000
0010
0000
0100
0010
,
1000
0000
0100
0000
1000
0001
1000
0000
0010
0000
0010
0100
0001
0000
0010
0001
,
0100
0000
0010
0000
1000
0100
1000
0001
2000
0000
0000
0000
3010
0000
0000
0100
,
0010
0000
1000
0000
0100
0000
0010
0001
1000
0000
0001
0000
0021
0000
0000
0000
,
0130
0000
2000
0000
3001
0000
0010
0001
1000
0000
0010
0000
0010
0000
0001
0010
,
0100
1000
0001
0000
0200
0000
0000
0000
0310
0000
0000
1000
0001
0000
0010
0000
,
0001
0000
0010
0000
0100
0000
1000
0001
0010
0000
0100
0000
2000
0000
0000
3100
,
0010
0000
0001
0000
1000
0000
1000
0000
0100
0010
0000
0000
0010
0000
0000
0001
,
1000
0010
0100
0001
0102
0000
0003
0000
,
0100
0000
0000
0000
0010
0000
0000
0000
1000
0000
0000
0000
0001
0000
0000
0000
0010
0000
0100
0000
1000
0010
0100
0001
0020
0000
0130
0000
1000
0000
1000
0010
,
0200
0000
0300
0002
,
0000
0013
0000
0020
,
0030
0000
0012
0000
0003
0100
0010
0000
,
0000
2100
0000
3200
,
0000
0300
0020
0000
,
0031
0100
0002
0000
,
0013
0000
0000
0000
0100
1000
0001
0000
2000
0000
0000
0000
3100
0000
0010
0000
,
0100
1000
0010
0010
,
0101
0010
0000
1000
,
0001
0011
0000
0010
,
0000
0100
0000
0100
,
0000
1000
0000
1000
,
0000
0000
0000
0000
0010
0000
0000
0010
,
0100
0001
0010
0000
0001
0000
0001
0100
,
0010
0000
0000
0000
1000
0000
1000
0100
,
1000
0000
1000
0000
0010
0000
0010
0001
,
1000
0000
0001
1000
0010
0000
2000
0000
3020
0000
1030
0001
0020
0000
0000
0000
,
0032
0000
0000
0000
2003
0000
3020
0000
0230
0000
0000
0000
0302
0000
0013
1000
,
0010
0000
0000
0001
0200
0000
0301
1000
0001
0000
0200
0000
0320
0000
2030
0000
,
3001
0000
0100
0000
0010
0000
1000
0001
0020
0000
0230
0000
0300
1000
0001
0100
,
0010
1000
0001
0000
0010
0000
0100
0000
1000
0000
0001
0000
1000
0000
0010
0000
,
0200
0301
0020
0000
0030
0100
1000
0000
,
0002
0000
0203
0000
0300
1000
0200
0000
,
0320
0000
0000
0000
0032
0000
0103
0010
0100
0000
0100
0000
1100
0000
0000
0000
,
1001
0000
0000
0001
0010
0000
0000
0000
0110
0000
0010
0000
0012
0000
0003
0000
,
1000
0000
0010
0000
0100
0001
0000
0000
0010
0000
0100
0000
1000
0010
1000
0001
0010
0000
0000
0000
0000
0000
0000
0000
1100
0000
0000
0000
0000
0000
0000
0000
,
1000
0000
0000
0001
0100
0000
0110
0000
,
0010
2000
3001
1000
,
1100
0000
0010
0100
,
0001
1000
0001
0000
,
0100
0000
0000
0110
,
1001
0000
1000
0000
,
0100
0000
0011
1000
,
1000
1000
1100
0000
,
0011
0000
0100
1000
,
0001
1001
0010
1100
,
0101
0000
0000
0001
0010
0000
0100
0000
,
1000
1001
0000
0000
;

//--------------- dance-single - ----------------
#NOTES:
     dance-single:
     :
     Hard:
     10:
     0,0,0,0,0:
0000
0000
0000
0000
,
0000
0000
0000
0000
,
0000
0000
0000
0000
,
0000
0000
0000
0000
,
0000
0000
0000
0000
0001
0000
0100
0001
,
0100
0010
0100
0001
1000
0100
0010
0001
,
0010
0001
0100
0010
1000
0001
1000
0010
,
0100
0000
1000
0001
0010
0001
1000
0000
,
0010
0100
0001
1000
0100
0000
1000
0000
,
0001
0100
0001
1000
0100
0000
0010
0000
,
0001
0100
0010
1000
0001
0010
0001
0100
,
0010
1000
0001
1000
0100
0010
0001
0000
,
1000
0001
0100
0000
0001
0000
0010
0000
0100
0000
1000
0000
0010
0000
1000
0000
,
0200
0000
0310
0001
1000
0100
1000
0001
,
0010
0000
0100
0010
0001
0000
1000
0010
,
0100
0000
0010
1000
0001
0000
0010
0000
,
0100
0000
1000
0000
0010
0000
0100
0000
0001
0000
1000
0001
0010
0000
0001
0100
,
0010
0000
1000
0001
0010
0001
1000
0000
0100
0000
1000
0010
1000
0000
0001
0100
,
0010
0100
0001
1000
0100
1000
0001
0100
0010
0000
1000
0000
1001
0000
1000
0001
,
0010
0001
1000
0010
0100
0010
0100
0001
0100
0000
0010
1000
0001
0000
0010
0001
,
1000
0010
1000
0010
0100
0001
0010
0000
0100
1000
0000
0001
0100
0000
0010
1000
,
0100
1000
0010
0100
0001
0010
0100
0000
1000
0000
0001
0100
0010
0000
1000
0100
,
0010
0001
1000
0000
0010
0100
0001
0010
0002
0000
0000
0000
0003
1000
0100
1000
,
0100
0000
1000
0000
0001
0100
0000
0000
0001
0000
0010
0000
0001
0000
0010
0000
0001
0000
1000
0000
0001
0000
0010
0000
0100
0000
0010
0000
0001
0000
0010
0000
,
0100
0000
1000
0000
0100
0000
1000
0000
0100
0000
1000
0000
0001
0000
1000
0000
0010
0000
1000
0010
1000
0000
0000
0000
0010
0000
0000
0000
1000
0000
0010
0000
,
1000
0001
0100
0001
0100
0001
1000
0000
0100
0000
0010
0100
0010
0000
0001
1000
,
0010
0100
0001
0100
0001
1000
0010
0100
0001
0000
1001
0000
1000
0100
0010
0100
,
1000
0000
0010
0000
0100
0000
0001
0000
1000
0000
0100
1000
0010
0000
0100
0000
0001
0000
0000
0000
1000
0000
0000
0000
0001
0000
0000
0000
0000
0000
0100
0000
,
0010
0000
0000
0000
1000
0000
0000
0000
0001
0000
0010
0000
0001
0000
0010
0000
0100
0000
1000
0000
0001
0000
0000
0000
0100
0000
0010
1000
0001
0000
1000
0000
,
0100
0000
0010
0000
0100
0000
0000
0000
1000
0000
0010
0000
0100
0000
0001
0000
0010
0000
0000
0000
0100
0000
1000
0000
0001
0000
0000
0100
0001
0000
0010
0000
,
0100
0000
1000
0000
0010
1000
0001
0010
0100
0000
0010
0001
2000
0000
0000
3010
,
0100
0000
0001
0000
0010
0100
1000
0010
0100
0010
1000
0000
0001
1000
0100
0010
,
0100
0000
1000
0000
0001
0000
0000
0000
0100
0000
0010
0000
1000
0000
0010
0000
1000
0000
0001
0000
0000
0000
0010
0000
0001
0000
0010
0000
0001
0000
1000
0001
,
0100
0000
0000
0000
0010
0000
0000
0000
1000
0000
0000
0000
0100
0000
0000
0000
0010
0000
0001
0000
1000
0100
1000
0100
0010
0000
0001
0100
0010
1000
0100
0010
,
0200
0000
0300
0000
0020
0000
0000
1030
,
0002
0000
0103
0000
0010
0000
0001
1000
,
0010
0100
0002
0000
1003
0100
0010
0001
,
1000
0001
0100
0000
0001
0000
2000
0000
,
3001
0000
0020
0000
0230
0000
0000
1300
,
0100
0010
0002
2003
,
3010
0000
0000
0000
0100
0001
0010
0000
0100
0000
1000
0000
0001
0000
0100
0000
,
0001
0000
0000
0000
0010
0000
0000
0000
0100
0000
1000
0001
0200
0000
0000
0000
,
0310
0000
1000
0001
1000
0000
0001
1000
,
0002
0000
1003
0000
0100
1000
0001
0000
,
1000
0000
0001
0100
0020
0000
0000
1030
,
0200
0000
0310
0000
,
0002
0000
0000
0000
0103
0000
0010
1000
,
0010
1000
0020
0000
0030
1000
0001
0010
,
0100
0000
0000
0000
1000
0000
0100
0000
1000
0000
0001
0010
0001
0000
1000
0000
,
0010
0000
1000
0000
0002
0000
0000
0000
1003
0000
0001
0000
1000
0000
0001
1000
,
0001
0000
0010
0000
0100
0000
1000
0001
0100
0000
0001
0000
1000
0000
0010
0000
0100
0000
0001
0000
0100
0000
0010
0000
1000
0000
0000
0000
1000
0000
0100
0000
,
1000
0000
0010
0000
0100
0000
0001
1000
0010
0100
0000
0010
1000
0000
0100
0010
,
0100
0000
0000
0000
0000
0000
0010
0000
0000
0100
0000
0000
1000
0000
0000
0000
0000
0000
0010
0000
0000
0100
0000
0000
0001
0000
0000
0010
0000
0000
0100
0000
0000
0000
0000
0000
1000
0000
0010
0000
0100
0000
0010
0000
0000
0000
0000
0000
,
0100
0000
0000
0000
0000
0000
0001
0000
0000
0000
1000
0000
0001
0000
0000
0000
0000
0000
0010
0000
0001
0000
1000
0000
0010
0000
0000
0000
1000
0000
0100
0000
0000
0000
0000
0000
0010
0000
0000
0100
0000
0000
1000
0000
0000
0001
0000
0000
,
0100
0001
1000
0010
0100
0000
0100
0001
1000
0000
0002
0000
0013
0100
1000
0100
,
1000
0000
0001
0000
0100
0000
0010
0000
2000
0000
0000
0000
0000
0000
3001
0000
0010
0000
0100
0000
0010
0000
0001
0000
1000
0010
0100
0000
0001
0000
1000
0000
,
0100
0000
0010
0000
0000
0000
0001
0000
0100
0000
0000
0000
0000
0000
0010
0000
1000
0000
0000
0000
0002
0000
0000
0000
1003
0000
0010
1000
0020
0000
0000
0000
,
2030
0000
3000
0010
0100
0001
0100
0010
0100
0001
0010
0001
1000
0000
0101
0000
,
0110
0000
0100
0010
1000
0002
0000
0000
1003
0010
0100
0010
2000
0000
3001
0000
,
1000
0000
0200
0000
1300
0010
0100
0001
0010
0001
0100
0010
1000
0001
1000
0100
0020
0000
0000
0000
0030
0000
0000
0000
0001
0000
0000
0000
0000
0000
0000
0000
,
0200
0000
0000
0310
1000
0000
0100
0000
,
0010
0100
1000
0001
1000
0010
0100
0001
,
0200
0302
0003
0010
,
0010
0000
0100
1000
0002
0000
0013
0000
,
1000
0010
0100
0020
0000
0000
0030
0000
,
1000
0000
0001
0000
0010
0100
1000
0000
,
0010
0000
0100
0000
0000
0000
0001
0000
1000
0000
0100
0010
0100
0000
0000
0000
,
2000
0000
3000
0100
0010
0000
0002
0000
,
2003
0000
0000
0000
0000
0000
3010
0100
0001
0000
0000
0000
1000
0000
0000
0000
,
0020
0230
0302
1003
,
0100
0010
0001
1000
0010
0000
1010
0000
,
1000
1001
0000
0000
;
