#TITLE:Wily Stage 1;
#SUBTITLE:Mega Man 2;
#ARTIST:Yuukichan's papa;
#TITLETRANSLIT:;
#SUBTITLETRANSLIT:;
#ARTISTTRANSLIT:;
#CREDIT:;
#BANNER:;
#BACKGROUND:;
#LYRICSPATH:;
#CDTITLE:;
#MUSIC:wily1.mp3;
#OFFSET:0.000;
#SAMPLESTART:42.906;
#SAMPLELENGTH:12.000;
#SELECTABLE:YES;
#BPMS:0.000=180.300;
#STOPS:;
#BGCHANGES:;

//---------------dance-single - ----------------
#NOTES:
     dance-single:
     :
     Hard:
     8:
     0.694,0.712,0.569,0.436,0.151: // measure 1
1000
0000
0100
0010
0100
0000
0001
1000
0001
0000
0100
0000
0000
0000
0001
0010
,  // measure 2
0001
0000
1000
0100
1000
0000
0010
0000
0000
0000
1000
0000
0100
0000
1100
0000
,  // measure 3
0000
0000
0001
0010
0100
0000
1000
0100
0010
0000
0001
0000
0000
0000
1100
0000
,  // measure 4
0000
0110
0000
0011
0000
1001
0000
0000
,  // measure 5
0000
0000
0100
0001
1000
0000
0010
0100
0001
0000
1000
0000
0000
0000
0110
0000
,  // measure 6
0000
0011
0000
1100
0000
0011
0000
1101
,  // measure 7
0000
1000
0100
0001
0110
0000
0000
0001
,  // measure 8
0000
1000
0100
0001
0110
0000
1000
0001
,  // measure 9
0000
0000
0001
0010
0001
0000
1000
0100
1000
0000
0001
0000
0000
0000
1000
0010
,  // measure 10
1000
0000
0100
0001
0100
0000
0010
0000
0000
0000
0100
0000
0001
0000
0101
0000
,  // measure 11
0000
0000
1000
0010
0001
0000
0100
0001
0010
0000
1000
0000
0000
0000
0101
0000
,  // measure 12
0000
0011
0000
1010
0000
1100
0000
0000
,  // measure 13
0000
0000
0001
1000
0100
0000
0010
0001
1000
0000
0100
0000
0000
0000
0101
0000
,  // measure 14
0000
1010
0000
0011
0000
1100
0000
0110
,  // measure 15
0000
0100
0010
0001
1000
0000
0000
1001
,  // measure 16
0000
0010
1000
0100
0001
0000
0100
0002
,  // measure 17
0000
0000
0000
0000
0000
0003
0010
0001
,  // measure 18
0000
0100
0000
1000
0000
0001
0000
0000
,  // measure 19
0020
0000
0000
0030
1000
0100
0000
0000
,  // measure 20
0010
0001
0100
1000
0000
0100
0010
0100
,  // measure 21
2002
0000
0000
0000
0000
3003
0010
0001
,  // measure 22
0000
1000
0000
0100
0000
0010
0000
2000
,  // measure 23
0000
0000
0000
3000
0100
0010
0001
0100
,  // measure 24
0000
1000
0100
0010
0001
0000
0000
0000
,  // measure 25
2000
0010
0001
0010
0001
3000
0100
0020
,  // measure 26
0030
0002
0003
0020
0030
0200
0300
2000
,  // measure 27
0000
0010
0100
0010
3100
0000
0001
0020
,  // measure 28
0030
0200
0300
2000
3000
0002
0003
0020
,  // measure 29
0000
0000
0100
1000
0100
0000
0030
0000
0100
0000
0001
0000
0010
0000
0200
0000
,  // measure 30
0000
0000
1000
0000
0000
0000
0001
0000
0000
0000
1000
0000
0000
0300
0100
0000
,  // measure 31
0000
0100
0001
0100
0010
0000
0000
0011
,  // measure 32
0000
1000
0010
1000
0100
0000
0110
0220
,  // measure 33
0000
0000
0000
0330
0100
0000
0001
0010
,  // measure 34
0000
2200
0000
3300
0100
0001
0010
1000
,  // measure 35
0202
0000
0000
0303
1000
0000
0100
0010
,  // measure 36
0000
0220
0000
0330
0001
0100
1000
0000
,  // measure 37
0022
0000
0000
0033
1000
0100
0010
0200
,  // measure 38
0000
0300
0010
0000
0100
0000
0010
0000
,  // measure 39
1000
0100
1000
0020
0000
0000
0030
1100
,  // measure 40
0000
0100
0010
0001
0010
0000
1100
2200
,  // measure 41
0000
0000
0000
0000
0000
3300
0100
0010
,  // measure 42
0000
0010
0000
0010
0000
0010
0000
0000
,  // measure 43
0200
0000
0000
0300
0010
0010
0000
0000
,  // measure 44
0010
0100
0001
0010
0000
0100
1000
0010
,  // measure 45
0002
0000
0000
0000
0000
0003
0010
1000
,  // measure 46
0000
0100
0000
0010
0000
0100
0000
0022
,  // measure 47
0000
0000
0000
0033
0010
1000
0010
0001
,  // measure 48
0000
0100
0001
0010
1000
0000
0000
0001
,  // measure 49
0000
0100
0010
1000
0100
0000
0010
1000
,  // measure 50
0000
0001
0000
1000
0000
0001
0000
1010
,  // measure 51
0000
0001
0001
0000
0001
0000
0000
1010
,  // measure 52
0000
0100
0100
0000
0100
0000
0100
0010
,  // measure 53
0000
0001
1000
0010
0001
0000
0010
0010
,  // measure 54
0000
0100
0000
1000
0000
0100
0000
0000
,  // measure 55
0100
0001
0010
0200
0000
0000
0000
0300
,  // measure 56
0000
0M00
00M0
0000
000M
M000
0M00
0000
,  // measure 57
0010
0000
0010
1000
0100
0000
1000
0100
1000
0000
0001
0000
0000
0000
0100
0001
,  // measure 58
0100
0000
1000
0001
1000
0000
0100
0000
0000
0000
1000
0000
0001
0000
0110
0000
,  // measure 59
0000
0000
0010
0100
0010
0000
0010
1000
0100
0000
1000
0000
0000
0000
0101
0000
,  // measure 60
0000
1001
0000
0101
0000
0011
0000
0000
,  // measure 61
0000
0000
1000
0001
0100
0000
1000
0001
0100
0000
0001
0000
0000
0000
0110
0000
,  // measure 62
0000
0011
0000
0011
0000
0011
0000
1111
;
