#TITLE:Turn It Up;
#SUBTITLE:Theme of Scotty 2 Hotty;
#ARTIST:Jim Johnston;
#TITLETRANSLIT:;
#SUBTITLETRANSLIT:;
#ARTISTTRANSLIT:;
#CREDIT:;
#BANNER:;
#BACKGROUND:;
#LYRICSPATH:;
#CDTITLE:;
#MUSIC:Turn It Up.mp3;
#OFFSET:0.660;
#SAMPLESTART:100.000;
#SAMPLELENGTH:12.000;
#SELECTABLE:YES;
#BPMS:0.000=102.760,64.000=205.520,72.000=102.760,196.000=205.520,204.000=102.760;
#STOPS:;
#BGCHANGES:;

//---------------dance-single - ----------------
#NOTES:
     dance-single:
     :
     Challenge:
     9:
     0.548,0.592,0.174,0.118,0.574: // measure 1
0000
0000
0000
0000
,  // measure 2
0010
0010
1000
1000
0010
0010
1000
1000
,  // measure 3
1000
0000
0000
0000
0000
0000
0100
0000
0000
0000
0000
0000
0000
0000
0000
0000
0010
0000
0000
0000
0000
1000
0000
0000
0001
0000
0000
0000
0000
0000
1000
0000
0000
0000
0000
0000
0100
0000
0000
0000
0000
0000
0000
0000
0000
0000
0000
0000
,  // measure 4
1000
1000
0010
0010
1000
1000
0010
0010
,  // measure 5
0220
0330
0000
0000
0000
0000
0000
0000
,  // measure 6
0100
0000
1000
0000
0010
0001
0000
1000
0100
1000
0000
0001
0010
0000
0000
0000
,  // measure 7
1000
0000
0100
0000
0010
0001
0000
0100
1000
0100
0000
0001
0010
0000
0000
0000
,  // measure 8
0100
0000
1000
0000
0010
1000
0000
0001
0100
0001
0000
0010
1000
0000
0000
0000
,  // measure 9
0100
0000
1000
0000
0010
0001
0000
0000
0000
1000
0100
0001
0000
0000
0000
0000
,  // measure 10
0100
1000
0100
0000
0010
0001
0000
0001
1000
0001
0100
0000
0101
0000
0000
0000
,  // measure 11
0100
1000
0100
0000
0010
0001
0000
0001
1000
0001
0100
0000
0101
0000
0010
0100
,  // measure 12
1000
0010
0001
0000
0010
0001
0000
0001
0100
0001
1000
0000
1001
0000
0000
0000
,  // measure 13
1000
1000
0001
0001
1000
1000
0001
0001
,  // measure 14
1000
0100
0001
0000
0001
0000
0100
1000
0200
0000
0000
0000
0000
0000
0300
0000
,  // measure 15
1000
0001
1000
0000
0010
0000
1000
0010
2000
0000
0000
0000
0000
0000
3000
0000
,  // measure 16
0100
0010
0001
0000
0010
0100
1000
0000
1000
0100
0010
0000
0001
0010
0100
0000
,  // measure 17
0100
0000
1000
0000
1000
0000
1000
0000
2000
0000
0000
0000
,  // measure 18
0000
0000
0000
0000
,  // measure 19
3100
0000
0010
0000
0001
1000
0000
0100
0010
1000
0100
0000
0010
0000
0100
0000
,  // measure 20
0100
0000
0010
0000
0010
0100
0000
1000
0010
0100
0001
0000
0001
0000
0100
0010
,  // measure 21
0001
0000
0010
0000
0010
0100
0001
0010
1000
0100
1000
0000
0001
0000
0000
0000
,  // measure 22
0100
1000
1100
0100
0010
0100
0110
0000
,  // measure 23
0001
0010
1000
0000
0100
1000
0000
0010
0001
0010
0000
0000
0000
0000
0000
0000
,  // measure 24
0100
1000
0100
0000
0010
0100
0000
1000
0001
1000
0000
0000
0000
0000
1000
0100
,  // measure 25
0001
0010
0100
0000
1000
0100
0000
1000
0010
1000
0000
0000
0000
0000
0000
0000
,  // measure 26
0010
0000
0010
0100
0010
0000
1000
0100
1000
0010
1000
0000
0100
0001
0100
0000
,  // measure 27
1000
0210
0301
0000
1020
0130
0000
0201
,  // measure 28
1300
0000
0012
0000
1003
0000
0000
0000
1200
0000
0310
0000
0000
0100
1000
0001
,  // measure 29
0000
0210
1300
0000
0120
0031
0000
0102
,  // measure 30
1003
0210
0301
0000
0000
1200
1300
0120
,  // measure 31
0130
0000
0000
0000
0000
0000
0100
0000
0000
0000
0000
1000
0010
0000
0100
0001
0000
0000
1000
0000
0000
0000
0000
0000
,  // measure 32
1000
0000
0000
0000
0000
0000
0010
0000
0000
0000
0000
0001
0010
0000
0001
0010
0000
0000
0100
0000
0000
1000
0100
0010
,  // measure 33
0001
0000
0000
0000
0000
0000
0010
0000
0000
0000
0000
0010
0001
0000
1000
0010
0000
0000
0001
0000
0000
0000
0000
0000
,  // measure 34
0100
0000
0100
0000
1000
0000
0100
0010
0001
0010
0100
1000
0100
0010
0001
0000
,  // measure 35
1000
0000
0001
0000
1000
0001
0010
0100
0001
1000
0000
0000
0000
0000
0000
0001
,  // measure 36
0010
0000
0100
0000
0001
1000
0100
0010
1000
0001
0000
0000
0000
0000
0100
0010
,  // measure 37
0100
0000
1000
0000
0100
0001
0010
0100
0001
0100
1000
0000
0000
0000
0000
0000
,  // measure 38
1000
0100
0000
0010
0000
1000
0001
0000
,  // measure 39
0100
1000
0100
0000
0010
1000
0010
0100
0001
1000
0100
0000
1100
0000
0000
0010
,  // measure 40
0001
0010
1000
0000
0100
1000
0100
0001
0010
1000
0100
0000
1100
0000
0010
0001
,  // measure 41
0010
0100
0010
0000
1000
0010
0100
1000
0001
1000
0100
0000
1100
0000
0000
0000
,  // measure 42
0200
0000
0310
0000
1000
0100
0000
0010
1000
0100
0010
0000
0000
0000
0000
0000
,  // measure 43
0010
0100
1000
0000
0001
1000
0100
0001
0010
1000
0100
0000
1100
0000
0000
0100
,  // measure 44
1000
0010
1000
0000
0010
1000
0100
0010
0100
0010
0001
0000
1100
0000
1000
0100
,  // measure 45
0010
0001
0010
0000
0100
0001
0100
0001
1000
0100
1000
0000
1100
0000
0000
0000
,  // measure 46
0001
0001
0010
0010
0001
0001
0010
0010
,  // measure 47
0100
1000
0010
0000
0100
0000
0001
0100
2000
0000
0010
0000
0001
0000
3000
0000
,  // measure 48
1000
0100
0010
0000
0001
0000
0100
0001
0200
0000
1000
0000
0010
0000
0300
0000
,  // measure 49
0010
0001
1000
0000
0100
1000
0001
0000
0010
0001
1000
0000
0100
1000
0001
0000
,  // measure 50
0110
0000
1100
0000
1100
0000
1100
0000
2100
0000
0000
0000
,  // measure 51
0000
0000
0000
0000
,  // measure 52
3000
0000
0001
0000
1000
0010
0000
0001
1000
0001
0010
0000
1000
0000
1000
0000
,  // measure 53
0100
0000
0010
0000
0001
1000
0000
0100
1000
0010
0100
0000
1000
0000
0100
0001
,  // measure 54
0100
0000
1000
0000
0100
1000
0010
1000
0010
0100
1000
0000
0010
0000
0000
0000
,  // measure 55
1000
0100
0110
0010
0011
0010
0110
0000
,  // measure 56
0001
0100
0001
0000
0100
0010
0000
0100
0001
0010
0000
0000
0000
0000
0000
0000
,  // measure 57
0001
0010
0001
0000
0100
1000
0000
0100
0010
1000
0000
0000
0000
0000
0100
0001
,  // measure 58
0100
1000
0100
0000
1000
0010
0000
0100
0010
0100
0000
0000
0000
0000
0000
0000
,  // measure 59
0001
0100
0000
1000
0100
0001
0000
0100
0010
1000
0000
0000
0000
0000
0000
0000
,  // measure 60
0100
0000
0000
0000
0000
0100
1000
0000
0000
0000
0000
0000
0100
0000
0000
0000
0000
0000
0010
0000
0000
0000
0000
0100
1000
0000
0000
0000
0000
0000
0010
0000
0000
0000
0000
0000
0001
0000
0000
0000
0000
0100
1000
0000
0000
0000
0000
0000
,  // measure 61
1000
0000
0000
0000
0000
1000
0010
0000
0000
0000
0000
0000
1000
0000
0000
0000
0000
0000
0100
0000
0000
0000
0000
1000
0010
0000
0000
0000
0000
0000
0100
0000
0000
0000
0000
0000
0001
0000
0000
0100
0000
0000
0010
0000
0000
0001
0000
0000
,  // measure 62
0100
0000
0000
0000
0000
0100
1000
0000
0000
0000
0000
0000
0100
0000
0000
0000
0000
0000
0010
0000
0000
0000
0000
0100
1000
0000
0000
0000
0000
0000
0010
0000
0000
0000
0000
0000
0001
0000
0000
0000
0000
0100
1000
0000
0000
0000
0000
0000
,  // measure 63
1000
0000
0000
0000
0000
1000
0010
0000
0000
0000
0000
0000
1000
0000
0000
0000
0000
0000
0100
0000
0000
0000
0000
0000
1000
0000
0000
0000
0000
1000
0010
0000
0000
0000
0000
0000
0001
0000
0000
0000
0000
1000
0010
0000
0000
0000
0000
0000
,  // measure 64
1000
0000
0000
0000
0000
0000
0010
0000
0000
0000
0000
0001
0010
0000
0001
0010
0000
0000
0100
0000
0000
0000
0000
0000
,  // measure 65
1000
0000
0000
0000
0000
0000
0100
0000
0000
0000
0000
0010
0100
0000
0100
0001
0000
0000
0100
0000
0000
0001
0010
1000
,  // measure 66
0001
0000
0000
0000
0000
0000
0100
0000
0000
0000
0000
0010
0100
0000
1000
0001
0000
0000
0001
0000
0000
0000
0000
0000
,  // measure 67
0010
0000
0001
0000
0100
0000
0001
0100
0001
0100
0001
1000
0010
1000
0010
0000
,  // measure 68
0100
0000
0000
0000
0001
0000
0000
1000
0000
0000
1000
0000
0001
0000
0000
0000
,  // measure 69
0100
0000
0000
0000
0010
0000
0000
0100
0000
0000
0100
0000
0010
0000
0000
0000
,  // measure 70
1000
0000
0000
0000
0001
0000
0000
0100
0000
0000
0100
0000
0001
0000
0000
0000
,  // measure 71
0010
0001
0000
1000
0000
0001
0100
0000
,  // measure 72
0001
0000
1000
0000
1000
0100
0000
0010
0100
0010
0100
0000
0001
0000
0000
1000
,  // measure 73
0100
0000
0010
0000
1000
0001
0000
0010
0001
1000
0010
0000
1000
0000
0010
0001
,  // measure 74
0100
0000
0010
0000
0100
1000
0010
0100
1000
0010
0100
0000
0100
0000
0000
0000
,  // measure 75
0001
0000
1000
0000
0100
1000
0000
0010
1000
0001
0000
0000
0000
0000
0000
0000
,  // measure 76
0200
0000
0300
0000
;
