#TITLE:Today;
#SUBTITLE:;
#ARTIST:Jils;
#TITLETRANSLIT:;
#SUBTITLETRANSLIT:;
#ARTISTTRANSLIT:;
#GENRE:;
#CREDIT:;
#MUSIC:Today.mp3;
#BANNER:Today.png;
#BACKGROUND:Today-bg.png;
#CDTITLE:;
#SAMPLESTART:72.547;
#SAMPLELENGTH:15.028;
#SELECTABLE:YES;
#OFFSET:-0.488;
#BPMS:0.000=149.028
,138.500=149.278
,147.500=149.028
,177.000=149.528
,178.500=149.028
,208.000=149.278
,211.500=149.028
;
#STOPS:;
#DISPLAYBPM:149.028;
#BGCHANGES:;
#FGCHANGES:;

//--------------- dance-single - ----------------
#NOTES:
     dance-single:
     :
     Medium:
     5:
     0,0,0,0,0:
0000
0000
0000
0000
,
0000
0000
0000
0000
,
0000
0000
0000
0000
,
0000
0000
0000
0000
,
0000
0011
0000
0000
,
0000
0000
1100
0000
0000
0000
0000
0001
,
0000
0011
0000
0100
0000
0000
0000
0000
,
0000
0000
0000
0000
0110
0000
0000
0000
0000
0000
0000
0000
0010
0000
0000
2010
,
0000
3200
0320
0000
0000
0000
0030
0000
,
0000
0000
1001
0000
0000
0000
0000
0002
,
0000
2003
0000
3020
0000
0030
0200
0000
,
0302
0000
0023
0000
0000
0030
0110
0200
,
0000
0000
0000
0300
2000
0000
0000
0000
,
3002
0000
0000
0000
1003
0000
0001
2000
,
0000
3010
0000
0100
,
0000
0000
0010
0001
0000
1000
0100
0000
,
0000
0200
0000
0000
,
0000
0000
0000
0000
0300
0000
0000
1000
,
0000
0010
0000
0000
0000
1010
0000
0000
,
0000
0100
0000
0010
0000
0001
0000
0000
,
0100
0002
0000
0023
,
0000
0230
0000
0300
,
0000
2000
0000
3200
,
0000
0000
0301
0000
0000
1000
0000
2000
,
0000
0000
3000
0001
0000
0100
0000
0010
,
0000
0200
0000
0000
0000
0300
0010
1000
,
0000
0001
0000
0000
0020
0000
0000
0030
,
0100
1000
0010
0000
0000
0100
0001
0000
,
0000
0000
2000
0000
0000
3100
0010
0100
,
0010
0001
0000
0001
0000
0001
0000
0100
,
0001
1000
0000
0100
1000
0100
0010
0001
,
0000
1001
0000
1000
0001
1000
0010
0100
,
0000
0101
0000
0001
0000
0001
1000
0100
,
0000
0010
0000
0010
0000
0001
1000
0001
,
1000
0000
0010
0100
0000
0000
0010
0000
0000
0000
1000
0000
0000
0000
0001
0000
,
0000
0000
0010
0000
0000
0000
0100
0000
0000
0000
1000
0000
0010
0000
0000
1000
,
0000
0100
0000
0000
0000
0001
0000
0100
,
0000
0010
0000
1000
0000
0100
0000
0010
,
0001
0100
0000
0010
0000
1000
0001
1000
,
0000
0100
0000
0010
0001
0000
0000
1000
,
0000
0010
0000
0100
0000
0001
1000
0100
,
0000
0010
0100
0010
0001
1000
0001
0200
,
0000
0320
0000
0000
,
0030
0000
1000
0001
0020
0000
0000
0000
,
0000
0030
0100
0000
0000
0000
0000
0000
,
0000
1000
0001
0000
0000
1000
0000
0010
,
0000
0000
0000
0000
0100
0000
0000
0001
,
0000
0010
0000
0000
0000
0000
0100
0000
,
0000
0000
0000
1000
0000
0000
0000
0001
,
1000
0110
0000
0000
,
0000
1001
0000
0000
0000
0000
0000
0001
,
0010
1100
0000
0000
,
0010
0110
0000
0100
0000
0000
0000
0000
,
0000
0010
0000
0000
,
0000
1000
0001
0010
0000
0000
0000
0100
,
0000
1000
0000
0000
0000
0001
0010
0000
,
0000
0000
0110
0000
0000
0100
1000
0100
,
0000
0010
0000
0100
0000
1000
0000
0000
,
0000
0001
0000
0000
,
0000
1000
1001
0001
;

//--------------- dance-single - ----------------
#NOTES:
     dance-single:
     :
     Hard:
     8:
     0,0,0,0,0:
0000
0000
0000
0000
,
0000
0000
0000
0000
,
0000
0000
0000
0000
,
0000
0000
0000
0000
,
0000
0100
0000
0001
0000
1000
0000
0100
,
0000
0010
0000
0001
0000
1000
0000
0010
,
0000
0000
1000
0000
0000
0000
0100
0000
0000
0010
0001
0000
0000
0000
0000
0000
,
0000
1000
0001
1000
0000
0010
0100
0000
,
0001
0000
0000
0010
0100
0000
1000
0000
0000
0010
0100
0000
0010
0000
1000
0000
,
0001
0000
0010
0000
0100
0000
0000
0000
1000
0001
0100
0000
0010
0000
1000
0001
,
0000
0010
0100
0000
0000
0000
1000
0000
0000
0000
0001
0000
0000
0000
0100
0000
,
0010
0000
0100
0000
0001
0000
0000
0000
1000
0000
0010
0000
0100
0000
0001
1000
,
0010
1000
0100
0010
0000
0001
0000
1000
,
0000
0010
0000
0100
0000
0010
1000
0001
,
0010
0000
0001
0000
1000
0000
0000
0000
0010
1000
0000
0100
0000
0010
0001
0000
,
0100
0001
0010
0100
1000
0010
1000
0000
,
0001
0000
0010
0100
1000
0000
1001
0000
0000
0000
0000
0000
0000
0000
0001
0000
,
0000
0000
0000
0101
0000
1010
0000
0110
,
0000
0001
0100
0000
0000
0000
0101
0000
0000
0001
0010
0000
0000
0000
1001
0000
,
0000
0000
0010
0000
0000
0000
1001
0000
0000
0000
1000
0000
0000
0000
0000
1000
,
0010
0000
1000
0001
0000
0000
0000
0000
0000
0000
0000
0000
0000
0000
0100
0000
,
0001
1000
0001
0000
1000
0000
1100
0000
0000
0000
0110
0000
0000
0000
1000
0000
,
0000
0001
0100
0000
0010
0000
0000
0000
1000
0010
0000
0000
1000
0000
0000
0000
,
0110
0000
0000
0000
0000
0000
0000
0000
0100
0001
0000
0100
0000
1000
0010
0000
,
0000
0100
0000
0001
1000
0100
0000
1000
,
0010
0100
0000
0001
0000
0010
0100
1000
,
0100
0000
1000
0000
0001
0100
0001
0000
0000
0010
0001
0000
0010
0000
0100
0000
,
1000
0010
1000
0000
0100
0000
0010
0000
0000
0000
0001
0000
1000
0000
0000
0000
,
0000
0000
0001
0100
0000
0000
0001
0000
0000
0000
1000
0000
0001
0000
0010
0000
,
0001
0010
0001
0000
0100
0000
0010
0000
0000
0000
1000
0000
0010
0000
1000
0000
,
0001
0000
0010
0001
1000
0000
0001
0000
0100
0001
1000
0000
0001
0000
1000
0000
,
0001
0000
0100
0000
0010
0000
1000
0000
0100
0000
1000
0000
0100
0000
0010
0001
,
0000
0000
1000
0000
0000
0000
0001
0000
0000
0100
0010
0000
0100
0000
0010
0000
,
1000
0000
0001
0000
0000
0000
0010
0000
0000
0000
0100
0000
1000
0000
0010
0100
,
0001
0000
0100
0010
0000
0000
1000
0000
0000
0000
0001
0000
0000
0000
0010
0000
,
0100
0000
0010
0000
0000
0000
0001
0000
0000
0000
1000
0000
0010
0000
0100
0001
,
0000
0000
0100
0010
0000
0000
1000
0000
0000
0000
0100
0000
0010
0000
0100
0000
,
0000
1000
0000
0001
0000
0100
0010
0100
,
0001
0010
0000
0100
0000
1000
0100
0010
,
0001
0000
0010
0000
0001
0000
1000
0000
0001
0000
0000
0000
0000
0000
0100
0010
,
0000
0000
1000
0100
0000
0000
0010
0000
0001
0000
1000
0000
0100
0000
1000
0000
,
0010
0100
0001
1000
0010
0100
0001
0010
,
0100
0000
1000
0001
0100
0000
0000
0000
0000
0000
0010
1000
0000
0000
0001
0000
,
0000
0000
0010
0000
0000
0000
0100
0000
1000
0000
0001
0000
0100
0000
0010
0100
,
0000
0010
1000
0000
0000
0001
0000
0000
,
1000
0100
0010
0000
0001
0000
1000
0000
0000
0000
0010
0000
0100
0000
0001
0000
,
0000
1000
0100
0010
0000
0001
0100
0001
,
0000
0000
0010
0000
0100
0000
1000
0000
0000
0000
0010
0000
0100
0000
0000
0001
,
0000
0000
1001
0000
0000
0000
0000
0000
0000
0000
0010
1000
0000
0000
0000
0000
,
0000
0001
0010
0100
1000
0000
0010
0100
,
0000
0001
1000
0001
0000
0010
0100
1000
,
0000
0010
0000
0000
0100
0000
0000
0000
,
0110
0000
0000
0000
0000
0000
0000
0010
,
0000
1000
0001
0000
0010
0000
0100
0000
0000
0000
0000
0000
1000
0000
0001
0000
,
0000
0000
1000
0000
0010
0000
0100
0010
1000
0000
0001
0000
0010
0000
0100
0000
,
0000
0000
1000
0000
0001
0000
0100
0000
0010
0000
0100
0000
0001
0000
1000
0001
,
1000
0100
1000
0001
0000
0000
1000
0000
0000
0000
0010
0000
1000
0000
0001
0000
,
0000
0000
0100
0000
0010
1000
0001
0000
0000
0000
0010
0000
0100
0000
1000
0000
,
0010
0100
0010
0000
1000
0001
0010
0000
0100
0000
0000
0000
1000
0010
1000
0000
,
0000
0000
0001
0000
1000
0000
0000
0100
0010
0100
1000
0001
1000
0000
0000
0000
,
0010
0000
0000
0000
;
