#TITLE:Tibet;
#SUBTITLE:(Andy Jay Powell Remix);
#ARTIST:Visions Of Yawa;
#TITLETRANSLIT:;
#SUBTITLETRANSLIT:;
#ARTISTTRANSLIT:;
#GENRE:;
#CREDIT:;
#MUSIC:Tibet (Andy Jay Powell Remix).mp3;
#BANNER:Tibet (Andy Jay Powell Remix).png;
#BACKGROUND:Tibet (Andy Jay Powell Remix)-bg.png;
#CDTITLE:;
#SAMPLESTART:83.004;
#SAMPLELENGTH:15.086;
#SELECTABLE:YES;
#OFFSET:-0.173;
#BPMS:0.000=140.528;
#STOPS:;
#BGCHANGES:;
#FGCHANGES:;

//--------------- dance-single - ----------------
#NOTES:
     dance-single:
     :
     Easy:
     4:
     0,0,0,0,0:
0000
0000
0000
0000
,
0000
0000
0000
0000
,
0000
0000
0000
0000
0100
0001
0100
0000
,
0001
0000
1000
0000
0100
0010
0001
0000
,
0100
0010
1000
0100
,
0010
0001
0100
0001
,
1000
0100
0010
0001
,
0100
0010
2000
0000
,
3010
0000
0000
0000
0100
0000
0001
0100
0001
0000
0000
0000
1001
0000
0000
0000
,
0010
0000
0010
0000
0100
1000
0010
0000
,
1000
0100
1000
0110
,
0000
0100
0200
0000
,
0300
0001
0010
0001
,
0100
0000
0010
0000
1000
0001
1000
0000
,
0100
0010
0100
1000
,
0000
0001
0100
0010
,
1000
0000
0100
0000
,
0010
0000
0001
0000
0100
0001
1000
0000
,
0001
0020
0030
0010
,
0001
0100
0010
1000
,
0010
0100
0001
0010
,
0001
0000
0010
0000
0100
1000
0000
0000
,
1001
0001
0100
0001
,
1000
0100
0100
0010
,
0001
0000
0000
0001
1000
0000
1000
0000
,
0010
0100
0001
0001
,
1000
0100
1000
0010
,
0100
0001
0010
0100
,
1000
0100
1000
0001
,
0010
0100
2000
0000
,
3200
0320
0032
2003
,
3020
0230
0302
2003
,
3001
0000
0000
0000
0010
0000
0100
1000
0001
0000
0000
0000
1000
0000
0000
0000
,
0010
0100
0010
1000
,
0100
0010
0001
0100
,
0001
0000
0010
0000
0100
1000
0010
0000
,
1000
0010
0100
0001
,
1000
0000
0200
0310
,
0001
0100
0010
1000
,
0100
0010
0001
0100
,
0001
0000
0010
0001
0010
0000
0100
0000
,
1000
0010
1000
0010
,
0100
0000
0001
0010
,
0100
1000
0010
1000
,
0001
0010
0100
2000
,
3100
0001
0001
0100
,
0010
0100
0001
1000
,
0100
0000
0000
0000
0010
0000
0000
0000
0001
0000
0000
1000
0000
0000
0000
0000
,
0000
0010
0000
0000
0100
0000
0001
0000
0000
0000
0000
0000
1000
0000
0000
0000
,
0100
0010
0001
0100
,
0010
1000
0100
0010
,
0001
1000
1000
0100
,
0010
0001
0100
0001
,
0010
0100
1000
0010
,
0100
0000
0001
0000
0010
0000
0001
0100
,
0010
1000
0100
0010
,
0100
0000
1000
0001
0000
0000
0000
0000
;

//--------------- dance-single - ----------------
#NOTES:
     dance-single:
     :
     Medium:
     7:
     0,0,0,0,0:
0000
0000
0000
0000
,
0000
0000
0000
0000
,
0000
0000
0000
0000
1000
0100
1000
0000
,
0100
0000
0000
0010
0001
0000
0000
0000
0100
0000
0010
0000
1000
0000
0000
0000
,
0100
0000
0000
0010
0001
0000
0000
0000
1000
0000
0001
0000
1000
0000
0000
0000
,
0010
0000
0000
0100
0001
0000
0000
0000
1000
0000
0010
0000
0100
0000
0000
0000
,
0001
0000
1000
0000
0100
0010
0001
0000
,
1000
0000
0010
0000
0100
0010
1000
0000
,
0001
0000
0000
0010
0100
0000
1000
0100
1000
0000
0000
0000
0001
0000
0000
0000
,
0100
0000
0010
0000
0100
0001
1000
0000
,
0100
1000
0001
0000
0100
0010
1000
0000
,
1001
0000
1000
0000
0100
0010
0001
0000
,
1000
0000
0000
0001
0100
0000
0000
0000
0010
0000
1000
0000
0010
0000
0000
0000
,
0100
0000
0001
0000
0010
0100
1000
0000
,
0001
0000
1000
0000
0010
0100
0001
0000
,
0010
0100
1000
0000
1100
0000
0001
0000
,
0001
0100
0010
0000
1000
0000
0001
0000
,
0100
0010
1000
0000
1000
0010
0100
0000
,
0001
0000
0100
0000
0010
1000
0001
0000
,
0010
0000
0001
0000
0100
0010
0100
0000
,
0010
0000
0010
0100
0001
0000
1000
0000
,
0100
0000
1000
0000
0001
0000
0000
0000
0010
0100
1000
0000
0002
0000
0000
0000
,
1000
0000
0020
0033
1000
0100
0020
0000
,
0031
0100
0010
0000
2000
0000
3200
0000
,
0320
0000
0031
1000
0020
0000
1030
0001
,
1000
0001
0010
0000
0100
1000
0100
1000
,
0001
0001
0200
0000
0310
1000
0010
1000
,
0002
0000
0013
0010
0110
0000
1100
0000
,
1000
0000
0010
0100
0101
0000
0001
0010
,
1100
0000
1100
0000
0001
0100
0010
1010
,
0210
0000
0300
0000
1100
0001
1001
0000
,
0011
0000
0000
1000
0100
0000
0000
0000
0010
0000
0001
0000
0110
0000
0000
0000
,
1001
0000
0000
0000
0001
0000
1000
0010
0100
0000
0000
0000
0101
0000
0000
0000
,
0001
1000
0001
0000
0010
0100
1000
0000
,
1001
0000
0011
0000
0001
1000
0100
0010
,
0001
0000
0101
0000
0001
1000
0010
0000
,
1010
0000
1100
0000
0001
0010
0200
0000
,
0310
0000
0110
0000
0100
1000
0002
0000
,
0103
0000
0110
0000
2100
0000
0010
0100
,
3001
0000
1001
0000
1000
0100
0010
0000
,
0001
0000
0100
0010
2000
0000
0100
3100
,
2000
0000
3000
0001
0001
0010
1000
0010
,
0010
0000
0110
0010
0001
0000
0001
0100
,
0010
0000
1000
0010
0100
0000
0001
0000
0010
0000
0100
0000
0200
0000
0000
0000
,
1300
0000
1001
0000
1000
0000
0010
0100
,
0001
1000
0100
0000
0010
0001
0100
0100
,
0001
0000
0000
1000
0100
0000
0000
0000
1000
0000
0001
0000
0001
0000
0000
0000
,
1000
0000
0000
1000
0100
0000
0000
0000
0010
0000
0100
1000
0000
0000
0100
0000
,
0010
0001
0000
0000
1000
0000
0010
0000
1000
0000
0000
0000
0010
0000
0000
0000
,
0010
0100
0001
0000
0001
0100
0010
1000
,
1000
0000
0100
0000
0100
0010
0001
1000
,
0010
0000
0100
0001
1000
0100
0010
0001
,
1000
0000
0010
0100
0001
0000
1000
0100
,
0010
0001
1000
0000
0010
0100
0010
0000
,
1000
0000
0001
0000
1000
0000
0100
1000
,
0001
0000
0100
0001
0010
0001
0010
0100
,
1000
0000
0010
0100
0001
0000
0000
0000
;

//--------------- dance-single - ----------------
#NOTES:
     dance-single:
     :
     Hard:
     9:
     0,0,0,0,0:
0000
0000
0000
0000
,
0000
0000
0000
0000
,
0000
0000
0000
0000
0100
0010
0100
0001
,
0010
0000
0000
0001
0010
0000
0000
0001
0010
0000
0001
0000
1000
0000
0000
0000
,
0010
0100
0000
0010
0100
0000
0000
0000
0001
0000
0100
0000
0001
0000
1000
0000
,
0100
0000
0000
1000
0001
0000
0000
0000
0100
0000
0001
0000
0100
0000
0010
0000
,
1000
0000
0000
0010
1000
0000
0000
0000
0100
0000
0010
0000
0100
0000
0000
0000
,
1000
0010
0000
0100
0001
0000
0000
0010
0100
0000
1000
0000
0010
0000
0000
0000
,
0100
0001
0000
1000
0100
0000
0010
0100
0010
0000
0001
0000
1000
0000
0000
0000
,
0010
1000
0000
0000
0100
0000
0000
0000
0010
0000
0001
0000
0010
0000
0000
0100
,
1000
0001
0100
0000
0001
0010
0100
0000
,
1000
0000
0000
0000
0010
0000
0000
0000
0100
0000
0001
0000
1000
0000
0000
0001
,
0010
0000
0100
1000
0100
0000
0000
0010
0001
0000
1000
0000
1001
0000
0000
0000
,
0001
0000
0000
0100
0010
0000
0000
0000
1000
0000
0100
0000
0010
0000
0000
0000
,
0001
0000
0000
1000
0010
0000
0000
0000
0100
0000
0001
0000
1000
0000
0000
0000
,
0100
0010
0001
0000
0100
0010
1000
0000
,
0001
0000
0100
0000
0010
0000
0000
1000
0100
0000
1000
0000
0010
0000
0100
0000
,
0001
0010
0001
0000
1000
0000
0000
0000
0010
0000
0100
0000
0001
0000
0010
0000
,
0001
0000
0100
0001
1000
0100
0010
0000
,
0100
1000
0001
1000
0010
1000
0010
0100
,
0001
0000
0010
0100
0010
0001
1000
0000
,
0001
0000
0100
0000
0010
0000
0000
0000
1000
0100
0010
0000
0001
0000
1000
0000
,
0001
1000
1010
0000
0001
0010
0100
1000
,
0001
0100
1001
0000
0001
0010
0100
1000
,
0100
0000
0000
0000
1000
0000
0100
0010
0001
0000
1000
0000
0010
0000
1000
0000
,
0100
1000
0001
1000
0010
1000
0001
0010
,
0001
0100
0001
0010
0100
1000
0100
0010
,
0001
0000
0100
0010
1000
0000
0100
0000
1000
0010
0000
0000
0100
0000
0001
1000
,
0010
0100
0110
0001
0010
0100
1000
0010
,
0100
0000
0001
0000
1100
0000
0000
0000
0100
1000
0100
0010
0001
0000
0010
0000
,
0100
1000
0010
0000
0100
0001
1000
0100
,
0110
0000
0000
0010
0001
0000
1000
0000
0010
0000
0100
0000
0001
0000
0010
0000
,
0001
0000
1000
0010
0100
0000
0010
1000
0001
0000
0010
0000
0100
0000
1000
0000
,
0001
0000
0100
0000
0010
0000
1000
0001
0010
0001
0010
0001
0100
0000
0010
1000
,
0001
0010
0100
1000
0010
0000
0100
0000
0010
0000
1000
0000
0100
0000
0010
0000
,
0001
0000
0100
0001
0010
0000
0000
0000
0100
0000
1000
0000
0010
0000
0100
0000
,
0001
0010
0000
0000
0100
0000
1000
0000
0001
0000
0100
0000
0001
0000
0010
0000
,
0100
0000
0000
1000
0001
0000
0100
0000
0001
0000
0010
0100
1000
0000
0010
1000
,
0010
0000
0000
0000
0100
0000
0001
0000
0010
0000
0001
0000
0100
0000
0001
0010
,
0100
0000
1000
0000
0001
0100
0010
0100
,
0001
0000
0000
1000
0100
0000
0010
0000
0001
0000
0100
0000
0001
0000
1000
0000
,
0100
0000
0010
0000
0001
0000
0100
0000
0010
0000
1000
0000
0100
0000
0010
0001
,
1000
0010
0100
0001
0010
0100
1000
0010
,
0100
0000
0001
0010
0100
0000
1000
0001
0100
0000
0010
0000
1000
0000
0100
1000
,
0100
0010
0001
0100
0001
0000
0010
0001
,
0100
0000
0010
1000
0001
0000
0000
0000
0010
0000
0100
0000
0010
0000
0100
0000
,
1000
0001
0000
0100
0010
0000
1000
0000
0100
0000
1000
0000
0010
0000
0100
0000
,
0001
0000
1000
0100
0010
0000
0001
0000
1000
0000
0010
1000
0000
0000
0001
0000
,
0010
0100
0000
0000
0100
0000
0001
0000
1000
0000
0000
0000
0100
0000
0000
0000
,
0010
0001
1000
0000
0001
0100
0010
0100
,
0001
0000
0000
0010
0100
0000
1000
0000
0010
0000
0100
0000
0001
0000
1000
0000
,
0001
0000
0000
0000
0010
0000
0100
0000
1000
0000
0001
0100
0020
0000
1000
0000
,
1030
0000
0000
0001
0100
0000
0010
0000
0100
0000
0000
0000
0001
0000
0010
0000
,
0100
0000
1000
0001
0100
0000
0010
0000
1000
0000
0001
0010
0100
0000
1000
0000
,
0001
0000
0000
0100
0010
0000
0000
0000
1001
0000
0000
0000
1000
0000
0100
0000
,
0010
0000
0001
0000
0100
0000
0001
0000
0010
0000
0100
1000
0010
0000
0100
0000
,
0001
0000
1000
1000
0100
0000
0000
0000
;

//--------------- dance-single - ----------------
#NOTES:
     dance-single:
     :
     Challenge:
     11:
     0,0,0,0,0:
0000
0000
0000
0000
,
0000
0000
0000
0000
,
0000
0000
0000
0000
0000
0000
0010
0100
0001
0000
1000
0100
0010
0000
0001
1000
,
0100
0010
0000
0001
0100
0000
0010
1000
0001
0000
1000
0100
1000
0000
0010
0000
,
0100
0001
1000
0100
0010
0000
0001
1000
0010
0000
0100
0010
1000
0000
0001
0010
,
0100
0010
0000
0001
1000
0000
0010
0100
0001
0000
1000
0001
0010
0000
0001
0010
,
0100
1000
0001
1000
0010
0000
0100
0001
1000
0000
0001
0000
0010
0000
0100
0010
,
0001
1000
0000
0010
0100
0000
0000
0001
0010
0000
0001
0000
0100
0000
0010
1000
,
0001
0010
0100
0010
0001
0000
1000
0100
1000
0000
0010
0000
0100
0000
0010
1000
,
0001
0010
0001
0010
0100
0000
1000
0010
0100
0000
0010
0000
0100
0000
0000
0001
,
1000
0100
0010
0001
0100
0000
0001
0100
0010
0000
1000
0000
0100
0000
0010
0100
,
1000
0010
1000
0001
0010
0000
0001
1000
0010
0000
0100
0000
0001
0000
1000
0100
,
0010
0001
0100
0010
1000
0000
0100
1000
0100
0000
0010
0000
0001
0000
0100
0010
,
1000
0100
0010
0100
1000
0000
0001
0100
0010
0000
1000
0000
1001
0000
0001
0010
,
0100
1000
0100
0010
0001
0000
0100
0001
1000
0000
0010
0000
0100
0000
0001
0100
,
0010
1000
0100
0010
0001
0000
0000
0001
0100
0000
0010
1000
0100
0000
0100
0010
,
0100
0010
0001
1000
0010
0100
0001
0010
0100
0000
1000
0000
1000
0000
0100
0000
,
0010
0001
0100
0010
1000
0000
0001
0100
0010
0000
1000
0000
0001
0000
0010
0100
,
0010
0001
0100
0010
1000
0000
0100
0010
1000
0000
0001
0000
0001
0000
0100
0000
,
0001
1000
0100
1000
0010
0000
0100
0000
0001
1000
0100
1000
0010
0100
0001
0010
,
0100
0010
0001
0000
1001
0000
1000
0000
0010
0000
0100
0000
0001
0000
1000
0001
,
0010
0100
0010
0001
0100
0000
0010
0000
0100
0001
0010
0100
0010
0000
0001
0100
,
0110
0000
0001
1000
0001
0000
1000
0010
0100
0000
0001
0000
0010
0000
0001
0000
,
0010
0000
0010
0001
0010
0000
1000
0000
0010
0100
0001
0000
1000
0010
0100
0001
,
1000
0000
1000
0100
1000
0000
0100
0010
0001
0000
0010
0000
1000
0000
0010
0000
,
0001
0100
0010
0100
0010
0000
1000
0001
0100
0010
1000
0010
0100
0000
0001
0010
,
0100
1000
0001
0010
0100
0000
0010
0001
1000
0000
0010
0100
0001
0000
0010
0000
,
0100
1000
0001
0010
0001
0000
0100
0010
1000
0001
0010
0100
0010
0001
1000
0010
,
0100
0000
0001
1000
0010
0000
0100
0001
1000
0000
0100
0000
0010
0000
0001
0000
,
0100
0010
1000
0001
0010
0000
0100
1000
0001
1000
0001
0010
0100
0000
1000
0010
,
0100
0001
1000
0001
1000
0000
0100
0010
0001
0000
0100
0000
0010
0000
1000
0100
,
0010
0001
0100
0010
1000
0000
0001
0010
0001
1000
0010
0100
0001
1000
0100
1000
,
0001
0000
0100
0010
1000
0000
0100
1000
0010
0000
0100
0000
0001
0000
0010
0100
,
1000
0000
0010
1000
0100
0000
0010
0001
0100
0010
1000
0100
1000
0010
0100
0001
,
0010
0100
1000
0010
1000
0000
0001
0100
0010
0000
1000
0001
0010
0000
0100
1000
,
0001
0100
0010
1000
0001
0000
1000
0100
1000
0010
0100
0001
0010
0000
0100
0000
,
1000
0010
0100
0001
0010
0000
0100
1000
0010
0000
0100
0000
0001
0010
0001
0000
,
0100
0010
1000
0100
0010
0000
0001
0000
1000
0100
0010
0001
0100
0000
0001
0010
,
0100
1000
0010
0100
0001
1000
0100
0010
0002
0000
1003
0001
0200
0000
0301
0100
,
0010
0100
0001
1000
0200
0000
0310
0001
1000
0100
1000
0100
0020
0000
0031
1000
,
0001
1000
0010
0100
0002
0000
1003
0010
0200
0000
0302
0000
0013
0100
1000
0100
,
0001
0100
0010
0001
0200
0000
0310
0001
0010
0001
1000
0001
0100
0010
1000
0001
,
0100
0001
0010
0100
2000
0000
3001
0100
0020
0000
2030
0000
3002
0000
0013
0100
,
2000
0000
3010
0100
0001
0010
0100
1000
0001
1000
0010
0100
0002
0000
0013
0100
,
1000
0100
0010
0001
0100
0010
0100
0001
2000
0000
3100
0010
0002
0000
2003
0000
,
3010
0100
0001
1000
1001
0000
0001
1000
0200
0000
1300
0100
0010
0001
0010
0001
,
1000
0010
0100
0010
2000
0000
3001
0010
0100
0000
1000
0000
1010
0000
0001
0000
,
1000
0000
0010
0100
0010
0000
1000
0001
0010
0001
1000
0100
1000
0010
1000
0000
,
0010
0100
0001
1000
0100
0000
0010
0001
1000
0000
0000
0000
1100
0000
1000
0000
,
0002
0000
0003
0100
0010
1000
1001
0000
0001
1000
0010
1000
0100
0000
0010
0000
,
0001
1000
0000
0010
0100
0000
0001
0010
0200
0000
0300
0100
2100
0000
0002
0000
,
3003
0000
0100
1000
0010
0000
0001
0000
0010
1000
0010
1000
0100
0000
1000
0000
,
0010
0000
0100
0000
0020
0000
1030
0001
0020
0000
0030
0000
0100
0000
1000
0000
,
0010
1000
0001
0010
0100
1000
0001
0100
0010
1000
0001
1000
0001
0100
0010
1000
,
0010
0100
0001
0010
0001
0000
0100
0001
0200
0000
0310
1000
0100
0000
0010
0000
,
0001
0000
0200
0000
0310
0000
1000
0000
0100
0010
0001
1000
0010
0000
1000
0100
,
0010
0001
1000
0100
0010
0000
0001
0000
0100
0000
0000
0000
0000
0000
0000
0000
;
