#TITLE:The Way You Move;
#SUBTITLE:;
#ARTIST:OutKast feat. Sleepy Brown;
#TITLETRANSLIT:;
#SUBTITLETRANSLIT:;
#ARTISTTRANSLIT:;
#CREDIT:;
#BANNER:;
#BACKGROUND:;
#LYRICSPATH:;
#CDTITLE:iwakurap-cdtitle.PNG;
#MUSIC:OutKast feat. Sleepy Brown - The Way You Move.mp3;
#OFFSET:0.180;
#SAMPLESTART:47.619;
#SAMPLELENGTH:12.000;
#SELECTABLE:YES;
#BPMS:0.000=126.000;
#STOPS:;
#BGCHANGES:;

//---------------dance-single - ----------------
#NOTES:
     dance-single:
     :
     Hard:
     8:
     0.559,0.629,0.419,0.273,0.296:
0000
0000
0000
0000
,
0000
0000
0000
0000
,
0000
0000
0000
0000
,
0000
0000
0000
0000
,
0000
0000
0000
0000
,
0200
0000
0300
0020
0000
0030
0002
0000
,
0003
0000
0000
0000
0000
1100
0000
0110
,
0000
1100
0100
0110
,
0010
0011
0010
0110
,
0000
0010
0001
1000
0100
0000
0010
1000
0100
0001
0010
0100
0000
0001
0010
0100
,
1000
0100
0000
0100
0000
1000
0000
0010
0000
0001
0010
0100
1000
0000
0000
1000
,
0000
0000
1000
0000
0100
0000
0001
0000
0010
0000
1000
0100
0000
0010
0001
0100
,
0010
1000
0100
0001
1000
0010
0001
0100
0010
0000
0000
0010
0000
1000
0100
1000
,
0100
0010
0001
0000
0001
0000
0010
0000
0100
0010
0100
0000
1000
0000
0100
0000
,
0001
0000
0010
0000
0100
0000
0010
1000
0010
0001
1000
0000
0100
0000
0010
0000
,
0000
0000
0010
0100
0010
1000
0010
0100
0001
0010
0001
0100
0000
0100
0010
1000
,
0001
0010
1000
0100
0001
0010
0100
1000
0000
0000
1000
0000
0000
0000
0000
0100
,
0001
0010
0100
0001
0010
0100
1000
0100
0010
0000
0001
0000
0100
0000
0001
0000
,
0100
0000
1000
0000
0010
0000
0100
0010
0001
0010
0100
1000
0100
0000
0100
0000
,
0010
0000
0000
0000
0000
0000
0001
0000
0000
0000
0000
0000
1000
0000
0000
0001
0000
0000
1000
0000
0000
0000
0000
0000
0100
0000
0000
0000
0010
0000
0000
0000
0000
1000
0000
0000
0001
0000
0000
0000
0000
0000
0010
0000
0000
0100
0000
0000
,
0010
0000
1000
0001
0010
0100
0010
0001
0000
1000
0100
1000
0000
0000
0100
0001
,
0100
0000
1000
0000
0100
0010
0100
0000
1000
0000
0001
0000
1000
0000
0100
1000
,
0100
0000
0010
0000
0100
0000
1000
0000
0100
0000
1000
0000
1100
0000
0010
0001
,
0010
0000
0100
0000
1000
0010
1000
0000
0100
0000
0001
0000
0100
0000
0001
0010
,
0001
0010
0001
0010
0100
0001
0101
0000
,
1000
0100
0010
0002
0000
0003
0100
0010
,
0000
0000
0000
0110
0110
0000
1001
0000
,
0001
0010
0100
2000
0000
3000
1000
0100
,
0000
0000
0000
1100
1100
0010
1010
0010
,
0100
0010
1000
0002
0000
0003
0100
0010
,
0000
0000
0000
0011
0011
0000
0101
0000
,
0100
0001
0010
1000
0000
1000
0110
1000
,
0100
0010
0001
1010
1010
0000
0110
0200
,
0000
0300
0010
0001
0000
0010
0000
2000
,
0000
3010
0100
0010
0000
0101
0000
0010
,
0000
0011
0000
0100
0000
1100
0000
0100
,
0000
1000
0001
1001
0000
1010
0000
2000
,
0000
3200
0000
0320
0001
0130
0000
0001
,
0200
0320
0000
0032
0013
1000
0001
0010
,
1000
0100
0001
1000
0100
0001
0001
0000
,
1000
0200
0001
0302
0000
0023
0000
0030
,
0100
0010
1000
0110
0000
1000
0100
0110
,
0000
0010
0000
0101
0000
0100
0000
2200
,
0000
3300
0220
0000
0000
0000
0330
1001
,
0000
2000
0100
0010
3001
0100
0100
0100
,
0000
1010
0000
0001
0000
1000
0100
0001
,
0000
0110
0000
1000
0010
0100
0010
1000
,
1000
0001
0000
0001
1000
0100
0010
0001
,
0200
0000
0000
0000
0300
0000
0010
0000
0000
0100
0000
0000
0000
0000
2000
0000
,
0100
3010
0001
0020
0000
0030
0100
1000
,
0000
0100
0110
0010
0011
0001
1001
0000
,
0010
0100
1000
0200
0000
0300
0010
0001
,
0000
0000
0002
0000
0000
0000
0000
0000
0003
0010
0100
0000
0110
0000
0110
0000
,
1000
0010
0100
0000
0011
0000
0020
0000
0000
0000
0030
0000
0100
0000
1000
0000
,
0000
0000
0000
1010
1010
0000
0101
0000
,
1000
0100
0010
0001
0000
2000
0000
3000
,
0001
0010
0100
1100
1100
0000
0011
0000
,
0020
0000
0000
0000
0000
0000
0000
0030
0000
0000
0000
0000
;

//---------------dance-single - ----------------
#NOTES:
     dance-single:
     :
     Medium:
     6:
     0.372,0.446,0.109,0.191,0.073:
0000
0000
0000
0000
,
0000
0000
0000
0000
,
0000
0000
0000
0000
,
0000
0000
0000
0000
,
0000
0000
0000
0000
,
0200
0000
0300
0020
0000
0030
0002
0000
,
0003
0000
0000
0000
0000
1100
0000
0110
,
0000
1000
0100
0100
,
0010
0001
0010
0110
,
0000
0001
0000
0000
0100
0000
0000
0000
0100
0000
0000
0001
0000
0000
0010
0000
,
1000
0000
0000
0100
0000
1000
0000
0010
0000
0000
0010
0000
1000
0000
0000
1000
,
0000
0000
1000
0000
0100
0000
0000
0000
0010
0000
0000
0100
0000
0000
0001
0000
,
0010
0000
0100
0000
1000
0000
0001
0000
0010
0000
0000
0010
0000
0000
0100
0000
,
0100
0001
1000
0000
0100
0100
1000
0000
,
0001
0010
0100
0010
0010
1000
0100
0010
,
0000
0000
0010
0000
0010
0000
0010
0000
0001
0000
0001
0100
0000
0000
0010
0000
,
0001
0000
1000
0000
0001
0000
0100
1000
0000
0000
1000
0000
0000
0000
0000
0100
,
0001
0000
0100
0001
0000
0000
1000
0000
0010
0000
0001
0000
0100
0000
0001
0000
,
0100
1000
0010
0100
0001
0100
0100
0100
,
0010
0000
0000
0001
0000
0000
1000
0000
0000
1000
0000
0000
0100
0000
0010
0000
0000
0000
0001
0000
0000
0010
0000
0000
,
0010
0000
1000
0000
0100
0000
0000
0001
0000
0000
0100
1000
0000
0000
0100
0000
,
0100
0000
0100
0100
1000
0000
1000
0100
,
0100
0000
0100
1000
0100
0000
1100
0000
,
0010
0000
1000
0010
0100
0000
0100
0010
,
0001
0000
0001
0010
0100
0000
0101
0000
,
1000
0100
0010
0001
0000
0000
0100
0010
,
0000
0000
0100
0001
,
0001
0010
0100
1000
0000
0000
1000
0100
,
0000
0000
0000
0100
1000
0000
0010
0000
,
0100
0010
1000
0001
0000
0000
0100
0010
,
0000
0000
0000
0010
0001
0000
0100
0000
,
0100
0001
0010
1000
0000
0000
0000
0000
,
0100
0010
0001
0010
1000
0000
0010
0200
,
0000
0300
0000
0001
0000
0010
0000
2000
,
0000
3000
0000
0010
0000
0100
0000
1010
,
0000
0010
0000
0100
0000
1000
0000
0110
,
0000
1000
0000
0001
0000
1000
0000
2000
,
0000
3200
0000
0320
0000
0030
0000
0000
,
0100
0010
0000
0001
0000
1000
0000
0010
,
1000
0000
0001
1000
0000
0001
0001
0000
,
0000
0200
0000
0302
0000
0023
0000
0030
,
0100
0010
0000
0100
0000
1000
0000
0100
,
0000
0010
0000
0001
0000
0100
0000
2200
,
0000
3300
0220
0000
0000
0000
0330
1001
,
0000
2000
0000
0000
3000
0100
0000
0100
,
0000
1010
0000
0000
0000
1000
0000
0001
,
0000
0110
0000
0000
0000
0000
0000
1000
,
0000
0001
0000
0001
0000
0100
0010
0000
,
0200
0000
0000
0000
0300
0000
0010
0000
0000
0100
0000
0000
0000
0000
2000
0000
,
0100
3010
0001
0010
0000
0000
0100
1000
,
0000
0100
0010
0010
0001
0001
1000
0000
,
0010
0100
1000
0100
0000
0000
0010
0001
,
0000
0002
0000
0100
1003
0000
0010
0000
,
1000
0100
0001
0010
0000
0000
0100
1000
,
0000
0000
0000
0010
1000
0000
0001
0000
,
1000
0100
0010
0001
0000
2000
0000
3000
,
0001
0010
0100
1000
0100
0000
0001
0000
,
0020
0000
0000
0000
0000
0000
0000
0030
0000
0000
0000
0000
;

//---------------dance-single - ----------------
#NOTES:
     dance-single:
     :
     Easy:
     4:
     0.278,0.341,0.127,0.064,0.000:
0000
0000
0000
0000
,
0000
0000
0000
0000
,
0000
0000
0000
0000
,
0000
0000
0000
0000
,
0000
0000
0000
0000
,
0100
0000
0000
1000
,
0000
0000
0000
0000
0000
0110
0000
0011
,
0000
1000
0000
0100
,
0000
0010
0000
0100
,
0100
0000
0010
0000
0010
0000
1000
0001
,
0001
0000
0010
0000
0010
0010
1000
0000
,
0010
0001
0100
0100
,
1000
0000
0100
0100
1000
0000
1000
0000
,
0100
1000
0100
0000
1000
0010
0001
0000
,
0010
0010
0010
0001
,
0010
0000
0010
0000
0001
0000
0001
1000
,
0100
0010
0100
0000
,
0010
0000
1000
0100
0001
0000
0010
0010
,
0001
0000
0001
0010
0010
0000
0001
0010
,
0100
0000
0001
0100
1000
0000
0100
0001
,
0100
0010
0100
0010
,
0010
0010
0100
1000
,
0010
0001
0001
1001
,
0001
0001
1000
0010
,
0001
1000
0010
0110
,
1000
0000
0001
0001
0000
0000
1000
1000
,
0000
0000
0100
0100
,
1000
0000
0001
0001
0000
0000
0001
0100
,
0000
0000
1000
0010
,
0001
0000
0100
0010
0000
0000
0100
0010
,
0000
0000
0001
0001
,
0010
0000
0100
1000
0000
0000
0000
0000
,
1000
0000
0010
1000
0010
0000
0010
0000
,
0000
0001
0000
0001
0000
1000
0000
0110
,
0000
0000
0000
0010
0000
0010
0000
0101
,
0000
0000
0000
1000
0000
0100
0000
1001
,
0000
0000
0000
0001
0000
0100
0000
0110
,
0000
0000
0000
0100
0000
0010
0000
1001
,
0000
0000
0000
0001
0000
1000
0000
0011
,
0000
0000
0000
0001
0000
0100
0000
1100
,
0000
1000
0000
0100
0000
0001
0000
0000
,
0000
0010
0000
0010
0000
0001
0000
0000
,
0000
0001
0000
0100
0000
0010
0000
2000
,
0000
3000
0002
0000
0000
0000
0003
1001
,
0000
0200
0000
0000
0300
0001
0000
0100
,
0000
1100
0000
0000
0000
0001
0000
0010
,
0000
1010
0000
0000
0000
0000
0000
0001
,
0000
0010
0000
1000
0000
0000
0001
0000
,
2000
0000
3000
1000
0000
0001
0000
0100
,
0100
0000
0010
0010
0000
0000
0010
0001
,
0000
0000
0010
0001
,
0001
0000
0100
0010
0000
0000
0001
0010
,
0000
0020
0000
0000
0031
0000
0100
0000
,
0010
0000
0001
0010
0000
0000
0100
0010
,
0000
0000
1000
0001
,
0001
0000
1000
0100
0000
0200
0000
0300
,
1000
0000
0100
0001
0010
0000
0100
0000
,
0002
0000
0000
0000
0000
0000
0000
0003
0000
0000
0000
0000
;

//---------------dance-single - ----------------
#NOTES:
     dance-single:
     :
     Beginner:
     2:
     0.147,0.207,0.046,0.000,0.000: // measure 1
0000
0000
0000
0000
,  // measure 2
0000
0000
0000
0000
,  // measure 3
0000
0000
0000
0000
,  // measure 4
0000
0000
0000
0000
,  // measure 5
0000
0000
0000
0000
,  // measure 6
0100
0000
0000
1000
,  // measure 7
0000
0100
0000
0010
,  // measure 8
0000
1000
0000
0100
,  // measure 9
0000
0010
0000
0100
,  // measure 10
0000
0010
0000
1000
,  // measure 11
0000
0010
0010
0000
,  // measure 12
0010
0000
0100
0100
,  // measure 13
0000
0100
0000
1000
,  // measure 14
0000
0100
0000
0001
,  // measure 15
0000
0010
0010
0000
,  // measure 16
0010
0010
0000
0001
,  // measure 17
0000
1000
0000
0000
,  // measure 18
0000
1000
0000
0000
,  // measure 19
0001
0001
0000
0001
,  // measure 20
0001
0000
1000
0000
,  // measure 21
0100
0000
0100
0000
,  // measure 22
0010
0010
0000
1000
,  // measure 23
0000
0001
0001
0000
,  // measure 24
0001
0000
0001
0000
,  // measure 25
0010
0000
0010
0000
,  // measure 26
1000
0000
0001
0000
,  // measure 27
1000
0000
0100
0100
,  // measure 28
0100
0000
0001
0000
,  // measure 29
0100
0000
1000
1000
,  // measure 30
1000
0000
0100
0000
,  // measure 31
0010
0000
0001
0001
,  // measure 32
0001
0000
1000
0000
,  // measure 33
1000
0000
0010
0000
,  // measure 34
0001
0000
0001
0000
,  // measure 35
0110
0000
0010
0000
,  // measure 36
1001
0000
0010
0000
,  // measure 37
0110
0000
1000
0000
,  // measure 38
1001
0000
0010
0000
,  // measure 39
0010
0000
1000
0000
,  // measure 40
0001
0001
0001
0000
,  // measure 41
1000
0000
0000
0000
,  // measure 42
0010
0000
1000
0000
,  // measure 43
0100
0000
0001
0000
,  // measure 44
1000
0000
0000
0000
,  // measure 45
1001
0000
0000
0000
,  // measure 46
0100
0100
0000
0000
,  // measure 47
0001
0001
0000
0000
,  // measure 48
0010
0010
0000
0000
,  // measure 49
1000
1000
0000
0000
,  // measure 50
0100
0100
0000
0010
,  // measure 51
0000
0000
0010
0000
,  // measure 52
0001
0001
0000
0001
,  // measure 53
0000
0000
0001
0000
,  // measure 54
0010
0010
0000
0100
,  // measure 55
0000
0000
1000
0000
,  // measure 56
1000
1000
0000
0000
,  // measure 57
1000
1000
0000
0100
;
