#TITLE:Soonjung;
#SUBTITLE:(8 Bit Bootleg Mix);
#ARTIST:KOYOTE;
#TITLETRANSLIT:;
#SUBTITLETRANSLIT:;
#ARTISTTRANSLIT:;
#CREDIT:;
#BANNER:;
#BACKGROUND:;
#LYRICSPATH:;
#CDTITLE:;
#MUSIC:Soonjung.mp3;
#OFFSET:-0.120;
#SAMPLESTART:0.000;
#SAMPLELENGTH:12.000;
#SELECTABLE:YES;
#BPMS:0.000=149.000;
#STOPS:;
#BGCHANGES:;

//---------------dance-single - ----------------
#NOTES:
     dance-single:
     :
     Hard:
     8:
     0.565,0.639,0.463,0.000,0.160: // measure 1
0000
0000
0000
0000
,  // measure 2
0000
0000
0000
0000
,  // measure 3
0000
0000
0010
0000
0010
0100
0010
0000
,  // measure 4
1000
0100
1000
0000
0010
0001
0010
0000
,  // measure 5
1000
0001
1000
0000
0000
1000
0100
0000
,  // measure 6
0000
0001
0010
0000
0000
0010
0100
0000
,  // measure 7
0000
0000
1000
0000
0100
0010
0100
0000
1000
0010
1000
0000
0001
0010
0001
0000
,  // measure 8
0100
1000
0010
0000
0001
0000
0010
0100
1000
0000
1000
0000
1000
0000
0000
0000
,  // measure 9
1100
0010
0010
0010
,  // measure 10
0000
0000
0010
0000
0001
0010
0100
0010
,  // measure 11
0100
0010
0001
0000
0001
0000
0001
0000
,  // measure 12
0000
0000
0001
0000
0100
0010
1000
0010
,  // measure 13
1000
0010
0100
0000
0100
0000
0100
0000
,  // measure 14
0000
0000
0100
0000
0010
1000
0100
0001
,  // measure 15
0010
0000
0100
0000
0001
0000
0000
0100
1000
0000
0000
0010
0001
0000
0000
0100
,  // measure 16
1000
0000
0000
0100
0010
0000
0000
0010
0100
0000
0000
0001
1000
0000
0000
0000
,  // measure 17
0000
0000
0100
0010
0100
0000
0000
0000
0100
0000
0010
0000
0100
0000
0000
0000
,  // measure 18
1000
0000
0000
0000
0000
0000
1000
0100
1000
0000
0100
0000
0010
0000
0001
0000
,  // measure 19
0100
1000
0010
0000
0010
0100
0010
0100
,  // measure 20
1000
0100
0010
0000
0100
0001
0100
1000
,  // measure 21
0010
0100
0100
0000
0100
1000
0100
0000
,  // measure 22
0000
0000
1000
0010
0001
0000
0000
0000
0010
0000
1000
0000
0100
0000
0000
0000
,  // measure 23
0000
0000
0100
0000
0100
0010
0001
0010
,  // measure 24
0100
0000
1000
0000
0100
0000
0001
0010
1000
0000
0010
1000
0001
0000
0100
1000
,  // measure 25
0100
0000
0001
0100
0001
1000
0001
0000
,  // measure 26
0000
0001
0100
1010
0100
0001
1010
0000
,  // measure 27
1010
0000
0100
0010
0001
0110
0001
0000
,  // measure 28
0000
0010
1000
0101
0010
1000
0101
0000
,  // measure 29
0000
0000
0100
0010
0001
1010
0001
0010
,  // measure 30
1000
1010
0000
0100
1000
0010
0100
1001
,  // measure 31
1001
0000
0010
0000
0000
0000
1100
0000
0000
0000
0110
0000
0000
0000
0001
0010
,  // measure 32
1000
0000
1000
0010
0001
0000
0001
0100
1000
0000
0000
0000
1000
0000
0100
0000
,  // measure 33
0010
0001
0000
0000
1000
0011
0000
0000
,  // measure 34
0000
0000
0001
0000
1100
0000
0100
0000
0001
0010
0001
0000
1000
0100
1000
0000
,  // measure 35
0100
0010
0100
0000
0100
1100
0000
0000
,  // measure 36
0010
0011
0011
0001
,  // measure 37
1100
0000
0011
0000
0011
0000
0000
0101
,  // measure 38
0000
0011
0000
0000
0011
0000
0000
1001
,  // measure 39
0000
0000
1001
0000
0000
0000
0000
0000
0001
0010
1000
0000
0000
0000
0001
0010
,  // measure 40
1000
0000
0100
0000
0100
1000
0000
0100
,  // measure 41
0010
0100
0010
0000
0010
0000
0000
0110
,  // measure 42
0000
1100
0000
0000
1100
0000
0110
0000
,  // measure 43
1001
0000
0100
0010
0100
1000
0100
0000
,  // measure 44
0000
0010
0001
0010
0100
1000
0100
0000
,  // measure 45
0110
0000
0010
0001
1000
0100
0001
0000
,  // measure 46
0000
0001
0100
0001
1000
0100
0010
0000
,  // measure 47
0000
0000
1000
0100
0001
0100
0010
0100
,  // measure 48
0100
0010
0000
1000
0100
0001
0010
1001
,  // measure 49
0000
1010
0000
1100
0000
1010
0000
0000
,  // measure 50
1000
0100
0001
0000
0001
0010
1000
0000
1000
0100
0001
0000
0100
0000
0010
0000
,  // measure 51
0100
1100
0000
0000
0100
0110
0000
0000
,  // measure 52
0000
0010
0110
0000
0000
0000
0000
0000
;
