#TITLE:So Whatcha Got to Say;
#SUBTITLE:;
#ARTIST:2 Copies Sealed;
#TITLETRANSLIT:;
#SUBTITLETRANSLIT:;
#ARTISTTRANSLIT:;
#CREDIT:;
#BANNER:So Whatcha Got To Say.PNG;
#BACKGROUND:So Whatcha Got To Say-bg.PNG;
#LYRICSPATH:;
#CDTITLE:;
#MUSIC:So Whatcha Got to Say.mp3;
#OFFSET:-0.420;
#SAMPLESTART:105.000;
#SAMPLELENGTH:12.000;
#SELECTABLE:YES;
#BPMS:0.000=132.080,60.000=126.200,64.000=127.261,75.000=129.721,128.000=128.781,175.000=129.821,220.000=129.401;
#STOPS:;
#BGCHANGES:;

//---------------dance-single - ----------------
#NOTES:
     dance-single:
     :
     Challenge:
     10:
     0.744,0.723,0.228,0.505,0.881:
0000
0000
0000
0000
,
0000
0000
0000
0000
,
0000
0000
0000
0000
,
0000
0000
0000
0000
,
0001
0000
0000
0010
0000
0000
2000
0020
3000
0130
0000
0000
,
0001
0000
0000
0000
0000
0000
0000
0000
0000
0000
0000
0000
0010
0000
0000
0000
0000
0000
0000
0000
0000
0000
0000
0000
2000
0000
0000
0000
0020
0000
0000
0000
3000
0000
0000
0000
0130
0000
0000
0000
0000
0000
0000
0000
0000
1000
0000
0000
,
1000
1000
1000
1000
1000
0000
0110
0000
0010
0010
0000
0110
0000
0000
0000
0001
,
1000
0100
1000
0000
0010
1000
0000
0010
1000
0100
1000
0001
0000
0000
0000
0000
,
0010
0100
0000
1000
0100
0000
1000
0001
0010
0001
0010
0100
1000
0100
0001
0000
,
0010
0000
0000
0000
1000
0000
0000
0000
0100
0000
0000
0000
0200
0000
0000
0000
0000
0000
0000
0000
0000
0310
0000
0000
0001
0000
0000
1000
0000
0000
0001
0000
0000
0100
0000
0000
0001
0000
0000
0010
0000
0000
0001
0000
0000
0000
0000
0000
,
0000
0000
0001
0010
0001
0000
1000
0000
0000
1000
0100
0000
0010
0000
0000
0000
,
0100
1000
0001
0010
0100
1000
0001
0010
0100
1000
0001
0100
0000
0000
0000
0100
,
0001
0100
0010
0001
0100
0001
0100
0010
1000
0010
0000
1000
0100
0000
0000
0000
,
0010
0100
1000
0010
0100
1000
0100
0001
0100
0010
0002
0000
0000
0000
0013
0000
,
1000
0000
0000
0010
0000
0000
0020
0200
0030
1300
0000
0000
,
0100
0000
0002
0103
2000
3100
0020
1030
0100
0000
0000
0000
1000
0000
0000
0000
,
2000
3010
0000
1000
0200
0310
0200
0310
0200
0310
0000
0001
0100
0000
0000
0000
,
0200
1300
0000
0100
1000
0000
1000
0000
2000
3100
0000
0010
0001
0000
1000
0000
,
0020
1030
0200
1300
0020
0130
0002
0103
0010
0000
0000
0000
0001
0000
0000
0000
,
0001
0000
0010
0000
1000
0100
0010
0001
0000
0010
0000
0000
0100
1000
0100
0000
,
0000
0001
0000
0001
0010
0000
0001
0100
0010
0000
0001
1000
0100
1000
0001
0000
,
1000
0010
1000
0010
1000
0000
0010
0000
0100
0010
0100
0010
0100
0000
1000
0000
,
0000
1000
0100
1000
0010
0100
0010
0001
0010
0001
0010
0100
0010
0000
0100
0000
,
0000
0000
0000
0000
2001
0000
3110
0000
0000
0000
0000
1020
0000
0000
0131
0000
,
0000
0100
0010
0001
0100
0000
0100
0010
0100
0000
0001
0010
0100
0000
0100
0000
,
2000
0001
0200
0001
3310
0000
0100
0001
0010
0001
0100
0001
0000
0000
0200
0000
,
1000
0310
0000
1000
1000
0000
0100
0100
0000
0001
0001
0000
0000
0000
0001
0001
,
0210
0000
0010
0000
0302
0000
0100
1000
0103
0000
0000
0000
1001
0000
1000
1000
,
0102
0000
0100
0000
2003
0000
0001
0010
3001
0000
0000
0000
1010
0000
0000
0001
,
0001
0001
0001
0001
0001
0000
0101
0000
0100
0100
0000
0101
0000
0000
0000
1000
,
0010
0100
0001
1000
0010
0000
0100
0000
0110
0000
0010
0100
0000
0000
0000
1000
,
0100
1000
0100
1000
0100
0000
0010
0001
0010
0000
1000
0001
0000
0000
0000
0001
,
0010
0001
0010
0001
0010
0000
1000
0100
0010
0000
0010
0000
0000
0000
0000
0010
,
0100
0000
1000
0100
1000
0000
0000
0000
1000
0000
0100
0010
0100
0000
0000
0000
,
1000
0000
0010
0001
0100
0001
1000
0001
1000
0100
0000
0001
0000
0000
0000
0100
,
0001
0000
0010
0000
0100
0001
0000
0100
0001
0000
0010
0001
0010
1000
0000
0000
,
0100
0001
0000
0001
0100
0000
1000
0010
0001
1000
0010
0001
0010
0000
0100
0000
,
0001
0100
0000
0100
0001
0100
0000
0001
0000
1000
0001
0010
0100
1000
0000
0000
,
0010
0001
1000
0001
0010
0000
0001
1000
0010
0000
0010
1000
0001
0000
0100
0010
,
0001
0010
0100
0001
0020
0000
0030
0000
0010
0001
1000
0010
0002
0000
0003
1000
,
0010
0100
0010
1000
0001
0010
1000
0100
0001
0010
0000
0011
0000
0000
1000
0000
,
1000
0100
0000
1100
0000
0011
0000
1000
0100
0010
0001
0010
0100
0000
0000
0000
,
1000
0001
1000
0000
0100
0000
0100
0010
1000
0001
1000
0100
0000
0100
0000
0010
,
0001
0000
0000
1000
0001
0010
0100
0010
0000
0010
0000
0110
0000
0000
0000
0000
,
1000
0000
1000
0000
0010
1000
0000
0100
0000
0001
0000
0000
1000
0000
0010
0010
,
0201
0000
1000
0000
0302
0000
0010
1000
0013
0000
0000
0000
0110
0000
0100
0100
,
2001
0000
0010
0000
3020
0000
0100
1000
0130
0000
0000
0000
1001
0000
0000
0000
,
0000
0000
0000
0000
0000
0000
1000
0000
0000
0100
0000
0000
0010
0000
0000
0000
0000
0000
0100
0000
0000
0010
0000
0000
0001
0000
0000
0000
0010
0000
0000
0000
0000
0001
0000
0000
0000
0000
0000
0000
0000
0000
0100
0000
0000
1000
0000
0000
,
0010
0001
0100
1000
0010
0000
1000
0000
0100
0010
0001
1000
0000
0011
0000
0000
,
0000
0100
0001
1000
0001
0010
0001
0000
0010
1000
0000
1000
0000
0000
0000
0000
,
0110
0000
1100
0000
0001
0010
1000
0000
0100
1000
0100
0000
0010
0000
0001
0000
,
0100
0000
0010
0000
0001
0000
0000
0000
1000
0000
0001
1000
0000
0100
0000
0000
,
0000
0100
1000
0100
1000
0100
0000
0001
0000
1000
0000
0001
0000
0000
1000
0000
,
0000
0000
0010
0100
0001
0000
1000
0000
1000
0001
0000
0100
0000
0010
0000
0000
,
0001
0000
1000
0000
0001
1000
0000
0010
0000
0100
0000
0000
0010
0000
0100
0000
,
0000
0001
0000
0100
0001
0000
0000
0010
1000
0000
1000
0010
0000
0110
0000
1000
,
0001
0010
1000
0001
0000
0010
0000
0100
0000
0100
0000
1000
0000
0010
1000
0000
,
1000
0100
0000
0000
0001
0010
0000
0000
0100
1000
0000
0000
0001
0100
0000
0000
,
1000
0100
0001
1000
0010
0001
0100
0010
1000
0000
0010
1000
0010
0000
1000
0100
,
1000
0000
0100
0010
0100
0010
0001
0010
0001
0000
1000
0001
1000
0000
0100
0010
,
0000
0000
0000
0000
0000
0000
0000
0000
0000
0000
0000
0000
0100
0000
0000
0000
0000
0000
0000
0000
0000
0000
0000
0000
1000
0000
0000
0000
0000
0000
0000
0000
0000
0000
0000
0000
0000
0000
0000
0000
0000
0000
0000
0000
0000
0000
0000
0000
0000
0000
0000
0000
0000
0000
0000
0000
0000
0000
0000
0000
0000
0000
0000
0000
0000
0000
0000
0000
0000
0000
0000
0000
0000
0000
0000
0000
0000
0000
0000
0000
0000
0000
0000
0000
0000
0000
0000
0000
0000
0000
0000
0000
0000
0000
0000
0000
0000
0000
0000
0000
0000
0000
0000
0000
0000
0000
0000
0000
0000
0000
0000
0000
0000
0000
0000
0000
0000
0000
0000
0000
1000
0000
0000
0000
0000
0000
0000
0000
0000
0000
0000
0000
1000
0000
0000
0000
0000
0000
0000
0000
0000
0000
0000
0000
0000
0000
0000
0000
0000
0000
0000
0000
0100
0000
0000
0000
0000
0000
0000
0000
0000
0000
0100
0000
0000
0000
0000
0000
0000
0000
0000
0000
0000
0000
0000
0000
0000
0000
0000
0000
0000
0000
0000
0000
0000
0000
0000
0000
0000
0000
0000
0000
,
0010
0010
0000
0000
1000
0000
0102
0010
0103
0000
0000
0000
1101
0000
1020
0100
,
1030
0000
1200
0000
1300
0000
2001
0010
3001
0000
0000
0000
0111
0000
0000
0000
,
0001
2000
3200
0302
0023
0000
2030
3200
,
0010
1000
0302
0003
,
1000
0000
0200
0000
0010
0302
0020
0000
1000
0000
2033
0000
3200
0000
0000
0320
,
2000
0000
0001
0M00
0100
0000
3030
0000
,
0100
0000
0020
0000
1000
0000
0032
0000
2003
0000
0000
3200
0000
0000
0320
0000
,
1000
0000
0000
0000
0001
0000
0032
0000
1000
0000
0000
0000
0000
0003
0000
0000
,
0100
2000
3020
0230
0302
0000
2003
3200
,
0000
0320
0000
0032
0000
1000
1000
1000
,
0203
0000
0301
0000
0000
0020
0100
0100
,
0100
0000
0031
0000
0000
2000
0100
0010
,
0001
0010
0100
0010
0001
0010
0100
0010
,
3001
0000
0000
0000
0110
0000
1000
0220
0000
0000
0000
0000
0331
0000
0000
0000
;

//---------------dance-single - ----------------
#NOTES:
     dance-single:
     :
     Hard:
     9:
     0.571,0.570,0.270,0.111,0.384:
0000
0000
0000
0000
,
0000
0000
0000
0000
,
0000
0000
0000
0000
,
0000
0000
0000
0000
,
0100
0000
0000
0010
0000
0000
2000
0001
0000
3010
0000
0000
,
0100
0000
0000
0000
0000
0000
0000
0000
0000
0000
0000
0000
0001
0000
0000
0000
0000
0000
0000
0000
0000
0000
0000
0000
2000
0000
0000
0000
0001
0000
0000
0000
0000
0000
0000
0000
3100
0000
0000
0000
0000
0000
0000
0000
0000
0100
0000
0000
,
0010
0100
0010
0100
0010
0000
1000
0000
0001
1000
0000
1000
0000
0000
0000
0000
,
1000
0000
0010
0000
0100
0000
1000
0000
0010
0000
0010
0001
0000
0000
0000
0000
,
1000
0100
1000
0001
0100
0001
0010
1000
,
0100
0010
2000
0000
3001
0010
0001
1000
,
0000
0000
0001
0010
0001
0000
1000
0000
0000
0000
0001
0000
1000
0000
0000
0000
,
0100
1000
0100
1000
0010
0000
0100
0000
0001
0000
0001
1000
0000
0000
0000
0000
,
0010
0100
0010
0001
1000
0001
0100
0000
,
1000
0100
0001
0010
1000
0210
0000
0310
,
1000
0000
0000
0001
0000
0000
0200
0010
0000
0310
0000
0000
,
0100
0000
0010
0100
1000
0100
0010
0100
0001
0000
0000
0000
0011
0000
0000
0000
,
1000
0100
0000
0010
0001
0000
0010
0000
0100
1000
0000
0001
0010
0000
0100
0000
,
0100
0010
0000
1000
0001
0000
1000
0000
0010
0100
0000
0001
1000
0000
0001
0000
,
1000
0010
0000
0001
0100
0000
0010
0000
0100
0000
0000
0000
1001
0000
0000
0000
,
0100
0000
1000
0000
0001
0010
0100
0010
0000
1000
0000
0000
0010
0000
0000
0000
,
0100
0000
0001
0000
1000
0000
0010
0100
0010
0000
0001
0000
0010
0000
0000
0000
,
0100
1000
0100
0000
0110
0000
0000
0000
0010
0001
0010
0000
1001
0000
0000
0000
,
0000
1000
0100
0010
1000
0001
0010
0100
,
0000
0000
0000
0000
0100
0000
1010
0000
0000
0000
0000
0010
0000
0000
0101
0000
,
0000
0000
0010
0100
1000
0000
0100
0010
0001
0000
1000
0000
0011
0000
1000
0000
,
0100
0000
0001
0000
0010
0000
0001
0000
1000
0000
0100
0010
0000
1000
0001
0000
,
0100
0010
0000
0001
0010
0000
1000
0100
0000
0001
1000
0000
0000
0000
0000
0000
,
0100
0000
1000
0000
0001
0000
1000
0000
0100
0000
0010
0001
0000
0000
0000
0000
,
0001
0000
1000
0000
0010
0000
1000
0000
0001
0000
0010
0100
0000
0000
0000
1000
,
0001
1000
0001
1000
0001
0000
0010
0000
1000
0010
0000
0100
0000
0000
0000
0000
,
0010
0000
0100
0000
1000
0000
0010
0000
0100
0000
0001
0010
0000
0000
0000
0000
,
1000
0000
0010
0000
0001
0000
0010
0000
0100
0000
1000
0001
0000
0000
0000
0000
,
1000
0000
0100
0000
0010
0000
0100
0001
0100
0000
1100
0000
0000
0000
0000
0000
,
0100
0000
0001
1000
0001
0000
0000
0000
0010
0000
1000
0001
1000
0000
0000
0000
,
1000
0000
0100
0010
0100
0000
0010
0000
0001
0000
0010
0100
0010
0000
0000
0000
,
0100
0000
1000
0000
0100
1000
0000
0000
0001
0000
0010
0000
0001
0010
0000
0000
,
0100
0000
0001
0000
0100
0001
0100
0000
1000
0000
0010
0000
1000
0010
0000
0000
,
0100
0000
0001
0000
1000
0001
0000
0010
0000
0000
1000
0001
1000
0100
0000
0000
,
1000
0000
0100
0000
0010
0000
0100
0000
0010
0000
0010
0001
1000
0000
0000
0000
,
0100
0000
0100
1000
0100
0000
0000
0000
1000
0000
1000
0001
1000
0000
0000
0000
,
0010
0000
0010
1000
0010
0000
0100
0000
1000
0000
0010
0001
0010
0000
0000
0000
,
0100
0000
1000
0000
0100
0000
0001
0000
1000
0100
0010
0100
1000
0000
0000
0000
,
0010
0000
0100
0000
0001
0000
1000
0000
0001
0000
0001
0100
0000
0000
0000
0000
,
0110
0000
0000
0000
0100
0000
0010
1000
0000
1000
0000
1100
0000
0000
0000
0000
,
0001
0100
1000
0100
0001
0010
1000
0000
,
0001
0000
0100
0000
0010
0000
0100
0001
0100
0000
0000
0000
1100
0000
0000
0000
,
0100
0000
1000
0000
0001
0000
1000
0100
1000
0000
0000
0000
1010
0000
0000
0000
,
0000
0000
0000
0000
0000
0000
0001
0000
0000
0010
0000
0000
0100
0000
0000
0000
0000
0000
1000
0000
0000
0100
0000
0000
0010
0000
0000
0000
0010
0000
0000
0000
0000
0010
0000
0000
0000
0000
0000
0000
0000
0000
1000
0000
0000
0001
0000
0000
,
1000
0000
0100
0001
0100
0000
0010
0001
0010
0000
0001
0000
0010
0000
0000
0000
,
0000
0100
0010
0010
1000
1000
1000
0010
,
0010
0010
0010
1000
0100
0100
0010
0010
,
1000
0000
0100
0000
0110
0000
0000
0000
1000
0000
0100
0010
0000
1000
0000
0000
,
0000
1000
0001
1000
0001
1000
0000
0100
0000
0010
0000
0100
0000
0000
1000
0000
,
0000
0000
0010
1000
0010
0000
0010
0000
1100
0000
0000
0000
0110
0000
0000
0000
,
0000
0000
0010
0100
0010
0000
0010
0000
1001
0000
0000
0000
0011
0000
0000
0000
,
0001
0001
1000
0010
0010
0010
0001
0100
,
1000
1000
0010
0100
0010
0010
0010
0001
,
1000
0100
0000
0100
0010
0000
0000
0000
0010
0001
0000
0000
0001
1000
0000
0000
,
0100
0010
0100
0010
0100
0000
1000
0000
0010
0000
0010
0000
0100
0000
0001
1000
,
0100
0000
0010
0001
1000
0000
0100
0010
0001
0000
0001
1000
0100
0000
0000
0100
,
0000
0100
0001
0000
0000
0000
0000
0000
0000
0000
0010
0001
1000
0100
0000
1000
,
0100
0000
0010
0000
0100
0000
1000
0010
0001
0000
0000
0000
0011
0000
0000
0000
,
1000
0000
0010
0000
0100
0000
0010
1000
0010
0000
0000
0000
1010
0000
0000
0000
,
0000
0100
0110
1000
1001
0010
0011
0100
,
0110
1000
1010
0010
0220
0000
0000
0000
,
0330
0000
0110
1000
1010
0100
0101
0010
,
0220
0000
0000
0330
,
0101
1000
1010
0100
0110
0001
1001
0200
,
0000
0000
0000
0020
0000
0000
0000
0000
,
0330
0000
0101
1000
1010
0100
0110
0001
,
0101
0010
0011
2000
0000
3100
0010
0100
,
0020
0000
1030
0000
0000
1000
0100
1000
,
0200
0000
0301
0000
0000
0100
1000
0100
,
1000
0100
0010
0100
0010
0001
0100
0001
,
0200
0000
0000
0000
1300
0000
1000
0002
0000
0000
0000
0000
0103
0000
0000
0000
,
0100
0000
0000
0000
;

//---------------dance-single - ----------------
#NOTES:
     dance-single:
     :
     Medium:
     6:
     0.399,0.391,0.152,0.041,0.073:
0000
0000
0000
0000
,
0000
0000
0000
0000
,
0000
0000
0000
0000
,
0000
0000
0000
0000
,
0100
0000
0010
0000
1000
0100
0100
0000
,
0010
0000
0010
0000
0100
0001
0010
0000
,
1000
1000
0010
0100
0100
0001
0001
0000
,
0001
0000
1000
0000
1000
0000
0000
0000
0001
0000
0001
1000
0000
0000
0000
0000
,
0001
0100
0010
0000
1000
0100
1000
0000
,
0100
0010
0200
0000
0301
0100
0001
1000
,
0000
0010
0100
0010
0000
0010
0010
0000
,
0100
0000
0001
0000
1000
0010
0100
0000
,
0001
1000
1000
0000
1000
0010
0001
0000
,
0100
0001
1000
0000
0001
0002
0000
1003
,
0000
0000
1000
0000
0010
1000
0010
0000
,
1000
0001
0100
0001
0010
0000
0000
0000
,
0010
0001
0000
0000
0100
0000
0000
0000
0010
0001
0000
0000
0001
0000
0000
0000
,
0010
0100
0000
0000
0001
0000
0000
0000
0001
1000
0000
0000
1000
0000
0000
0000
,
0100
0010
0000
0000
0100
0000
0000
0000
0001
0000
0000
0000
0000
0000
0000
0000
,
0100
0010
1000
0000
0010
0000
0100
0100
,
0000
0010
0010
0000
0010
0000
1000
0001
,
0010
1010
0010
1001
,
0000
0001
0001
0001
0100
0000
0110
0000
,
0000
0000
0000
0000
0010
0000
1010
0000
0000
0000
0000
0010
0000
0000
1001
0000
,
0000
0010
1000
0000
1000
0000
1000
0001
,
1000
0010
0001
0000
0100
0010
0100
0001
,
0000
0100
0000
0000
1000
0000
0000
0100
0000
0000
0100
0000
0000
0000
0000
0000
,
1000
0100
0001
1000
0001
0000
0000
0000
,
0001
0100
0010
1000
1000
0000
0000
0000
,
1000
0010
1000
0001
1000
0100
1000
0000
,
0010
0000
1000
0000
0010
0000
0000
0000
0001
0000
0010
0100
0000
0000
0000
0000
,
1000
0000
0000
0000
0100
0000
1000
0000
0001
0000
0000
0100
0000
0000
0000
0000
,
0100
0000
0010
1000
0010
0100
0000
0000
,
0100
0010
0100
0000
0010
1000
0010
0000
,
1000
0001
1000
0000
0001
0100
0001
0000
,
1000
0100
0010
0100
0001
0000
0110
0000
,
1000
0001
0010
0001
0100
0000
1100
0000
,
0100
0010
1000
0100
1000
0000
0110
0000
,
0010
0001
0010
0100
1000
0000
0101
0000
,
1000
0100
1000
0000
0010
0010
0100
0000
,
0100
0001
0010
0100
1000
0000
1000
0000
,
0100
0010
0100
0000
1000
0000
0110
0000
,
0010
0001
0010
1000
0010
0000
1010
0000
,
0100
0000
0010
0100
0001
0000
0010
0000
,
0100
0000
0001
0000
1000
0100
0000
0000
0001
0000
0000
0010
0100
0000
0000
0000
,
1000
0100
0010
1000
0100
0000
0101
0000
,
0010
1000
0010
0100
0001
0000
1001
0000
,
0000
0010
1000
0000
0100
0010
1000
0000
,
0001
0010
1000
0000
0100
0010
1000
0000
,
0000
0010
0100
0000
0001
0100
0001
0000
,
0110
0001
1001
0000
0100
0000
0010
0000
,
1000
0010
0100
0000
0010
0000
1000
0000
,
0000
0000
0001
0000
1000
0000
0000
0100
0000
0001
0000
1000
0000
0000
0010
0000
,
0000
0100
0010
0010
0000
0010
0100
0000
,
0000
0100
1000
0100
0000
0010
0001
0000
,
0000
0010
0100
0000
1000
0001
1000
0000
,
0010
0001
1000
0000
1000
0100
0010
0001
,
1000
0000
0000
0100
0001
0000
0000
0000
1000
0000
0000
0000
0001
0010
0000
0000
,
0100
0010
0100
1000
0100
0001
0100
0000
,
0010
0000
0000
0000
1000
0000
0010
0000
0100
0000
0000
0000
0100
0000
0000
0001
,
0000
0000
1000
0000
0000
0000
0000
0000
0000
0000
0001
0000
0000
1000
0000
0000
,
0010
0000
0100
0010
0010
0000
0100
0000
,
0100
1000
0100
0010
0001
0000
0010
0000
,
0000
0100
0100
1000
0010
0000
0001
0020
,
0000
0000
0130
0000
,
0110
0000
1000
0100
1000
0000
0100
0000
,
0001
0000
0010
0100
0010
0000
1000
0000
,
0000
0000
0010
0000
0000
0000
0100
0000
1000
0000
0000
0100
0000
0000
0020
0000
,
0000
0000
0000
0130
0000
0000
1000
0000
,
0010
0100
0010
1000
0100
0000
0010
0001
,
0000
1000
0000
0110
0000
0000
0001
0010
,
0100
0000
0000
0000
1100
0000
0100
0010
,
0001
0000
0000
0000
1001
0000
0100
0010
,
0001
0000
0000
0000
1010
0000
0100
0010
,
0001
0000
0101
0000
,
2200
0000
3300
0000
;

//---------------dance-single - ----------------
#NOTES:
     dance-single:
     :
     Easy:
     4:
     0.256,0.339,0.214,0.028,0.003: // measure 1
0000
0000
0000
0000
,  // measure 2
0000
0000
0000
0000
,  // measure 3
0000
0000
0000
0000
,  // measure 4
0000
0000
0000
0000
,  // measure 5
1000
0000
0100
0100
,  // measure 6
0001
0000
1000
1000
,  // measure 7
0010
0001
0001
0000
0010
0100
0100
0000
,  // measure 8
1000
0010
1000
0000
,  // measure 9
0010
1000
0001
1000
,  // measure 10
0100
2000
3000
0100
,  // measure 11
0000
0001
0000
0010
0000
0100
1000
0000
,  // measure 12
1000
0001
0010
0100
,  // measure 13
0001
0001
0100
0010
,  // measure 14
0010
0000
0010
0000
0020
0000
0000
1030
,  // measure 15
0000
0000
0010
0010
,  // measure 16
0001
0010
0010
1000
0010
0000
0000
0000
,  // measure 17
0001
1100
0010
1010
,  // measure 18
0100
1010
0010
1010
,  // measure 19
1000
0011
0001
0000
,  // measure 20
0010
0100
0000
0010
,  // measure 21
0000
0001
1000
0001
,  // measure 22
0000
0011
0000
0101
,  // measure 23
0000
0010
1000
0001
,  // measure 24
0000
0000
0000
0000
0001
0000
1000
0000
0000
0000
0000
0100
0000
0000
1000
0000
,  // measure 25
0000
0001
0000
0001
,  // measure 26
0000
0010
0000
0010
,  // measure 27
0000
0000
0100
0000
0000
0001
0000
0000
,  // measure 28
0010
0001
1000
0000
0100
0000
0000
0000
,  // measure 29
0010
0001
0001
0000
0001
0000
0000
0000
,  // measure 30
0010
0010
0010
0000
0010
0001
0010
0000
,  // measure 31
0100
1000
0001
0000
,  // measure 32
0000
0001
0000
1000
,  // measure 33
0000
1000
0000
1000
,  // measure 34
0000
0100
0000
0001
,  // measure 35
0000
0001
1000
0000
0001
0001
1000
0000
,  // measure 36
0010
0100
0010
0100
,  // measure 37
1000
0100
1000
0100
,  // measure 38
0100
0001
0100
0011
,  // measure 39
0100
0000
0100
1100
,  // measure 40
0100
0001
0000
0000
1000
0010
0000
0000
,  // measure 41
1000
0000
0010
0000
,  // measure 42
0100
0000
1000
1010
,  // measure 43
0000
0010
0000
1000
,  // measure 44
0100
0001
0010
0010
,  // measure 45
1000
1000
0010
0000
0100
0000
0101
0000
,  // measure 46
0000
1000
0000
0101
,  // measure 47
0000
0010
0000
0011
,  // measure 48
0000
1000
0100
1000
,  // measure 49
0100
1000
0001
0001
,  // measure 50
0000
0001
0000
1000
,  // measure 51
0011
1001
0001
1000
,  // measure 52
0000
1000
0100
0000
1000
0000
0001
0000
,  // measure 53
0000
0100
0010
0000
0000
0000
1100
0000
,  // measure 54
0000
0001
0000
1000
,  // measure 55
0000
1000
0000
0010
,  // measure 56
0000
0000
0010
0000
0010
0100
1000
0000
,  // measure 57
0001
1000
0010
0010
,  // measure 58
0000
1100
0000
0101
,  // measure 59
0100
1000
1000
1000
,  // measure 60
0000
0010
0000
1000
,  // measure 61
0001
0010
0000
0000
0100
0000
0010
0000
,  // measure 62
0100
0000
0000
0101
,  // measure 63
0000
0000
0000
0011
,  // measure 64
0010
0100
0100
0000
,  // measure 65
1000
0001
0100
0000
,  // measure 66
1010
1000
0010
0000
,  // measure 67
0110
0100
0001
0000
,  // measure 68
1100
0100
0100
0000
,  // measure 69
1100
0100
0010
0000
,  // measure 70
1100
0010
0010
0000
,  // measure 71
0011
1000
0010
0000
,  // measure 72
0100
0000
0110
0000
,  // measure 73
0001
0000
0101
0000
,  // measure 74
1000
0000
1001
0000
,  // measure 75
0001
0000
1100
0000
,  // measure 76
2200
0000
3300
0000
;
