#TITLE:Snoop Dogg's Dreamland;
#SUBTITLE:;
#ARTIST:barf;
#TITLETRANSLIT:;
#SUBTITLETRANSLIT:;
#ARTISTTRANSLIT:;
#CREDIT:;
#BANNER:;
#BACKGROUND:;
#LYRICSPATH:;
#CDTITLE:;
#MUSIC:Snoop Dogg's Dreamland.mp3;
#OFFSET:0.000;
#SAMPLESTART:42.906;
#SAMPLELENGTH:12.000;
#SELECTABLE:YES;
#BPMS:0.000=186.400;
#STOPS:;
#BGCHANGES:;

//---------------dance-single - ----------------
#NOTES:
     dance-single:
     :
     Hard:
     9:
     0.666,0.619,0.213,0.140,1.000: // measure 1
0110
0000
1000
0100
0001
0100
0010
0000
,  // measure 2
1000
0100
1000
0001
0010
0000
1000
0001
,  // measure 3
0010
0000
0100
0010
0001
0000
1000
0000
,  // measure 4
0100
0010
0100
0010
0200
0000
0300
0000
,  // measure 5
1000
0001
1000
0001
2000
0000
3000
0000
,  // measure 6
0001
0010
0001
0010
0002
0000
0103
0010
,  // measure 7
0001
0000
1000
0010
0001
0100
0010
0000
,  // measure 8
1000
0100
1000
0100
2000
0000
3000
0000
,  // measure 9
0100
0001
0100
0001
0200
0000
0300
0000
,  // measure 10
0010
0000
1000
0000
0010
0000
1000
0000
0020
0000
0000
0100
1030
0000
0100
0000
,  // measure 11
0001
0010
0100
0010
0001
1000
0010
0000
,  // measure 12
0100
0001
0100
0001
0200
0000
0300
0000
,  // measure 13
1000
0100
1000
0100
2000
0000
3000
0000
,  // measure 14
0010
0100
0010
0100
0020
0001
1030
0100
,  // measure 15
0001
0010
1000
0100
0001
0000
1000
0010
,  // measure 16
0100
1000
0010
0000
0010
0000
0001
0010
,  // measure 17
0001
0100
1000
0000
0110
0000
0010
0001
,  // measure 18
1000
0010
0100
0001
1000
0000
0000
0000
,  // measure 19
0000
0000
0100
0010
1000
0000
0011
0000
,  // measure 20
0000
0000
0100
0010
1000
0000
0101
0000
,  // measure 21
0000
0000
1000
0010
0100
0000
1001
0000
,  // measure 22
0000
0100
0001
1000
0000
0110
0000
0000
,  // measure 23
0000
0100
0010
0100
0000
1000
0000
0100
0000
0000
0010
0000
0000
0000
0000
0000
,  // measure 24
0000
0001
1000
0100
1000
0001
0000
0000
,  // measure 25
0000
0001
0000
1000
0100
0010
0000
0000
,  // measure 26
0001
0000
0000
0100
0000
0010
0000
0001
0000
1000
0000
0100
0000
0000
0000
0000
,  // measure 27
0000
0000
0000
0000
0010
0000
0000
0000
0000
0000
0000
0000
0100
0000
0000
0000
0000
0000
0000
0000
0000
0000
0000
0000
0000
0000
0000
0000
0000
0000
0000
0000
0000
0010
0000
0000
0000
0000
0000
0000
0000
0000
0000
0000
0000
0100
0000
0000
,  // measure 28
0000
0001
0000
0010
0000
1000
0000
0100
0000
0010
0000
0000
0000
0001
0000
0010
,  // measure 29
0000
0000
0000
1000
0000
0100
0000
1000
0000
0000
0000
0010
0000
0000
0000
0001
,  // measure 30
0000
0010
0000
0100
0000
0000
0000
0001
0000
1000
0000
0000
0000
0000
0000
0100
,  // measure 31
0000
0001
0000
1000
0000
0100
0000
0001
0000
0000
0000
0001
0000
0000
0000
1000
,  // measure 32
0000
0100
0000
0010
0000
1000
0000
0001
0000
0100
0000
0000
0000
0000
0000
0010
,  // measure 33
0000
0000
0000
1000
0000
0100
0000
1000
0000
0000
0000
0001
0000
0100
0000
0010
,  // measure 34
0000
1000
0000
0001
0000
0100
0000
0010
0000
0001
0000
0000
0000
0000
0000
0001
,  // measure 35
0000
0010
0000
1000
0000
0100
0000
1000
0000
0000
0000
0100
0000
0010
0000
0001
,  // measure 36
0000
1000
0000
0010
0000
0100
0000
0010
0000
0000
0000
1000
0000
0100
0000
0010
,  // measure 37
0000
0001
0000
0010
0000
0100
0000
1000
0000
0000
0000
0100
0000
0010
0000
0001
,  // measure 38
0000
0010
0000
0100
0000
1000
0000
0100
0000
0000
0000
0000
0000
0100
0000
0010
,  // measure 39
0000
0000
0000
0001
0000
1000
0000
0001
0000
1000
0000
0100
0000
0010
0000
0110
,  // measure 40
0000
0000
0000
1000
0000
0100
0000
0001
0000
0000
0000
0001
0000
0000
0000
0100
,  // measure 41
0000
0000
0000
0010
0000
0001
0000
0000
0000
0000
1000
0000
0100
0000
1000
0000
,  // measure 42
0000
0010
0001
0000
0000
0100
0010
0001
,  // measure 43
1000
0100
0010
1000
0001
0100
1000
0010
,  // measure 44
0000
0000
0010
0000
0001
0000
0000
0000
0000
1000
0000
0100
0000
1000
0000
0001
,  // measure 45
0000
0010
0000
0100
0000
0000
0000
0000
0100
0000
0010
0000
0001
0000
1000
0000
,  // measure 46
0000
0000
0000
0000
0000
0000
0000
0000
0000
0000
0000
0100
0000
0010
0000
1000
,  // measure 47
0000
0000
0000
0000
0000
0100
0001
1000
,  // measure 48
0000
0110
0000
0110
0000
0000
0001
1000
,  // measure 49
0100
0010
1000
0001
0100
0010
0000
1001
,  // measure 50
0000
0110
0000
1001
0000
0000
0000
0110
,  // measure 51
0000
0001
1000
0100
0001
0100
0000
0001
,  // measure 52
1000
0100
1000
0001
0000
0100
1000
0001
,  // measure 53
0000
0010
0001
1000
0000
0100
0000
0010
,  // measure 54
0001
0010
0001
0020
0000
0030
0000
0100
,  // measure 55
1000
0100
1000
0200
0000
0300
0000
1000
,  // measure 56
0001
1000
0001
2000
0000
3010
0001
1000
,  // measure 57
0000
0100
0001
1000
0010
0001
0000
0100
,  // measure 58
0010
0100
0010
0200
0000
0300
0000
0010
,  // measure 59
1000
0010
1000
0020
0000
0030
0000
0001
,  // measure 60
0100
0000
0001
0000
0100
0000
0002
0000
0000
0010
0103
0000
0010
0000
1000
0000
,  // measure 61
0001
0010
0001
1000
0100
0001
0000
0010
,  // measure 62
1000
0010
1000
0020
0000
0030
0000
0100
,  // measure 63
0010
0100
0010
0200
0000
0300
0000
0001
,  // measure 64
0010
0001
0010
0002
1000
0103
0010
1000
,  // measure 65
0001
0100
0010
1000
0000
0100
0001
0010
,  // measure 66
0100
0001
0000
0001
0000
1000
0001
1000
,  // measure 67
0010
0100
0000
0011
0000
0001
1000
0100
,  // measure 68
0001
0010
1000
0100
0000
0000
0000
0000
,  // measure 69
0000
1000
0010
0100
0000
0001
0000
0000
,  // measure 70
0010
0001
0000
1000
0100
0000
0000
0010
,  // measure 71
0100
0000
0011
0000
1000
0000
0100
0010
,  // measure 72
1000
0100
0001
0010
0000
0000
0000
0100
,  // measure 73
0010
0100
0010
0000
0110
0000
1000
0100
,  // measure 74
0001
0000
1000
0000
0100
0000
0000
0000
0110
0000
0000
1000
0001
0000
0100
0000
,  // measure 75
0010
1000
0001
0000
0110
0000
0001
0000
,  // measure 76
0100
0001
0010
0000
0110
0000
0000
0000
,  // measure 77
0100
1000
0100
1000
0010
0001
0100
0010
,  // measure 78
1000
0000
0100
0000
0001
0000
1000
0000
0100
0000
0000
0000
0000
0000
0000
0100
,  // measure 79
0000
0010
0000
0000
0000
1000
0000
0100
0000
0000
0000
0010
0000
0001
0000
0100
,  // measure 80
0000
1000
0000
0010
0000
0001
0000
0000
0001
0000
0000
0000
0000
0000
0000
0000
,  // measure 81
0000
0010
0000
0000
0000
1000
0000
0100
0000
0010
0000
0100
0000
1100
0000
0000
,  // measure 82
0000
0110
0000
0000
0000
0011
0000
0000
0000
0000
0000
0000
0000
0100
0000
0000
,  // measure 83
0000
0001
0000
1000
0000
0100
0000
1000
0000
0001
0000
0000
0000
0001
0000
0000
,  // measure 84
0000
0100
0000
0010
0000
0100
0000
0001
0000
0110
0000
0000
0000
0000
0000
0100
,  // measure 85
0000
0010
0000
0000
0000
1000
0000
0100
0000
0010
0000
1000
0000
0001
0000
0100
,  // measure 86
0000
1000
0000
0001
0000
0100
0000
0010
0000
1000
0000
0100
0000
0010
0000
0001
,  // measure 87
0000
0100
0000
1000
0000
0010
0000
1000
0000
0001
0000
0010
0000
0100
0000
0000
,  // measure 88
0000
0010
0000
0000
0000
0001
0000
1000
0000
0000
0000
0000
0000
0000
0100
0000
,  // measure 89
0010
1000
0001
0000
0001
1000
0100
0010
,  // measure 90
0100
1000
0000
0010
0001
0100
1000
0000
,  // measure 91
0100
0010
0000
0010
0000
0010
0000
0010
,  // measure 92
0001
0010
0011
0000
1000
0000
0100
0010
,  // measure 93
0000
0000
0000
0000
0100
0000
0000
0000
0000
0000
0000
0000
0000
0000
0010
0000
0000
0000
0000
0000
0100
0000
0000
0000
0000
0000
1000
0000
0000
0000
0000
0000
0000
0000
0000
0000
0000
0000
0000
0100
0000
0000
0000
0000
0000
0001
0000
0000
,  // measure 94
0000
1000
0000
0010
0000
0100
0000
1000
0000
0000
0000
0100
0000
0010
0000
1000
,  // measure 95
0000
0010
0000
0100
0000
0001
0000
0000
0000
1000
0000
0100
0000
0010
0000
0000
,  // measure 96
0000
0010
0000
0000
0000
0001
0000
0010
0000
0000
0000
0000
1000
0000
0100
0000
,  // measure 97
0001
0100
0010
1000
0100
0001
0010
0000
,  // measure 98
0010
0100
1000
0010
0000
0000
0100
0000
,  // measure 99
0010
0001
1000
0100
0000
0010
0001
1000
,  // measure 100
0001
1000
0100
0010
0000
0000
0011
0000
,  // measure 101
0001
0100
0010
1000
0010
0000
0001
0100
,  // measure 102
0010
0000
0100
0000
1000
0000
0000
1000
0000
0001
0000
0010
0000
0000
0000
0100
,  // measure 103
0000
0010
0000
0001
0000
0000
0000
1000
0000
0000
0000
0100
0000
0010
0000
0100
,  // measure 104
0000
0010
0000
0200
0000
0000
0000
0300
0000
0000
0000
1000
0000
0001
0000
1000
,  // measure 105
0000
0001
0000
2000
0000
0000
0000
0000
3000
0000
0000
0001
0000
0010
0000
0001
,  // measure 106
0000
0010
0000
0002
0000
0000
0000
0100
0003
0010
0000
0001
0000
0000
0000
1000
,  // measure 107
0000
0010
0000
0001
0000
0100
0000
0010
0000
0000
0000
1000
0000
0100
0000
1000
,  // measure 108
0000
0100
0000
2000
0000
0000
0000
0000
3000
0000
0000
0100
0000
0001
0000
0100
,  // measure 109
0000
0001
0000
0200
0000
0000
0000
0000
0300
0000
0000
0010
0000
1000
0000
0010
,  // measure 110
0000
1000
0000
0020
0000
0000
0100
1000
0030
0100
0000
0001
0000
0010
0000
0100
,  // measure 111
0000
0010
0000
0001
0000
1000
0000
0010
0000
0000
0000
0100
0000
0001
0000
0100
,  // measure 112
0000
0001
0000
0200
0000
0000
0000
0000
0300
0000
0000
1000
0000
0100
0000
1000
,  // measure 113
0000
0100
0000
2000
0000
0000
0000
0000
3000
0000
0000
0010
0000
0100
0000
0010
,  // measure 114
0000
0100
0000
0020
0000
0001
0000
1000
0030
0100
0000
0001
0000
0010
0000
1000
,  // measure 115
0000
0100
0000
0001
0000
0000
0000
1000
0000
0010
0000
0100
0000
1000
0000
0010
,  // measure 116
0000
0000
0000
0010
0000
0000
0000
0001
0000
0010
0000
0001
0000
0100
0000
1000
,  // measure 117
0000
0000
0000
0110
0000
0000
0000
0010
0000
0001
0000
1000
0000
0010
0000
0100
,  // measure 118
0000
0001
0000
1000
0000
0000
0000
0000
0000
0000
0000
0000
0000
0000
1000
0000
,  // measure 119
0100
0000
0010
0000
0000
0000
0010
0000
0000
0000
0000
0000
0000
0000
0000
0100
,  // measure 120
0000
0010
0000
1000
0000
0100
0000
0010
0000
0000
0000
0000
0000
0000
0000
0100
,  // measure 121
0000
0010
0000
1000
0000
0000
0000
0001
0000
0000
0000
0000
0000
0001
0000
0010
,  // measure 122
0000
1000
0000
0100
0000
0000
0000
0010
0000
0000
0000
0000
0000
0000
0000
0000
,  // measure 123
0000
1000
0000
0100
0000
0010
0000
0000
0000
0001
0000
0000
0000
0000
0000
0100
,  // measure 124
0000
0010
0000
1000
0000
0000
0000
0011
0000
0000
0000
0000
0000
0000
0000
1100
,  // measure 125
0000
0000
0000
0110
0000
0000
0000
0011
0000
0000
0000
1001
0000
0000
0000
1100
,  // measure 126
0000
0000
0000
0110
0000
0000
0000
0011
0000
0000
0000
0000
0000
0000
0100
0000
,  // measure 127
0010
0000
1000
0000
0100
0000
0000
0100
0000
0000
0000
0010
0000
0000
0000
0001
,  // measure 128
0000
0010
0000
0001
0000
0010
0000
0000
0000
0000
0000
0000
0000
1000
0000
0100
,  // measure 129
0000
1000
0000
0010
0000
0001
0000
0000
0000
0000
0000
0000
0000
0100
0000
1000
,  // measure 130
0000
0010
0000
0100
0000
0000
0000
0100
0000
0000
0000
0000
0000
1000
0000
0100
,  // measure 131
0000
0001
0000
0100
0000
1001
0000
0000
0000
0100
0000
0010
0000
0100
0000
0010
,  // measure 132
0000
0100
0000
0000
0000
0100
0000
0000
0000
0000
0000
0100
0000
0000
0000
0100
,  // measure 133
0000
0000
0000
0010
0000
0001
0000
0010
0000
0001
0000
1000
0000
0000
0000
0100
,  // measure 134
0000
0010
0000
1000
0000
0000
0000
0010
0000
0000
0000
0000
0000
0000
0000
0000
,  // measure 135
1000
0100
0000
1000
0000
0000
0000
0010
,  // measure 136
0001
0000
1000
0000
0100
0000
0100
0000
0000
0000
0000
0000
0000
0000
0000
0010
,  // measure 137
0000
0000
0100
0000
1000
0000
0000
0100
0000
0000
0000
0000
0000
0001
0000
0010
,  // measure 138
0000
1000
0000
0100
0000
0010
0000
0000
0000
0000
0000
0000
0000
1000
0000
1100
,  // measure 139
0000
0000
0100
0000
0000
0000
1000
0000
0000
0000
0000
0000
0000
1000
0000
1000
,  // measure 140
0000
1001
0000
0000
0000
0110
0000
0000
0000
0000
0000
0000
0010
0000
0001
0000
,  // measure 141
0001
1000
0000
0100
0100
0011
1000
0100
,  // measure 142
0100
0000
0001
0000
0000
0000
0100
0000
0000
0000
0000
0000
0000
0100
0000
0000
,  // measure 143
1000
0000
0010
0000
0000
1000
0000
0000
1000
0000
0000
0001
0000
0000
0000
1000
,  // measure 144
0000
0100
0000
0000
0000
0010
0000
0100
0000
0001
0000
0000
0000
1000
0000
0100
,  // measure 145
0000
0010
0000
0100
0000
0001
0000
1000
0000
0100
0000
0010
0000
1000
0000
0001
,  // measure 146
0000
0000
0000
0101
0000
0000
0000
0000
0000
0000
0000
0000
0000
0000
0100
0000
,  // measure 147
0010
0000
0000
0000
0000
0000
1000
0000
0100
0000
0010
0000
0000
1000
0000
0000
,  // measure 148
0001
0000
0000
0000
0100
0000
0000
0000
0000
1000
0000
0100
0000
0010
0000
0001
,  // measure 149
0000
0000
0000
0000
0000
1000
0000
0100
0000
0010
0000
0001
0000
0010
0000
0100
,  // measure 150
0000
0110
0000
0000
0000
0000
0000
0000
;
