#TITLE:Shiver;
#SUBTITLE:;
#ARTIST:Cause 4 Concern;
#TITLETRANSLIT:;
#SUBTITLETRANSLIT:;
#ARTISTTRANSLIT:;
#GENRE:;
#CREDIT:;
#BANNER:Shiver.png;
#BACKGROUND:Shiver-bg.png;
#LYRICSPATH:;
#CDTITLE:;
#MUSIC:Shiver.mp3;
#OFFSET:-0.007000;
#SAMPLESTART:31.452000;
#SAMPLELENGTH:15.024000;
#SELECTABLE:YES;
#BPMS:0.000000=171.729004
;
#STOPS:
;
#BGCHANGES:0.000=Shiver.mp4=1.000=0=0=1=====,
322.000=Shiver-bg.png=1.000=0=0=0=StretchNoLoop====,
99999=-nosongbg-=1.000=0=0=0 // don't automatically add -songbackground-
;
#KEYSOUNDS:;
#ATTACKS:;

//---------------dance-single - ----------------
#NOTES:
     dance-single:
     :
     Easy:
     4:
     0.254822,0.375042,0.199157,0.017318,0.000000,206.000000,183.000000,23.000000,2.000000,0.000000,0.000000,0.000000,0.000000,0.000000,0.254822,0.375042,0.199157,0.017318,0.000000,206.000000,183.000000,23.000000,2.000000,0.000000,0.000000,0.000000,0.000000,0.000000:
0000
0000
0000
0000
,
0000
0000
0000
0000
,
0000
0000
0000
0000
,
0000
0000
0000
0000
,
0000
0000
0000
0000
,
0000
0000
1000
0000
0100
0000
1000
0010
,
0000
0100
0001
0000
1000
0000
0100
0010
,
0000
0001
0100
0000
0001
0000
0000
0010
,
0000
0100
1000
0000
0000
0000
0010
0100
,
0000
0001
0020
0000
,
0000
0030
1010
0000
,
0000
0001
0000
0000
,
1000
0000
0000
0000
0010
0000
0100
0001
,
0000
0100
0001
0000
1000
0000
0000
0000
,
0000
1000
0100
1001
,
0000
0000
0000
0000
,
0001
0000
0000
0000
0000
0000
0000
1000
,
0000
0000
0011
0000
0000
0000
0000
0011
,
0000
0110
0000
0000
,
0000
1000
0000
0000
,
0000
0000
0000
0000
0011
0000
0000
0101
,
0000
0000
0000
1001
,
0000
1010
1010
0110
,
0000
0110
0000
0000
,
0000
0011
0000
0000
,
0000
0000
1010
0000
0000
0000
0100
0010
,
0000
1001
0000
0000
,
0000
1000
0110
0000
,
0000
0000
0000
0000
0000
0000
0001
0010
,
0000
0000
0000
0000
0000
0000
0001
1000
,
0000
0000
1001
0000
,
0000
0000
0000
0000
,
0000
0000
0000
0000
0110
0000
0100
0110
,
0000
0000
0000
0000
0100
0000
1000
0001
,
0000
0000
0100
0000
0000
0000
0010
1000
,
0000
0010
0100
0000
0000
0000
0000
0001
,
0000
0010
0001
0000
0010
0000
0100
1000
,
0000
0100
0000
0000
1000
0000
0100
1000
,
0000
0100
0110
0000
,
0000
0000
0001
0000
0000
0000
0010
0001
,
0000
0010
0000
0000
0000
0000
0001
1000
,
0000
0000
0010
0000
1000
0000
0010
0100
,
0000
0000
0001
0000
0100
0000
0001
0100
,
0000
0010
1000
0000
0100
0000
0000
1000
,
0000
0010
0000
0000
1000
0000
0001
0010
,
0000
0001
0010
0001
,
0000
0000
0010
0000
0100
0000
0000
0010
,
0000
0100
0000
0000
0000
0000
0000
0000
,
0000
0000
0000
0000
0000
0000
0000
0010
,
0000
0001
0100
0000
,
0000
0000
0001
0000
0010
0000
0001
0010
,
0000
0010
0100
0000
0010
0000
0000
0001
,
0000
0000
0000
0000
0000
0000
0001
0100
,
0000
0010
0110
0000
,
0000
0000
1000
0000
0100
0000
0010
0001
,
0000
0000
1000
0000
0010
0000
0000
0100
,
0000
0000
0001
0000
0000
0000
1000
0100
,
0000
0000
0000
0000
,
0000
0010
0001
0000
,
0000
0000
1001
0000
0000
0000
0000
1000
,
0000
0010
0000
0000
0100
0000
0001
1000
,
0000
0000
0100
0000
0010
0000
0000
0100
,
0000
1001
0000
0000
,
0000
0000
0000
0000
,
0000
0000
0001
0000
,
0000
0000
0000
0000
1000
0000
0010
0100
,
0000
0000
0000
0010
,
0000
1000
0000
0000
,
0000
0000
0000
0000
0000
0000
0001
0100
,
0000
0001
0100
0010
,
0000
1000
0100
0000
,
0000
0010
0000
0000
,
0000
0000
0000
0000
0000
0000
0001
1000
,
0000
0000
0010
0000
0100
0000
0010
1000
,
0000
0000
0001
0000
0010
0000
0100
1000
,
0000
0000
0001
0000
0100
0000
0010
1000
,
0000
0000
1000
0000
0000
0000
0001
0010
,
0000
0100
0010
0000
0100
0000
1000
0001
,
0000
0100
0020
0030
;

//---------------dance-single - ----------------
#NOTES:
     dance-single:
     :
     Medium:
     6:
     0.404498,0.418229,0.025977,0.034636,0.000000,327.000000,324.000000,3.000000,4.000000,0.000000,0.000000,1.000000,0.000000,0.000000,0.404498,0.418229,0.025977,0.034636,0.000000,327.000000,324.000000,3.000000,4.000000,0.000000,0.000000,1.000000,0.000000,0.000000:
0000
0000
0000
0000
,
0000
0000
0000
0000
,
0000
0000
0000
0000
,
0000
0000
0000
0000
,
0000
0000
0000
0000
1000
0000
0100
0010
,
0000
0001
1000
0000
0010
0000
0100
0001
,
0000
1000
0100
0000
0010
0000
0001
0100
,
0000
0010
1000
0000
0010
0000
0100
0001
,
0000
0010
0001
0000
1000
0000
0001
0100
,
0000
0000
0010
0000
1000
0000
0001
1000
,
0000
0000
0100
0000
0010
0000
0001
0010
,
0000
0100
1000
0000
0001
0000
1000
0010
,
0000
0100
0010
0000
1000
0000
0001
0010
,
0000
0100
1000
0000
0001
0000
0100
0001
,
0000
1000
0100
0000
1000
0000
0001
0100
,
0000
0000
0020
0000
0000
0000
0030
0110
,
0000
1000
0001
0000
0000
0000
0010
0001
,
0000
0000
0100
0000
0110
0000
0000
1000
,
0000
0000
1000
0000
0001
0000
0000
0001
,
0000
0100
0010
0000
0000
0000
1000
0010
,
0000
0000
1000
0000
0001
0000
1000
0100
,
0000
0000
0010
0000
0010
0000
0010
0001
,
0000
0001
1000
0000
0010
0000
0010
0100
,
0000
0100
0001
0000
0000
0000
0000
1000
,
0000
0100
0010
0000
0000
0000
0001
1000
,
0000
0000
0010
0000
1000
0000
0010
1000
,
0000
0001
1000
0000
0100
0000
1000
0000
,
0000
0001
1000
0000
0010
0100
0000
0001
,
0000
0100
0000
0000
0010
0000
1000
0001
,
0000
0010
0001
0000
0100
0000
0010
1000
,
0000
0000
0001
0000
0010
0000
0000
0001
,
0000
0000
0100
0000
0000
0010
1000
0000
,
0000
0000
0000
0000
0001
0000
0010
0100
,
0000
0000
1000
0000
0010
0000
0100
0001
,
0000
1000
0100
0000
1000
0000
0001
0100
,
0000
0010
0100
0000
0001
0000
0000
1000
,
0000
0100
0010
0000
0100
0000
1000
0010
,
0000
0100
0001
0000
1000
0000
0100
0020
,
0000
0000
0130
0000
0001
0000
0000
0001
,
0000
0100
0001
0000
0000
0000
1000
0001
,
0000
1000
0010
0000
1000
0000
0100
0010
,
0000
0000
0100
0000
1000
0000
0001
0100
,
0000
0001
1000
0000
0100
0000
0010
0001
,
0000
1000
0010
0000
0100
0000
0001
0010
,
0000
0100
1000
0000
0001
0000
0100
0001
,
0000
0010
0001
0000
0010
0000
0100
1000
,
0000
0001
1000
0000
0001
0000
0000
0100
,
0000
0010
0000
0000
0000
0000
0100
0001
,
0000
0010
0000
0000
0100
0000
1000
0100
,
0000
0000
0100
0000
0010
0000
0001
0100
,
0000
0000
0001
0000
1000
0000
0100
1000
,
0000
0100
0010
0000
0001
0000
0010
0001
,
0000
0010
0001
0000
0100
0000
0010
1000
,
0000
0000
0010
0000
0100
0000
0001
1000
,
0000
0010
1000
0000
0001
0000
1000
0100
,
0000
0010
0001
0000
0011
0000
0000
1000
,
0000
0001
0010
0000
0001
0000
0100
0010
,
0000
1000
0100
0000
1000
0000
0010
0100
,
0000
0010
1000
0000
0001
0000
0010
0001
,
0000
0100
0010
0000
0000
0000
0000
0100
,
0000
0001
1000
0000
0100
0000
0010
0001
,
0000
1000
0001
0000
0100
0000
0010
1000
,
0000
0010
0100
0000
0001
0000
1000
0001
,
0000
0010
0400
0000
0000
0000
0000
0000
,
0000
0000
0000
1300
0002
0000
0003
0002
,
0000
0003
1000
0000
0100
0000
1000
0001
,
0000
0010
0100
1000
,
0000
0010
0100
0000
0001
0000
0000
0010
,
0000
0100
1000
0000
0001
0000
1000
0100
,
0000
0000
0010
0000
0001
0000
1000
0001
,
0000
0100
0010
0000
1000
0000
0000
0100
,
0000
0010
0001
0000
1000
0000
0000
0010
,
0000
0100
0001
0000
1000
0000
0100
0010
,
0000
0001
1000
0000
0010
0000
0100
0001
,
0000
1000
0100
0000
1000
0000
0001
0100
,
0000
0001
0010
0000
0100
0000
0010
0001
,
0000
1000
0010
0000
1000
0000
0001
0100
,
0000
0010
1000
0000
0001
0000
1000
0100
,
0000
0010
0001
0000
0100
0000
0010
1000
,
0000
0000
0000
0000
0000
0001
0010
0000
,
0001
0000
0010
0000
;

//---------------dance-single - ----------------
#NOTES:
     dance-single:
     :
     Hard:
     8:
     0.588811,0.557639,0.017318,0.294405,0.077931,476.000000,474.000000,2.000000,34.000000,0.000000,0.000000,0.000000,0.000000,0.000000,0.588811,0.557639,0.017318,0.294405,0.077931,476.000000,474.000000,2.000000,34.000000,0.000000,0.000000,0.000000,0.000000,0.000000:
0000
0000
0000
0000
,
0000
0000
0000
0000
,
0000
0000
0000
0000
,
0000
0000
0000
0000
,
0000
0000
0000
0000
0200
0000
0301
0002
,
0000
1003
2000
0000
3010
0000
0100
0001
,
0000
1000
0020
0000
2030
0000
3100
2000
,
0000
3001
2000
0000
3001
0100
0001
1000
,
0000
0000
0100
0000
0010
0000
0000
0001
0010
0000
0000
0000
0100
0000
1000
0000
,
0010
1000
0001
0000
0010
0100
1000
0001
,
0010
0001
0010
0000
0001
0000
0100
0010
,
0000
1000
0100
1000
0010
0100
0001
1000
,
0000
0100
0010
0001
0100
0000
0010
0100
,
0001
1000
0100
0000
0010
0001
1000
0010
,
0100
0010
1000
0000
0001
0000
0010
0001
,
0000
1000
0001
0100
0010
0000
1000
0010
,
0000
0000
1000
0000
0100
0000
0010
0001
1000
0000
0000
0000
0100
0000
0010
0000
,
0000
0001
0100
0000
0010
0000
1000
0100
,
0000
0000
0010
0000
0001
0000
0000
0000
1000
0000
0000
0000
0100
0000
1000
0001
,
0000
0100
0001
0010
0001
0010
0100
1000
,
0000
0010
0100
0000
0001
1000
0100
0010
,
0000
0001
0100
0000
0001
1000
0100
1000
,
0000
0001
0100
0010
1000
0000
0001
0010
,
0000
0000
0100
0000
1000
0000
0010
0000
0100
0000
0001
0000
0000
0000
1000
0010
,
0000
0000
0100
0000
0001
0000
0000
1000
0100
0000
0010
0000
0001
0000
1000
0000
,
0000
0010
1000
0000
0100
0010
0001
0010
,
0000
0000
0100
0000
1000
0000
0000
0000
0001
0000
0000
0000
0100
0000
0010
1000
,
0000
0100
1000
0100
0010
0001
0100
0010
,
0000
1000
0001
0010
0100
1000
0010
1000
,
0000
0001
0100
0000
0001
0010
0100
1000
,
0000
0000
0100
0000
0010
0000
0000
0000
0001
0000
0100
0000
0010
0000
1000
0001
,
0000
0000
0010
0000
0100
0000
0000
1000
0001
0000
0100
0000
0010
0000
0000
0000
,
1000
0000
0001
0000
0000
0000
0010
0000
0100
1000
0000
0000
0010
0000
1000
0000
,
0000
0100
0010
0000
0002
0000
0103
0010
,
0000
0000
1000
0000
0001
0000
0000
0000
0010
0100
0000
0000
1000
0000
0010
0000
,
0000
0100
0001
0000
0010
0000
0100
1000
,
0000
0010
0100
0000
0001
0000
1000
0001
,
0000
0010
0100
0000
1000
0000
0010
0100
,
0001
0010
0200
0000
0310
0000
0001
2000
,
0000
3010
2010
0000
3002
0000
1003
0100
,
0000
0000
0010
0000
0001
0000
0000
1000
0001
0000
0000
0000
1000
0000
0010
0000
,
0100
0001
1000
0000
0200
0000
0310
0001
,
0100
0010
2000
0000
3001
0010
0100
2000
,
0000
3010
1000
0001
0100
0010
0100
0001
,
0000
1000
0100
0010
0001
1000
0010
0100
,
0000
0001
1000
0000
0100
0000
0010
0001
,
0000
0100
0001
0100
0010
1000
0010
0100
,
0000
0001
0100
0000
0010
1000
0100
0010
,
0000
0000
0001
0000
0100
0000
0010
1000
0001
0000
0000
0000
0010
0000
0100
0000
,
1000
0010
1000
0000
0100
0010
0100
0010
,
0001
1000
0001
0000
0100
0000
0010
1000
,
0000
0001
0010
0100
1000
0010
0100
0001
,
0000
1000
0100
0000
0010
0000
0001
0100
,
0010
0100
0001
0010
0100
0000
1000
0001
,
1000
0001
0100
0000
0001
0000
0010
0010
,
1000
0010
0100
0000
0100
0010
1000
0100
,
0010
0000
0100
0000
0010
0000
0000
0100
1000
0000
0000
0000
0001
0000
1000
0000
,
0000
0010
0100
0001
0100
0010
1000
0001
,
1000
0100
0010
0001
0010
0000
1000
0100
,
1000
0100
0010
0001
0010
0100
1000
0002
,
0000
0103
0010
0000
2000
3100
1000
1100
,
0000
0100
0010
0001
0010
0100
1000
0001
,
0100
0000
0001
0000
1000
0000
0000
0000
0100
0000
0000
0000
0010
0000
0001
1000
,
0002
0000
1003
0000
0010
0000
0100
0020
0000
0000
1030
0000
0002
0000
0000
0000
,
1003
0000
0000
0000
0000
0000
0100
0000
0010
0001
0010
0000
0100
0000
2000
0000
,
0000
3010
0200
0000
0301
0000
0010
0100
,
0000
1000
0100
0000
0010
0000
0001
0010
,
0000
0100
1000
0000
0001
0010
0100
0020
,
0000
0031
1000
0010
1000
0001
0100
0020
,
0000
0000
1030
0000
0002
0000
0000
0000
0023
0000
0000
0000
0230
0000
1300
0100
,
0000
1000
0010
0000
0100
0000
0010
1000
,
0000
0100
0010
0001
1000
0010
1000
0200
,
0000
0000
0310
0000
0001
0000
0000
0100
0010
0000
1000
0000
0001
0000
0010
0000
,
0100
1000
0020
0000
1030
0000
0001
1000
,
0000
0001
1000
0000
0200
0000
0310
0001
,
0000
0100
0001
0000
0010
0000
0100
1000
,
0000
1000
0010
1000
0200
0000
0310
0002
,
0000
1003
0002
0000
1003
0000
1000
0100
,
0000
0010
0100
0000
1000
0010
0100
0002
,
0000
0103
0001
0100
0001
0010
0001
1000
,
0000
0010
0100
0001
0010
0000
0000
0000
;

//---------------dance-single - ----------------
#NOTES:
     dance-single:
     :
     Challenge:
     11:
     1.072477,1.045572,0.320382,0.121226,1.034749,867.000000,830.000000,37.000000,14.000000,0.000000,0.000000,0.000000,0.000000,0.000000,1.072477,1.045572,0.320382,0.121226,1.034749,867.000000,830.000000,37.000000,14.000000,0.000000,0.000000,0.000000,0.000000,0.000000:
// measure 0
0000
0000
0000
0000
,  // measure 1
0000
0000
0000
0000
,  // measure 2
0000
0000
0000
0000
,  // measure 3
0000
0000
0000
0000
,  // measure 4
0000
0000
0000
0000
0000
0000
0000
0000
0100
0001
0010
0000
0100
0000
1000
0010
,  // measure 5
0100
0000
0010
0000
1000
0010
1000
0000
0001
0000
0010
0100
1000
0000
0001
0010
,  // measure 6
0100
0000
1000
0000
0001
0100
0010
0000
0100
0001
1000
0000
0010
0000
0100
0001
,  // measure 7
1000
0000
0100
0000
0010
0000
0001
0000
1000
0010
1000
0000
0001
0000
0001
0010
,  // measure 8
0100
0000
1000
0000
0010
0000
0100
0001
0100
0001
0000
0000
1000
0000
0001
0010
,  // measure 9
0100
0000
1000
0000
0001
0000
0100
0000
0010
1000
0001
0000
0100
0000
0010
1000
,  // measure 10
0001
0000
0010
0000
0001
1000
0010
0000
0100
0010
0000
0000
1000
0000
0001
0010
,  // measure 11
0001
0000
1000
0000
0010
0000
1000
0000
0001
0000
0010
0100
1000
0000
0010
0100
,  // measure 12
0001
0000
1000
0000
1000
0000
0010
0000
0100
0001
1000
0000
0100
0000
1000
0010
,  // measure 13
0100
0000
0001
0000
0010
0000
0100
0000
0110
0000
1000
0000
0100
0000
1000
0001
,  // measure 14
1000
0000
0010
0000
0100
0000
0001
0000
0100
0001
1000
0100
1000
0000
0001
0010
,  // measure 15
0001
0000
0001
0000
0100
0000
0010
1000
0010
1000
0001
0000
1000
0000
0100
0010
,  // measure 16
0100
0000
1000
0000
0100
0000
0010
0100
1000
0001
0100
0001
0010
0000
0001
1000
,  // measure 17
0001
1000
0010
0000
0100
0001
0010
0100
0010
0000
0001
0000
1000
0010
0100
0010
,  // measure 18
1000
0001
0010
0000
0100
1000
0010
0100
0001
0000
1000
0100
0010
0000
0001
1000
,  // measure 19
0100
1000
0010
0000
0100
0000
0001
0100
0010
1000
0100
0000
0010
0001
1000
0001
,  // measure 20
0100
0000
0100
0000
0010
0000
1000
0001
0010
0000
0010
0100
1000
0000
0001
0100
,  // measure 21
0010
1000
0200
0000
0310
0001
1000
0010
1000
0000
0010
0000
0100
0000
0001
0010
,  // measure 22
0100
0000
0010
0000
0011
0000
0001
1000
0001
0100
0010
0100
0010
0000
1000
0001
,  // measure 23
1000
0100
1000
0010
0100
0001
0100
0001
0010
0100
1000
0001
1000
0001
1000
0100
,  // measure 24
1000
0000
0010
0000
0100
0000
0001
1000
0001
1000
0001
0000
0010
0000
0001
1000
,  // measure 25
0010
1000
0010
0100
0001
0010
0100
0010
0100
1000
0001
0100
0001
0000
0100
0010
,  // measure 26
1000
0001
0010
0100
0010
0001
1000
0010
0100
0000
0001
0000
1000
0000
0001
0100
,  // measure 27
0001
0000
1000
0000
0100
1000
0001
0100
0001
0000
0010
0100
0010
0000
0001
1000
,  // measure 28
0010
1000
0001
0000
0010
0000
0100
1000
0001
1000
0010
0000
0100
0000
0001
1000
,  // measure 29
0001
1000
0001
0000
1000
0010
1000
0001
0010
0000
0001
0000
1000
0000
0001
0100
,  // measure 30
0010
0100
0001
1000
0001
1000
0100
1000
0010
0000
1000
0001
1000
0000
0100
0001
,  // measure 31
1000
0001
0110
0000
1000
0100
0010
0001
1000
0010
0100
0001
0010
0000
0100
1000
,  // measure 32
0001
0000
0100
0010
1000
0000
0001
0000
0010
0100
0000
1000
0001
0000
0100
0000
,  // measure 33
0010
0000
0001
0000
1010
0000
1000
0001
1000
0000
1000
0000
1010
0000
0001
0000
,  // measure 34
1100
0000
0010
0000
0210
0000
2300
0000
3001
1000
0020
0000
0130
0000
0010
0000
,  // measure 35
1000
0001
1001
0010
0100
1000
0011
0001
,  // measure 36
1000
0000
0010
0000
0110
0000
1000
0000
0001
1000
0100
0000
0110
0000
0010
0001
,  // measure 37
1000
0001
0011
0110
1010
0010
0101
0011
,  // measure 38
1100
0000
0010
0000
1100
0000
0010
0000
1000
0001
1000
0000
0011
0000
0010
0000
,  // measure 39
0101
0000
1001
0000
2001
0000
3001
0000
0100
0010
0001
0000
0011
0000
0010
0000
,  // measure 40
1100
0000
0100
0000
0020
0000
0000
0030
1010
1000
0001
0000
0011
0000
1000
0100
,  // measure 41
0010
0000
1000
0000
0101
0000
1010
0010
0100
0000
1001
0000
0101
0000
1000
0001
,  // measure 42
1000
0000
0100
0000
1100
0000
1000
0010
0100
0001
1000
0000
0001
0000
0010
0100
,  // measure 43
1000
0000
0001
0000
0100
0000
0010
1000
0001
0000
0010
0100
1000
0000
0010
1000
,  // measure 44
0010
0000
1000
0000
0100
0000
0010
0001
0100
0001
1000
0000
0100
0000
0010
0001
,  // measure 45
0100
0000
0010
0000
0100
0000
0001
0010
0001
0000
1000
0000
0100
0000
0010
0001
,  // measure 46
1000
0000
0010
0000
0110
0000
0100
0001
0100
0001
1000
0000
0100
0000
0010
0001
,  // measure 47
0010
0001
1000
0000
0010
0000
0100
0001
1000
0000
0001
0000
1001
0000
0010
0100
,  // measure 48
1000
0000
0010
0000
0100
0000
0001
1000
0100
1000
0000
0001
0100
0000
0010
1000
,  // measure 49
0001
0000
0010
0000
0100
0000
1000
0000
0100
0010
0001
0000
0010
0000
0110
0100
,  // measure 50
1000
0000
0001
0000
0100
0010
1000
0000
0100
0010
0001
0000
0001
0000
0100
0010
,  // measure 51
1000
0000
0010
0000
0010
0001
0010
0000
0010
0000
0100
1000
0001
0000
1000
0010
,  // measure 52
0100
0000
0001
0000
0100
0000
0100
0000
0010
1000
0001
0000
0010
0000
0100
1000
,  // measure 53
0010
0000
0100
0000
0001
0000
0010
0000
0100
1000
0001
0000
0100
0000
0001
0010
,  // measure 54
0100
0000
0010
0001
1000
0000
0001
0000
0100
0010
0000
0000
1000
0000
0100
0010
,  // measure 55
0100
0000
1000
0000
0001
0010
0001
0000
1000
0100
1000
0000
0010
0000
0100
0010
,  // measure 56
1000
0000
0010
1000
0010
0000
1000
0100
1000
0010
0100
0000
0001
0000
0010
0100
,  // measure 57
0010
0000
0001
0000
0100
0000
0001
0000
1000
0000
0010
0000
0100
0000
0001
0010
,  // measure 58
0001
0000
0100
0000
0010
0000
1000
0100
0010
0001
0010
0000
0100
0000
1000
0001
,  // measure 59
0100
0000
0001
0010
0100
0000
1000
0100
1000
0001
0100
0000
0010
0000
1000
0001
,  // measure 60
0010
0000
0100
0000
2000
0000
3001
0000
0100
0010
1000
0001
0010
0000
0100
1000
,  // measure 61
0001
0000
1000
0000
0010
0000
0100
0000
0010
0000
1000
0000
1001
0000
0001
0010
,  // measure 62
0100
0000
1000
0000
0001
0000
0100
0001
1000
0100
0010
0001
1000
0000
0001
1000
,  // measure 63
0001
1000
0010
0000
0100
0000
0001
0100
0000
0000
0010
0000
0020
0000
0000
0000
,  // measure 64
1030
0000
0000
0000
0000
0000
0100
0000
0010
0100
0010
0000
0001
0000
1000
0001
,  // measure 65
0010
0001
1000
0000
0100
0010
0100
0010
0001
0000
0010
0000
0001
0000
0100
0010
,  // measure 66
1000
0001
0010
0000
0100
0000
0010
0001
1000
0010
0100
0001
0100
0000
0001
0010
,  // measure 67
0100
1000
0010
0000
2000
0000
0200
3300
0000
0010
0001
0100
0020
0000
0130
0002
,  // measure 68
0000
0000
0023
0000
0230
0000
1300
0100
0010
0001
0010
0000
0100
0000
1000
0001
,  // measure 69
1000
0010
0100
0000
0001
1000
0010
0000
0100
0000
0001
1000
0100
0000
1000
0001
,  // measure 70
0010
0000
0100
0000
1000
0001
1000
0001
0100
0010
0100
0000
0001
0000
1000
0100
,  // measure 71
1000
0100
0010
0000
0001
0100
0010
1000
0001
0010
0100
0000
1000
0000
0001
0100
,  // measure 72
0000
0000
0010
0000
1000
0000
0000
0001
0100
0001
0010
0100
1000
0000
0010
0100
,  // measure 73
0001
0000
1000
0000
0010
0000
0100
0000
0001
1000
0000
0100
1000
0000
0100
0010
,  // measure 74
0001
0000
0010
0000
0100
0000
1000
0001
0100
0010
1000
0100
0010
0000
0001
1000
,  // measure 75
0010
0000
0100
0000
0001
0000
0010
0000
0100
0000
1000
0010
0100
0000
0001
1000
,  // measure 76
0100
0000
0010
0000
0001
0000
1000
0100
1000
0010
0000
0100
0001
0000
1000
0010
,  // measure 77
1000
0000
0001
0000
1000
0000
0100
0010
0001
0000
0100
0001
0100
0000
0010
1000
,  // measure 78
0001
0000
0100
0000
0010
0000
1000
0001
1000
0100
1000
0000
0010
0000
0100
0010
,  // measure 79
1000
0000
0001
0000
1000
0000
0100
0010
0100
0010
0001
0000
1000
0000
0010
0100
,  // measure 80
0001
1000
1001
0001
1001
0000
0000
0000
;
