#TITLE:SO MUCH TO LEARN, SO LITTLE WE KNOW;
#SUBTITLE:;
#ARTIST:SPIRAL EXPERIENCE;
#TITLETRANSLIT:;
#SUBTITLETRANSLIT:;
#ARTISTTRANSLIT:;
#GENRE:;
#CREDIT:;
#MUSIC:SO MUCH TO LEARN, SO LITTLE WE KNOW.mp3;
#BANNER:SO MUCH TO LEARN, SO LITTLE WE KNOW.png;
#BACKGROUND:SO MUCH TO LEARN, SO LITTLE WE KNOW-bg.png;
#CDTITLE:;
#SAMPLESTART:48.906;
#SAMPLELENGTH:15.020;
#SELECTABLE:YES;
#OFFSET:-0.060;
#BPMS:0.000=122.836;
#STOPS:;
#BGCHANGES:;
#FGCHANGES:;

//--------------- dance-single - ----------------
#NOTES:
     dance-single:
     :
     Beginner:
     1:
     0,0,0,0,0:
0000
0000
0000
0000
,
0000
0000
0000
0000
,
0000
0000
0000
0000
,
0000
0000
0000
0000
,
0000
0000
0000
0010
,
0000
0100
0100
0100
,
0000
1000
0000
0001
,
0000
0000
0100
0000
0100
0000
0010
0010
,
0000
0000
0000
0000
1000
0000
0000
1000
,
0000
0000
1001
0000
,
0000
0001
0001
0010
,
0000
0100
0100
1000
,
0000
0010
0000
0100
,
0000
0000
1001
0000
,
0000
0000
0001
0000
0000
0000
0001
0010
,
0000
0100
1000
0000
0000
0000
0100
0000
,
0000
0010
0001
1000
0000
0000
0100
0000
,
0000
0010
0001
0000
0000
0000
0000
0000
,
0001
0000
0000
0000
1001
0000
0000
1000
,
0010
0000
0000
0000
,
0000
0000
0100
0000
0000
0000
0001
0100
,
0000
0010
1000
0100
,
0000
0010
0000
0001
,
0000
0100
0000
0000
,
0010
0000
0000
1000
,
0000
0000
0000
0100
,
0000
0000
0000
1000
,
0000
0001
0000
0100
,
0000
0000
0000
0010
0000
0000
0010
0000
,
0000
0000
0000
0000
0000
0000
0000
1000
,
0000
0000
0001
0000
,
0000
0000
0110
0000
,
0000
0000
1001
0000
,
0000
0010
0000
0100
,
0000
0010
0000
0010
,
0001
0001
1000
0000
0000
0000
0100
0000
,
0000
0000
0010
0000
,
0000
0000
0000
0001
,
0000
0100
0000
0010
,
0000
0000
0100
0000
,
0000
0001
0000
0010
,
0000
0100
0000
0100
,
0000
0010
0000
0010
,
0000
0001
0000
0001
,
0000
1000
1000
0000
,
0000
0001
0000
0100
,
0000
0000
0010
0010
,
0000
0100
0000
0001
,
0000
0001
0001
0000
,
0000
1000
0000
0100
,
0000
0000
0010
0010
,
0000
0001
0000
0000
,
0000
1000
1000
0000
0000
0000
0000
0000
;

//--------------- dance-single - ----------------
#NOTES:
     dance-single:
     :
     Easy:
     3:
     0,0,0,0,0:
0000
0000
0000
0000
,
0000
0000
0000
0000
,
0000
0000
0000
0000
,
0000
0000
0000
0000
,
0000
0000
0000
0010
,
0000
0000
0001
0000
1000
0000
0010
0100
,
0000
0010
0000
1000
,
0000
0000
0001
0000
0010
0100
1000
0010
,
0000
0000
0100
0001
0000
0000
0010
0100
,
0000
0000
0000
0000
1000
0000
0001
1000
,
0000
0100
1000
0000
0010
0000
0100
0001
,
0000
1000
0100
0010
,
0000
0001
0000
0100
,
0000
0010
0000
0000
,
0000
0000
1000
0000
0000
0000
0001
0010
,
0000
0100
1000
0000
0000
0001
0100
0010
,
0000
1000
0001
1000
0100
0000
0010
0000
,
0000
0001
1001
0000
0000
0000
1000
0000
,
0000
0010
0000
0000
0100
0000
0001
1000
,
0001
1000
0000
0000
0100
0000
0010
0000
,
0011
0000
0001
0000
0000
0000
0100
0010
,
0100
0010
1000
0000
0001
0000
1001
0000
,
0000
0000
0100
0000
0000
0010
1000
0000
,
0000
0100
1001
0000
0000
0000
0000
0000
,
0001
0010
0000
0000
0000
0000
0110
0000
,
0000
0000
0110
1000
,
0000
0110
0000
0000
0001
0000
0011
0000
,
0000
0100
0010
1000
0000
0010
1000
0001
,
0000
0000
0010
0100
0010
0000
0001
0000
,
0000
0000
0000
0000
0000
0000
0000
0100
,
0000
0110
0101
0000
,
0000
0000
0110
0000
0010
1000
0001
0000
,
0000
0000
0011
0000
,
0000
0110
0000
1000
,
0000
0100
0000
1010
,
0001
0100
0001
0000
0000
0000
1000
0000
,
0100
0000
0010
0001
0000
0000
1000
0010
,
0000
0000
0100
0000
0000
0000
0100
0010
,
0000
1000
0000
1001
,
0000
0001
0010
0000
,
0000
0000
0100
0000
0000
0000
0000
1000
,
0000
0001
1000
0000
0010
0000
0100
0000
,
0000
0000
0010
0000
0110
0000
0001
1001
,
0000
0001
0001
0001
,
0000
0001
1000
1000
0001
0000
0100
0000
,
0000
0010
0000
0010
,
0000
1000
0100
0000
0100
0000
0010
0001
,
0000
0000
0001
0000
0000
0000
0000
0100
,
0010
0100
0001
0000
,
0000
0010
0000
0100
,
0000
0000
1000
1000
,
0000
0000
1000
0000
0000
0000
0001
0001
,
0000
0010
0100
0010
1000
0000
0000
0000
;

//--------------- dance-single - ----------------
#NOTES:
     dance-single:
     :
     Medium:
     6:
     0,0,0,0,0:
0000
0000
0000
0000
,
0000
0000
0000
0000
,
0000
0000
0000
0000
,
0000
0000
0000
0000
,
0000
0000
0100
0010
,
0000
0001
1000
0010
1000
0010
0100
0001
,
0100
0001
1000
0000
0100
0000
0010
0000
,
0000
0000
0001
1000
0010
1000
0001
1000
,
0000
0100
0010
0001
0010
0000
0100
1000
,
0100
0000
0010
0001
1000
0000
0010
0100
,
0000
0001
0100
0000
0001
0000
0010
0100
,
0000
1000
0010
0000
0100
0001
1000
0010
,
1000
0001
0010
0000
0001
0010
0100
0000
,
1000
0000
0000
0000
0000
0000
0000
0000
0001
0000
0000
0000
0100
0000
0000
0000
0010
0000
0000
0000
0000
0000
0000
0000
1000
0000
0000
0000
0001
0100
0000
0000
,
0001
0000
0010
0100
1000
0010
0100
0001
,
0010
0100
1000
0010
0100
0010
1000
0001
,
0000
0010
0100
1000
0010
0000
0100
0001
,
0010
0001
1000
0000
0001
0000
0100
0001
,
0000
1000
0100
1000
0100
1000
0001
0010
,
0001
0100
0010
0000
1010
0000
0001
0010
,
0001
0010
0100
0000
1000
0000
0010
1000
,
0001
1000
0010
0000
0100
0000
0101
0000
,
0001
1000
0100
1000
0010
1000
0001
0010
,
0100
0000
0000
0000
1000
0000
0000
0000
1001
0000
0000
0000
0000
0000
0000
0000
1000
0000
0000
0000
0010
1000
0000
0000
0001
0000
0000
0000
0000
0000
0000
0000
,
0010
0010
0100
0100
0000
0000
0000
0000
,
0002
0000
0000
0000
1003
0100
0010
0110
,
0000
0100
1000
0000
0001
1000
0100
0110
,
0000
0010
0010
0001
0000
0001
0100
0100
,
0001
0000
0001
0010
1001
0000
0001
0010
,
0001
0010
0100
0100
2000
0000
3000
0011
,
0010
1000
1001
0000
0010
0010
0100
1100
,
0000
0000
0002
0203
0020
0030
0320
2030
,
0000
3020
1030
0001
0020
0000
0230
0000
,
0320
0000
0031
0100
0010
0100
0001
0000
,
1000
0100
2000
0000
3010
1000
0002
0000
,
0103
0010
2000
0100
0010
3002
0010
0100
,
1003
0100
1000
0100
0010
0000
0100
1000
,
0001
0100
0010
0000
0100
0000
0010
1000
,
0001
1000
0100
0010
0001
0000
1000
1000
,
0010
0000
2000
3002
2003
0010
0100
3002
,
2003
0100
0010
3002
2003
0000
3010
0200
,
0000
0302
0010
0100
2003
0000
3010
0200
,
0000
0000
0000
0000
0301
0100
0000
0000
0002
0000
0000
0000
0000
0000
0000
0000
0023
0000
0000
0000
0000
0000
0000
0000
0030
0000
0000
0000
0100
0000
0000
0000
,
2000
3002
0203
0000
0310
1000
0001
0010
,
0100
0010
0001
0100
0001
0000
0010
0100
,
2000
0000
3002
0000
0100
0000
1003
2000
,
0000
3001
0001
0010
0010
1000
0010
0100
,
0100
1000
0001
0000
0100
0000
1000
1100
,
0010
0001
0100
0001
1000
0000
1000
0000
,
0010
0000
0000
0000
0000
0000
0000
0000
0010
0000
0000
0000
0000
0000
0000
0000
0000
0000
0000
0000
0010
0000
0000
0000
0001
0000
0000
0000
0100
0020
0000
0000
,
0000
0000
0130
0000
0001
0000
0001
1000
,
0100
1000
0100
0010
0001
0010
0001
1000
,
0001
0100
0001
1000
0010
0000
0000
0000
;

//--------------- dance-single - ----------------
#NOTES:
     dance-single:
     :
     Hard:
     9:
     0,0,0,0,0:
0000
0000
0000
0000
,
0000
0000
0000
0000
,
0000
0000
0000
0000
,
0000
0000
0000
0000
,
0000
0000
0000
0000
0000
0000
0000
0000
0000
0000
0000
0000
0000
0000
0000
0000
1000
0001
0000
0000
0101
0000
0000
0000
1001
0000
0000
0000
1000
0100
0000
0000
,
0000
0000
0110
0000
1010
0000
0010
0001
0011
0000
1010
0000
1010
0000
1010
0000
,
1001
0101
0110
1001
0101
0000
0100
1010
,
1010
0020
0100
0031
0010
0100
0100
1000
,
0000
0011
0001
0010
0100
1100
0001
0100
,
0101
1000
1000
0010
0100
0000
0101
0001
,
1000
0001
1100
1000
0002
0000
0200
0320
,
0033
0000
0000
0000
0010
0001
0000
0000
2001
0000
0000
0000
0000
0000
0000
0000
3001
0000
0000
0000
1000
0000
0000
0000
0010
0000
0000
0000
0010
0000
0000
0000
,
0100
0001
0010
0012
0100
0010
2003
0100
,
0010
0000
0000
0000
3002
0000
0000
0000
0103
0000
0000
0000
0001
0000
0000
0000
1000
0000
0000
0000
1000
0000
0000
0000
1000
0000
0000
0000
0100
0010
0000
0000
,
0200
1300
0010
0100
0010
2000
0010
3001
,
0100
0010
2000
0001
0010
3100
2000
3010
,
0200
0300
0100
0001
2000
0000
3000
0200
,
0010
1300
0001
0020
0030
0102
0013
0001
,
0100
0010
2000
3002
0010
0100
2003
3010
,
2000
3002
0010
0100
2003
0010
0100
3001
,
2000
0000
3000
0000
0100
0000
0010
0000
0001
0000
0001
0100
0010
0000
0100
0000
,
0001
2000
0200
0300
0020
0030
3002
0100
,
0010
2003
3100
2000
0010
0100
3001
0010
,
0010
0000
0000
0000
0100
0000
0000
0000
1000
0000
0000
0000
0010
0000
0000
0000
0100
0000
0000
0000
0001
0010
0000
0000
0200
0000
0000
0000
0000
0000
0000
0000
,
1300
1001
0001
0100
0020
0000
2030
0100
,
3010
0000
0000
0000
0001
0000
0000
0000
1000
0000
0000
0000
0000
0000
0000
0000
1100
0000
0000
0000
0010
0100
0000
0000
1010
0000
0000
0000
0000
0000
0000
0000
,
1000
0100
0020
0000
0032
0100
0010
2003
,
0000
0000
0000
0000
3001
0000
0000
0000
0010
0000
0000
0000
0100
0000
0000
0000
2000
0000
0000
0000
3002
0000
0000
0000
0103
0000
0000
0000
0010
1000
0000
0000
,
0002
2003
3002
0010
0100
1003
0010
0100
,
0001
0100
0001
0100
0001
0100
0010
1000
,
0001
0010
0010
0100
0100
1000
0010
0100
,
0001
0000
0000
0000
0010
0100
0000
0000
0100
0000
0000
0000
0010
0000
0000
0000
0001
0000
0000
0000
1000
0000
0000
0000
0010
0000
0000
0000
0100
0000
0000
0000
,
0001
0100
0001
0010
0100
0000
1000
0010
,
0100
0001
0010
0100
1000
0010
1000
1100
,
0010
0000
0000
0000
0001
0000
0000
0000
1001
0000
0000
0000
0101
0000
0000
0000
0010
0001
0000
0000
1001
0000
0000
0000
1010
0000
0000
0000
0110
0000
0000
0000
,
0100
1100
0001
0110
0110
1001
1100
2200
,
3300
0002
0003
0200
0320
0230
0302
0010
,
0100
0000
0000
0000
1003
0001
0000
0000
0100
0000
0000
0000
0000
0000
0010
0000
0100
0000
0000
0000
0001
0000
0000
0000
0010
0000
0000
0000
0100
0000
0000
0000
,
1000
0000
0000
0000
0100
0000
0000
0000
0010
0000
0000
0000
0001
1000
0000
0000
1000
0000
0000
0000
0000
0000
0000
0000
1000
0000
0000
0000
0010
0000
0000
0000
,
0010
0200
0300
0100
0100
0100
0100
0002
,
0010
0000
0000
0000
0100
0000
0000
0000
1003
0000
0000
0000
1000
0010
0000
0000
0010
0000
0000
0000
0010
0000
0000
0000
0010
0000
0000
0000
0100
0000
0000
0000
,
0000
0000
0000
0000
0010
1000
0000
0000
1000
0000
0000
0000
0001
0000
0000
0000
0001
0000
0000
0000
0100
0020
0000
0000
0130
0000
0000
0000
0001
0000
0000
0000
,
0000
0000
0000
0000
0010
0100
0000
0000
0100
0000
0000
0000
1000
0000
0000
0000
0001
0000
0000
0000
0001
0000
0000
0000
0100
0000
0000
0000
0010
0000
0000
0000
,
1000
0100
0010
0100
0010
0001
0100
0010
,
1000
0100
0100
1000
0100
1000
0200
0001
,
1300
0010
0100
0001
1000
0001
2000
0010
,
0010
0000
3001
1000
0100
0000
0010
0000
0001
0000
0001
0000
0100
0000
0100
0000
,
0001
0000
0100
0010
0100
0000
0010
0000
2000
0000
0001
0000
3100
0000
0010
0000
,
0001
0000
0000
0000
0010
0000
0000
0000
0001
0000
0000
0000
0010
0100
0000
0000
0010
0000
0000
0000
0001
0000
0000
0000
0100
0000
0000
0000
0001
0000
0000
0000
,
2000
0000
0000
0000
0010
0000
0000
0000
0002
0000
0000
0000
3000
0000
0000
0000
0013
0001
0000
0000
0001
0000
0000
0000
0100
0000
0000
0000
0001
1000
0000
0000
,
0000
0000
0000
0000
0010
0000
0000
0000
0010
0000
0000
0000
0100
0001
0000
0000
0010
0000
0000
0000
0100
0000
0000
0000
0100
0000
0000
0000
0010
0000
0000
0000
,
0010
0001
0001
1000
0010
0100
0001
0010
,
0010
0001
0001
1000
0010
0000
0000
0000
;
