#TITLE:Rotten Society;
#SUBTITLE:;
#ARTIST:The Mad Dogs;
#TITLETRANSLIT:;
#SUBTITLETRANSLIT:;
#ARTISTTRANSLIT:;
#GENRE:;
#CREDIT:;
#MUSIC:Rotten Society.mp3;
#BANNER:Rotten Society.png;
#BACKGROUND:Rotten Society-bg.png;
#CDTITLE:;
#SAMPLESTART:27.186;
#SAMPLELENGTH:19.212;
#SELECTABLE:YES;
#OFFSET:-0.361;
#BPMS:0.000=148.908
,20.000=150.508
,26.500=155.008
,28.000=149.508
,40.500=148.258
,43.500=148.758
,48.500=152.008
,52.500=155.008
,56.000=152.258
,60.000=148.008
,67.000=145.508
,74.500=144.258
,78.500=146.758
,88.000=147.758
,112.000=145.258
,120.000=147.758
,132.000=151.258
,142.000=150.258
,148.000=143.258
,160.000=147.258
,164.000=145.258
,176.000=148.258
,180.000=145.258
;
#STOPS:;
#BGCHANGES:;
#FGCHANGES:;

//--------------- dance-single - ----------------
#NOTES:
     dance-single:
     :
     Easy:
     4:
     0,0,0,0,0:
0000
0000
0000
0000
,
0000
0000
0000
1000
1010
0000
0000
0000
,
0000
0000
0000
0100
0010
0002
0000
0000
,
0013
0110
0000
1000
0001
0100
0000
0001
,
0200
0000
0000
0000
,
0310
0000
0000
0000
0010
0000
0000
2000
,
0000
0000
0000
3000
0100
0000
0010
0000
,
0001
0010
0100
0000
1000
0002
0000
1003
,
0001
2000
0000
3000
0020
0000
0030
0100
,
0001
0000
1001
0000
,
1000
0000
0000
0000
0100
0000
0000
0010
0001
0000
0000
0010
0000
0000
0100
0000
,
1000
0000
0001
0100
,
0010
0000
1010
0000
,
1000
0001
0000
0000
,
0011
0000
0110
0000
,
1000
0001
1000
0000
,
0001
0000
0100
0000
0000
0001
2002
0000
,
0000
3003
0000
0000
,
0010
0100
1000
0000
1001
0000
0000
0000
,
0100
0000
0000
0000
0010
0000
0000
0000
0000
0000
0000
0000
0000
0100
1000
0000
,
0001
0000
0100
0000
,
0010
0000
0000
1000
0010
0000
0100
0000
,
0001
0000
0000
0000
1000
0100
1000
0000
,
0000
0000
0000
0000
0001
0001
1000
0000
,
0220
0000
0000
0000
,
0330
1000
0010
0100
,
0001
0000
0010
0000
0000
0000
0000
0100
,
0110
0100
1000
1000
,
0010
0010
0000
0000
,
0100
0100
0010
0010
,
1000
1000
0100
0100
,
0010
0000
0000
0000
0001
0000
0001
0100
,
0010
0000
0010
0000
,
0000
1000
0001
0000
,
0001
0001
0010
0000
,
0010
0100
0000
0000
0100
0000
0000
0000
,
1000
0000
0000
0000
0000
1000
0100
0000
,
0000
0010
0100
0000
,
0001
0001
0010
0000
,
0010
0100
0000
0000
,
0000
0000
0000
0000
0000
0000
0000
0000
0000
0000
0000
0000
1000
0001
0000
0000
,
0100
0010
1000
0000
0000
0000
0000
0000
,
0100
0010
0000
0000
,
0001
0000
1000
0000
0010
1000
0001
0000
,
0000
0000
0000
0000
,
0010
1000
0100
0000
,
1000
0100
0010
0000
,
0100
1000
0001
0000
;

//--------------- dance-single - ----------------
#NOTES:
     dance-single:
     :
     Hard:
     10:
     0,0,0,0,0:
0000
0000
0000
0000
,
0010
0000
0100
1000
0000
0000
1000
0000
0001
0000
0000
0000
1010
0000
0000
0000
,
0100
0000
1000
0000
0000
0001
0100
0010
1000
0000
0010
0100
0001
0000
0010
0000
,
0100
0000
0010
0000
0000
0001
1000
0000
0010
0000
0100
0000
0000
0000
0001
0000
,
1001
0000
0000
0000
1001
1010
0101
0000
,
0010
0001
1000
0010
0000
0000
0000
0100
0001
0000
0010
0001
1000
0000
0100
0000
,
0010
0000
0000
0000
0001
0000
0000
0000
0011
0000
0000
0000
0100
0010
0100
0000
,
0002
0000
0013
0100
1000
0000
1000
0000
0001
0100
0001
0100
0010
0100
0001
0000
,
1010
0000
0100
0000
0000
0010
0100
0000
0001
0000
0000
1100
0000
0000
1000
0000
,
0010
0000
0100
0001
1000
0000
0000
0000
1100
0000
0000
0000
1000
0001
0100
0000
,
0110
0000
0000
0000
0000
0000
0010
1000
0100
0000
1000
0010
0000
1000
0100
0000
,
0010
0000
0001
0000
1000
0000
0010
0000
1000
0000
0001
1000
0000
1000
0001
0000
,
1000
0000
0000
0000
0000
0001
0100
0000
0010
0000
1000
0100
0000
0010
0001
0000
,
1000
0000
0100
0000
0110
0000
0001
0000
0101
0000
0010
0000
0000
1000
0001
0000
,
0010
0000
0000
0000
1000
0100
1000
0000
0010
0000
0100
0000
0000
0000
0000
0000
,
1001
0000
1000
0000
0100
0010
0100
1000
0010
0000
0010
0000
0100
0000
0010
1000
,
0100
0010
0001
0000
0000
0000
1000
0000
0001
0000
0100
0000
0010
0000
0000
0000
,
0100
0100
0010
1000
1001
0001
0000
0000
,
0110
0000
0010
0000
1010
0000
0001
1000
0001
0000
0010
0000
0000
0000
0000
0000
,
1100
0000
0000
0000
0000
0000
0000
0000
0000
0000
0000
0000
0000
0000
0000
0000
0000
0000
0000
0000
0000
0000
0000
0000
0000
0000
0000
0000
0000
0000
0000
0000
0000
0000
0000
0000
0000
0000
0000
0000
0000
0000
0000
0000
0000
0000
0000
0000
1010
0000
0000
0000
0000
0000
0000
0000
0000
0000
0000
0000
0000
0000
0000
0000
0000
0000
0000
0000
0000
0000
0000
0000
0000
0000
0000
0000
0000
0000
0000
0000
0000
0000
0000
0000
0000
0000
0000
0000
0000
0000
0000
0000
0000
0000
0000
0000
0101
0000
0000
0000
0000
0000
0000
0000
0000
0000
0000
0000
0000
0000
0000
0000
0000
0000
0000
0000
0000
0000
0000
0000
1000
0000
0000
0000
0000
0000
0000
0000
0000
0000
0000
0000
0000
0000
0000
0000
0000
0000
0000
0000
0000
0000
0000
0000
0010
0000
0000
0000
0000
0000
0000
0000
0000
0000
0100
0000
0000
0000
0000
0000
0000
0000
0000
0001
0000
0000
0000
0000
0000
0000
0000
0000
0000
0010
0000
0000
0000
0000
0000
0000
0000
0000
0100
0000
0000
0000
0000
0000
0000
0000
0000
0000
,
1000
0000
0010
0000
1001
0000
0000
0000
0001
0010
0100
0000
1000
0010
1000
0000
,
0001
0000
0100
0000
0000
0000
0100
0010
1000
0001
1000
0100
1000
0000
0001
0000
,
0011
0000
0000
0000
0000
0000
0100
0010
1000
0000
0010
0000
1010
0000
0000
0000
,
0001
0000
0100
0000
0000
0000
0010
1000
0001
0000
1000
0000
0000
0000
0000
0000
,
2002
0000
0000
3003
0220
0000
0000
0330
,
1010
0000
1010
0000
0000
1000
0001
0000
0001
0000
0000
0000
1000
0001
0100
0000
,
0101
0000
0100
0000
0000
0010
1000
0000
0011
0000
0000
0000
0001
0000
0000
0000
,
0100
0000
0000
0000
0000
0000
0000
0000
0000
0000
0000
0000
0000
0000
0000
0000
0000
0000
0000
0000
0000
0000
0000
0000
0001
0000
0000
0000
0000
0000
0000
0000
0000
0000
0000
0000
0000
0000
0000
0000
0000
0000
0000
0000
0000
0000
0000
0000
1000
0000
0000
0000
0000
0000
0000
0000
0000
0000
0000
0000
0010
0000
0000
0000
0000
0000
0000
0000
0000
0000
0000
0000
1000
0000
0000
0000
0000
0000
0000
0000
0000
0000
0000
0000
0000
0000
0000
0000
0000
0000
0000
0000
0000
0000
0000
0000
0001
0000
0000
0000
0000
0000
0000
0000
0000
0000
0000
0000
0000
0000
0000
0000
0000
0000
0000
0000
0000
0000
0000
0000
0100
0000
0000
0000
0000
0000
0000
0000
0000
0000
0000
0000
0000
0000
0000
0000
0000
0000
0000
0000
0000
0000
0000
0000
0001
0000
0000
0000
0000
0000
0000
0000
0000
0000
0010
0000
0000
0000
0000
0000
0000
0000
0000
0100
0000
0000
0000
0000
0000
0000
0000
0000
0000
0010
0000
0000
0000
0000
0000
0000
0000
0000
0001
0000
0000
0000
0000
0000
0000
0000
0000
0000
,
0100
0000
0010
0000
0000
0000
0000
0000
1010
0000
0000
0000
0100
0000
0001
1000
,
0100
1000
0010
0000
1010
0000
0000
0000
0010
0000
0010
0100
0001
0000
0010
0000
,
0110
0000
0100
0000
0000
0000
0000
1000
0001
0000
0100
0000
0010
1000
0001
0000
,
0010
0000
0100
0000
1000
0001
1000
0000
1010
0000
0000
0000
0000
0010
0100
0000
,
0101
0000
0010
0000
0000
0100
0001
0000
0010
0000
0000
1100
0000
0000
1000
0000
,
1000
0000
0000
1000
0100
0000
0000
0000
1100
0000
0000
0000
0010
0000
0000
0000
,
0011
0000
0000
0000
0100
0001
1000
0000
0100
0000
0000
0000
1100
0000
0000
0000
,
0010
0100
0001
0000
1001
0000
0101
0000
,
0011
0000
0001
1000
0010
0000
1000
0001
0010
0000
0001
0000
0010
0001
0000
0000
,
0101
0000
0100
0000
0110
0000
0000
0000
1000
0100
0000
0000
0001
0010
0100
0000
,
1100
0000
1010
0000
1001
0000
0000
0100
,
1001
0000
0001
0000
0010
0000
0001
0000
1000
0000
0100
0000
1000
0000
0001
0100
,
0010
0000
1000
0000
1010
0000
0000
0001
0010
0000
0000
0000
0001
1000
0010
1000
,
0001
0000
0100
0010
1000
0000
1000
0000
0002
0000
0000
0000
0003
0000
0000
0000
,
0002
0000
0013
0100
1000
0200
0000
0300
,
0001
0000
0000
0000
0011
0000
0100
0000
0210
0000
0300
0000
0001
0000
0010
0001
,
1000
0000
0010
2000
0000
0002
3000
0000
0013
0000
0100
0000
1000
0100
0010
0000
,
1111
0000
0000
0000
2000
0000
0000
0000
0200
3000
0000
0300
0020
0000
0002
0030
,
0203
0000
0300
0000
0010
0000
1000
0100
0010
0000
0100
0000
1000
0000
0001
0000
,
0010
0000
0000
0000
0200
0000
0000
0300
1100
0000
2000
0000
3010
0000
0100
0000
,
0001
0000
0000
0000
;
