#TITLE:Road Runner;
#SUBTITLE:;
#ARTIST:The Hoovers;
#TITLETRANSLIT:;
#SUBTITLETRANSLIT:;
#ARTISTTRANSLIT:;
#GENRE:;
#CREDIT:;
#MUSIC:Road Runner.mp3;
#BANNER:Road Runner.png;
#BACKGROUND:Road Runner-bg.png;
#CDTITLE:;
#SAMPLESTART:15.363;
#SAMPLELENGTH:15.668;
#SELECTABLE:YES;
#OFFSET:-0.160;
#BPMS:0.000=148.000
,37.500=141.000
,40.000=145.000
,46.000=147.750
,54.000=145.000
,67.000=142.500
,75.000=139.750
,79.000=143.250
,83.000=153.000
,87.000=144.500
,94.000=145.500
,96.000=149.000
,100.000=150.000
,103.000=145.750
,108.000=146.250
,114.000=148.250
,119.000=145.750
,123.000=141.250
,127.000=142.250
,130.000=147.750
,135.000=144.750
,138.000=139.500
,142.000=140.500
,147.000=134.500
,148.500=139.500
,151.000=151.000
,154.000=136.000
,156.500=140.000
,158.000=143.750
,163.000=133.750
,165.000=140.750
,168.000=141.500
,171.000=146.500
,175.000=140.500
,178.000=141.000
,181.000=143.500
,190.000=149.500
,196.000=152.500
,199.000=146.500
,206.000=143.500
,212.000=141.500
,217.000=140.500
;
#STOPS:;
#BGCHANGES:;
#FGCHANGES:;

//--------------- dance-single - ----------------
#NOTES:
     dance-single:
     :
     Easy:
     3:
     0,0,0,0,0:
0000
0000
0000
0000
,
0000
0000
0000
0000
,
0000
0000
0000
0000
,
0000
0000
0000
0000
,
0000
0000
00M0
M000
,
0M00
0000
000M
00M0
M000
0000
0M00
0000
,
00M0
000M
M000
00M0
,
0M00
000M
M000
00M0
,
0M00
0000
0000
0000
0000
0000
0000
0000
0000
0000
0000
0000
0000
0000
0000
0000
0001
0000
0000
0000
0000
0000
0000
0000
0000
0000
0000
0000
0000
1000
0000
0000
,
0000
0000
0000
0100
,
0001
0000
0101
0000
,
1000
0000
0000
0001
0020
0000
0000
0000
,
0130
0000
0000
0000
0010
0001
1000
0000
,
0002
0000
0000
0000
,
0003
1001
0000
0100
,
0010
1000
0000
0001
0010
0200
0000
0000
,
0300
1001
0000
2000
,
3002
2003
3000
0220
,
0000
0000
0000
0000
,
0000
0330
0010
0000
,
0010
0000
0000
0000
0000
0000
0000
0000
0011
0000
0000
0100
0020
0000
0000
0000
,
0000
0000
0030
0011
,
0000
0000
0001
1100
,
0000
0010
0000
0110
,
0000
1001
0001
1001
,
0000
0000
0000
0000
,
1010
0000
0101
0000
,
0000
0000
0101
0000
,
1100
0000
0000
1000
,
0001
1000
0000
1000
,
0000
0101
0000
0000
,
0000
0000
0000
0010
,
0000
0000
0101
0000
0000
0000
0000
0100
,
0000
0100
0000
0100
0000
0000
2001
0000
,
0000
3000
0000
0210
,
0000
0000
0000
0000
0000
0000
0000
0000
0000
0000
0000
0000
0000
0000
0000
0000
0000
0000
0000
0000
0000
0000
0000
0000
0000
0000
0000
0000
0000
0000
0000
0300
0000
0000
0000
0000
0000
0000
0000
0000
0000
0000
0000
0000
0000
0000
0000
0000
0010
0000
0000
0000
0000
0000
0000
0000
0000
0000
0000
0000
0000
0000
0000
0000
,
0100
0010
0000
0000
,
0000
0011
0000
0000
0000
0000
1000
0000
,
0010
0100
0000
1010
,
0000
0101
0000
0000
0000
0000
0110
0000
,
0000
0000
1010
0002
,
0000
0003
0000
0000
0000
0000
0101
0000
,
0000
0000
0000
1010
,
0000
0000
0000
0001
2000
0000
3010
0000
,
0200
0000
0301
1000
,
0001
0000
0000
0101
,
0000
0000
0100
0110
,
1010
0000
0001
1000
,
0000
0000
0110
1000
0000
1000
0100
0000
,
1010
0000
0000
0110
,
0000
0000
0000
0000
,
0011
0000
0101
0000
,
0000
0001
0011
0000
,
1100
0000
1001
0000
,
0000
0000
0000
0000
,
0000
1000
0010
1001
;

//--------------- dance-single - ----------------
#NOTES:
     dance-single:
     :
     Hard:
     9:
     0,0,0,0,0:
0000
0000
0000
0000
,
0000
0000
0000
0000
,
0000
0000
0000
0000
,
0000
0000
0000
0000
,
0000
0000
0000
0000
0000
0000
0000
0000
0000
0000
0000
0000
0000
0000
0000
0000
0000
0000
0000
0000
0000
0000
0000
0000
0000
0000
0000
0000
0000
0000
0000
0000
0000
0000
0000
0000
0000
0000
0000
0000
0000
0000
0000
0000
0000
0000
0000
0000
0000
0000
0000
0000
0000
0000
0000
0000
0000
0000
0000
0000
0000
0000
0000
0000
0000
0000
0000
0000
0000
0000
0000
0000
0000
0000
0000
0000
0000
0000
0000
0000
0000
0000
0000
0000
0000
0000
0000
0000
0000
0000
0000
0000
0000
0000
0000
0000
0000
0000
0000
0000
0000
0000
0000
0000
0000
0000
0000
0000
0000
0000
0000
0000
0000
0000
0000
0000
0000
0000
0000
0000
M000
0000
0000
0000
0000
0000
0000
0000
0000
0000
0000
0000
0000
0000
00M0
0000
0000
0000
0000
0000
0000
0000
0000
0000
0000
0000
0000
0000
0000
0000
0000
0000
0000
0000
0000
0000
0000
0000
0000
0000
0000
0000
0000
000M
0000
0000
0000
0000
0000
0000
0000
0000
0000
0000
0000
0000
0000
0000
0000
0000
0000
0000
0000
0000
0000
0000
0000
0000
0000
0000
0000
0000
,
00M0
0000
0000
0000
0000
0000
0000
0000
0000
0000
0000
0000
0000
0000
0000
0000
0000
0000
0000
0000
0000
0000
0000
0000
0000
0000
0000
0000
0000
0M00
0000
0000
0000
0000
0000
0000
0000
0000
0000
0000
0000
0000
0000
0000
0000
0000
0000
0000
00M0
0000
0000
0000
0000
0000
0000
0000
0000
0000
0000
0000
0000
0000
0000
0000
0000
0000
0000
000M
0000
0000
0000
0000
0000
0000
0000
0000
0000
0000
0000
0000
0000
0000
0000
0000
0000
0000
M000
0000
0000
0000
0000
0000
0000
0000
0000
0000
0000
0000
0000
0000
0000
0000
0000
0000
0000
0000
0M00
0000
0000
0000
0000
0000
0000
0000
0000
0000
0000
0000
0000
0000
0000
0000
0000
0000
0000
00M0
0000
0000
0000
0000
0000
0000
0000
0000
0000
0000
0000
0000
0000
0000
0000
0000
0000
0000
0M00
0000
0000
0000
0000
0000
0000
0000
0000
0000
0000
0000
0000
0000
0000
0000
0000
0000
0000
M000
0000
0000
0000
0000
0000
0000
0000
0000
0000
0000
0000
0000
0000
0000
0000
0000
0000
0000
00M0
0000
0000
0000
0000
0000
0000
0000
0000
0000
,
0000
0000
0000
0000
0000
0000
0000
0000
0000
0000
000M
0000
0000
0000
0000
0000
0000
0000
0000
0000
0000
0000
0000
0000
0000
0000
0000
0000
0000
0MM0
0000
0000
0000
0000
0000
0000
0000
0000
0000
0000
0000
0000
0000
0000
0000
0000
0000
0000
MM00
0000
0000
0000
0000
0000
0000
0000
0000
0000
0000
0000
0000
0000
0000
0000
0000
0000
0000
00MM
0000
0000
0000
0000
0000
0000
0000
0000
0000
0000
0000
0000
0000
0000
0000
0000
0000
0000
M000
0000
0000
0000
0000
0000
0000
0000
0000
0000
0000
0000
0000
0000
0000
0000
0000
0000
0000
0000
00MM
0000
0000
0000
0000
0000
0000
0000
0000
0000
0000
0000
0000
0000
0000
0000
0000
0000
0000
0M0M
0000
0000
0000
0000
0000
0000
0000
0000
0000
0000
0000
0000
0000
0000
0000
0000
0000
0000
00M0
0000
0000
0000
0000
0000
0000
0000
0000
0000
0000
0000
0000
0000
0000
0000
0000
0000
0000
M0M0
0000
0000
0000
0000
0000
0000
0000
0000
0000
0M00
0000
0000
0000
0000
0000
0000
0000
0000
0000
0000
0000
0000
0000
0000
0000
0000
0000
0000
,
0MM0
0000
0000
0000
0000
0000
0000
0000
0000
0000
0000
0000
0000
0000
0000
0000
0000
0000
0000
00M0
0000
0000
0000
0000
0000
0000
0000
0000
0000
0000
0000
0000
0000
0000
0000
0000
0000
0000
0MM0
0000
0000
0000
0000
0000
0000
0000
0000
0000
0000
0000
0000
0000
0000
0000
0000
0000
0000
0000
M000
0000
0000
0000
0000
0000
0000
0000
0000
0000
0000
0000
0000
0000
0000
0000
0000
0000
0000
M00M
0000
0000
0000
0000
0000
0000
0000
0000
0MM0
0000
0000
0000
0000
0000
0000
0000
0000
0000
0000
0000
0000
0000
0000
0000
0000
0000
0000
0000
M000
0000
0000
0000
0000
0000
0000
0000
0000
0000
0000
0000
0000
0000
0000
0000
0000
0000
0000
0MM0
0000
0000
0000
0000
0000
0000
0000
0000
0000
0000
0000
0000
0000
0000
0000
0000
0000
0000
000M
0000
0000
0000
0000
0000
0000
0000
0000
0000
0000
0000
0000
0000
0000
0000
0000
0000
0000
MMM0
0000
0000
0000
0000
0000
0000
0000
0000
0000
0000
0000
0000
0000
0000
0000
0000
0000
0000
00M0
0000
0000
0000
0000
0000
0000
0000
0000
0000
,
0000
0000
0000
0000
0000
000M
0000
0000
0000
0000
0000
0000
0000
0000
0000
0000
0000
0000
0000
0000
0000
0000
0000
0000
0000
0000
0000
0000
0000
0000
0000
0000
0000
0000
0000
0000
0000
0000
0000
0000
0000
0000
0000
0000
0000
0000
0000
0000
0002
0000
0000
0000
0000
0000
0000
0000
0000
0000
0000
0000
0000
0000
0000
0000
0000
0000
0000
0000
0000
0000
0000
0000
0000
0000
0000
0000
0000
0000
0000
0000
0000
0000
0000
0000
0003
0000
0000
1000
0000
0000
0000
0000
0000
0000
0000
0000
,
0000
0000
0000
0010
0100
0000
0010
0000
,
1000
0000
0000
0001
0200
0000
0000
0300
,
0001
0010
0100
1000
0010
0000
0200
0000
,
0301
1000
0001
0010
0100
1000
0001
0100
,
0010
0100
0001
0010
0000
0000
0002
0000
,
0013
0000
0100
1000
0010
1000
1010
0000
,
1000
0001
0010
0100
1000
0020
0000
1030
,
0200
0000
0000
0000
0310
0000
0001
1000
0001
0000
1000
0000
1001
0000
0000
0000
,
2010
0000
3020
0230
0000
0300
0002
0000
,
0000
2003
0000
3020
,
0000
0000
0000
0000
0130
0000
0100
0001
,
0020
0000
0000
0000
0230
0000
0300
1000
0001
0000
0000
0001
0100
0000
0010
0100
,
0010
0000
1000
0000
0001
0000
0000
0000
0000
0000
0000
0010
0100
0000
0000
0000
,
0010
0000
0000
0000
0000
0000
0001
0000
1000
0000
0001
0100
0010
0000
0000
0000
,
2000
0000
3100
0000
,
0010
0000
0001
0000
1000
0010
0100
0001
0100
0000
0010
0100
0010
0000
1000
0000
,
0001
0000
0000
0000
0010
0000
0000
0000
0000
0000
0000
0001
0010
0000
0000
0000
,
1100
0000
0000
0000
0100
1000
0010
0000
,
2000
0000
0000
0000
0000
0000
3000
0000
0002
0000
0000
0000
0000
0000
0003
0010
,
0200
0000
0000
1300
0010
0000
0000
0100
,
0001
0010
0001
0000
0100
0001
0010
0000
0100
0010
0100
0000
0100
0000
0000
0000
,
1000
0001
1001
0000
0000
1000
0020
0000
,
0000
0000
0000
0000
0130
0000
0001
0000
0000
0000
0000
0000
1000
0100
0010
0000
,
0001
0000
1000
0000
0010
1000
0100
0000
0010
0000
0000
0000
0000
0000
0000
0000
,
0011
0000
0110
2200
,
0000
0000
0000
0000
3300
0000
0000
0000
1000
0000
0000
1000
0100
0000
0000
0000
,
0000
0000
0000
0000
0000
0000
0110
0000
0000
0000
0000
0000
0000
0000
0000
0000
0000
0000
0010
0000
0000
0000
0000
0000
0001
0000
0000
1000
0000
0000
0000
0000
0000
0000
0000
0000
0001
0000
0000
0000
1000
0000
0000
0000
0010
0000
0000
0000
,
1000
0000
0000
0000
0001
0000
0000
0000
1000
0000
0000
0000
0100
0000
0000
0000
0000
0000
0010
0000
0000
0000
0000
0000
0001
0000
0000
0000
0000
0000
1000
0000
0000
0010
0000
0000
0100
0000
0000
0000
0000
0000
0000
0000
0000
0000
0000
0000
,
0000
0000
0001
0000
0000
0000
0010
0000
0001
0000
0000
0000
1000
0100
1000
0000
,
0001
0000
0000
0000
0000
0000
0010
0000
0000
0100
0000
0000
0000
0000
0000
1000
0000
0000
0000
0000
0000
0001
0000
0000
1000
0000
0000
0000
0010
0000
1000
0000
0100
0000
0010
0000
0001
0000
0000
0000
0000
0000
0000
0000
0000
0000
0000
0000
,
0001
0000
0001
0000
0000
0100
0010
0000
1000
0000
0000
0000
1000
0000
0001
0010
,
0100
0000
0100
1000
0100
0010
0100
0000
0000
0010
0001
0100
0010
0000
0000
0000
,
0000
1000
0001
0000
0000
0001
0010
0000
,
0001
0000
0000
0000
1000
0000
1000
0100
0010
0000
0100
0000
0100
0000
0000
0000
,
1000
0000
0010
1000
0000
1000
0100
0010
0100
0010
0001
0000
0001
0000
0001
0000
,
1000
0000
1000
0010
0100
0010
0100
0000
0100
0000
0100
0000
0001
0000
0010
0100
,
0010
0000
1000
0010
0100
0000
0000
0000
0010
1000
0000
0000
0000
0000
0000
0000
,
0100
0000
0000
0000
0000
0000
0010
0000
0100
1000
0000
0001
1000
0000
0100
0000
,
0010
0000
0000
0000
0100
0000
0000
1000
,
0010
0100
0001
0000
1000
0100
1000
0100
1000
0001
1000
0000
0010
0100
0001
0000
,
0020
0000
0030
0100
1000
0000
0020
0000
0000
0000
0030
0000
0001
0000
0000
0000
,
0000
0000
1000
0000
0100
0001
1000
0000
,
1000
0100
0010
0100
0000
0000
0011
0000
0000
0000
0000
0000
,
1000
0001
0010
0000
0110
0000
0000
0000
1100
0000
0000
0000
0000
0000
0000
0000
,
0001
0100
1010
0010
1010
1000
0001
1000
,
1100
1000
0100
0000
0000
0000
0000
0000
,
0000
1100
0010
0101
;
