#TITLE:Poker Face;
#SUBTITLE:;
#ARTIST:Lady GaGa;
#TITLETRANSLIT:;
#SUBTITLETRANSLIT:;
#ARTISTTRANSLIT:;
#CREDIT:;
#BANNER:;
#BACKGROUND:;
#LYRICSPATH:;
#CDTITLE:;
#MUSIC:Poker Face.mp3;
#OFFSET:-0.020;
#SAMPLESTART:40.320;
#SAMPLELENGTH:12.000;
#SELECTABLE:YES;
#BPMS:0.000=118.960;
#STOPS:;
#BGCHANGES:;

//---------------dance-single - ----------------
#NOTES:
     dance-single:
     :
     Hard:
     7:
     0.497,0.512,0.525,0.021,0.000:
0000
0000
0000
0000
,
0000
0000
0000
0000
0000
1100
1100
1100
,
1100
0000
0100
0000
0010
0001
0010
0100
,
0010
0000
1000
0000
1000
0011
0011
0011
,
0011
1000
0010
0100
0001
0010
1000
0001
,
0010
0100
0001
1000
0010
0000
1010
0000
,
0100
0001
1000
0010
1000
0100
0001
1000
,
0010
0001
0100
0010
0001
1000
1000
1000
,
0101
0001
0100
0010
1000
0100
1000
0001
,
0010
0100
0001
1000
0010
0000
0000
0010
,
1000
0100
0001
1000
0010
0100
0001
1000
,
0010
0100
1000
0100
1000
0000
0000
0000
,
1010
0000
0000
0100
0010
0100
0010
0000
,
0110
0000
0000
0100
0001
0010
0100
0010
,
0101
1000
1000
1000
1000
0000
0000
0100
,
1000
0100
0100
1000
0000
0000
0000
0000
,
0110
0000
0000
0010
1000
0001
1000
0000
,
1001
0000
0000
0010
0001
0010
0100
1000
,
0110
0001
0001
0001
0001
0000
0000
0010
,
0001
0010
0010
0001
0000
0000
0000
0000
,
0000
1100
0110
0011
0000
0011
0110
1100
,
0000
0100
0010
0100
1100
0100
0100
0000
,
1001
0000
0110
0110
0000
0000
0000
0000
,
1000
0000
0001
0010
0001
0100
0001
1000
,
0000
1010
0101
1010
0000
0101
1010
0101
,
0000
0001
1000
0001
0101
0001
0001
0000
,
0011
0000
1010
1010
0000
0000
0000
0000
,
0100
0000
0001
0010
1000
0100
0001
0010
,
0000
0100
0100
0100
1000
0010
0001
0100
,
0100
1000
0010
0001
0000
0110
0110
0110
,
0110
0001
0001
0001
1000
0100
0010
0001
,
0001
1000
0100
0010
0000
1001
1001
1001
,
1001
0100
0001
1000
0010
0100
0001
0100
,
0010
1000
0001
0010
1000
0000
0101
0000
,
0000
1000
0001
0100
0010
1000
0001
0100
,
0010
0001
0100
0010
1000
0001
0001
0001
,
0000
0100
0001
1000
0010
0100
0001
0010
,
1000
0100
0010
1000
0200
0000
0300
1000
,
0100
0010
0001
1000
0010
0100
0001
1000
,
0100
0001
0010
0001
2000
0000
3100
0000
,
0110
0000
0000
0001
0100
0010
1000
0000
,
1010
0000
0000
0100
1000
0010
0001
0100
,
1010
0100
0100
0100
0100
0000
0000
0010
,
0100
0010
0010
0100
0000
0000
0000
0000
,
1001
0000
0000
1000
0001
1000
0010
0000
,
1001
0000
0000
0010
0100
0001
0100
1000
,
1001
0010
0010
0010
0010
0000
0000
1000
,
0010
1000
1000
0010
0000
0000
0000
0000
;

//---------------dance-single - ----------------
#NOTES:
     dance-single:
     :
     Medium:
     5:
     0.349,0.366,0.155,0.010,0.000:
0000
0000
0000
0000
,
0000
0000
0000
0000
0000
0010
0010
0010
,
0010
0010
0001
0001
,
0001
0000
0100
0000
0100
0001
0001
0001
,
0001
0000
0001
0010
1000
0000
0100
1000
,
0001
0000
1000
0100
0001
0000
0001
0000
,
0010
0000
0100
0001
0100
0000
1000
0100
,
0001
0000
0010
0001
1000
0000
0000
0000
,
0010
0000
0010
0001
0100
0000
0100
1000
,
0001
0000
1000
0100
0001
0000
0000
0000
,
0100
0000
1000
0100
0001
0000
1000
0100
,
0001
0000
0100
0010
0100
0000
0000
0000
,
0100
0000
0000
0000
0001
0010
0001
0000
,
0011
0000
0000
0000
1000
0001
0010
0000
,
1010
0000
0100
0100
0100
0000
0000
0010
,
0100
0000
0010
0100
0000
0000
0000
0000
,
0010
0000
0000
0000
0100
1000
0100
0000
,
1100
0000
0000
0000
1000
0001
0010
0000
,
0011
0000
1000
1000
1000
0000
0000
0001
,
1000
0000
0001
1000
0000
0000
0000
0000
,
0000
0110
0001
1000
0000
1001
0010
0100
,
0000
0000
0001
0010
0100
0010
0001
0000
,
1100
0000
0010
0010
0000
0000
0000
0000
,
0100
0000
1000
0001
1000
0010
1000
0000
,
0000
0101
0010
0001
0000
1010
0001
1000
,
0000
0000
0100
1000
0010
1000
0001
0000
,
1001
0000
0100
0100
0000
0000
0000
0000
,
0010
0000
1000
0001
0100
0010
1000
0000
,
0000
0000
0010
0000
0100
0001
1000
0000
,
0010
0100
0001
1000
0000
0001
0001
0001
,
0001
0000
1000
0000
0100
0010
0001
0000
,
1000
0100
0010
0001
0000
0100
0100
0100
,
0100
0000
1000
0100
0001
0000
1000
0010
,
0001
0000
1000
0001
0100
0000
1010
0000
,
0000
0000
1000
0010
0001
0000
1000
0010
,
0001
0000
0010
0001
0100
0000
0000
0000
,
0000
0000
1000
0100
0001
0000
1000
0001
,
0100
0000
0001
0100
0020
0000
0030
0000
,
0010
0000
1000
0100
0001
0000
1000
0100
,
0010
0000
0001
1000
0100
0000
0010
0000
,
0001
0000
0000
0000
0010
0001
0100
0000
,
0101
0000
0000
0000
0100
0001
1000
0000
,
0101
0000
0010
0010
0010
0000
0000
0001
,
0010
0000
0001
0010
0000
0000
0000
0000
,
1000
0000
0000
0000
1000
0100
0001
0000
,
1100
0000
0000
0000
0010
1000
0010
0000
,
1100
0000
0001
0001
0001
0000
0000
0100
,
0001
0000
0100
0001
0000
0000
0000
0000
;

//---------------dance-single - ----------------
#NOTES:
     dance-single:
     :
     Easy:
     3:
     0.231,0.220,0.082,0.000,0.000:
0000
0000
0000
0000
,
0000
0000
0000
0000
0000
0000
0010
0001
,
0100
0000
1000
0000
,
0010
0000
0000
0000
0010
0000
0100
1000
,
0010
0010
0001
0010
,
1000
0001
0100
0000
,
0010
1000
0001
0001
,
1000
0010
0010
0000
,
0001
0100
0010
0010
,
0100
0001
0001
0000
,
1000
0001
0001
0001
,
1000
1000
0010
0000
,
0100
0000
0001
0100
,
1100
0000
0100
0100
,
0110
1000
1000
0000
,
1000
0000
0000
0100
0000
0000
0000
0000
,
0010
0000
0100
1000
,
0011
0000
0100
0010
,
1001
0001
0001
0000
,
0001
0000
0000
0001
0000
0000
0000
0000
,
0000
0100
0000
0100
0000
0100
0000
0010
,
0000
0001
0001
0001
,
1000
0000
0100
1000
0000
0000
0000
0000
,
1000
0100
0001
0010
,
0000
1000
0000
0010
0000
1000
0000
0001
,
0000
0001
0100
0010
,
1000
0000
1000
0010
0000
0000
0000
0000
,
0001
1000
0010
0001
,
0000
0100
0001
1000
,
1000
0000
0001
0000
0000
0000
0001
0010
,
0010
1000
0100
0100
,
0010
0000
0100
0000
0000
0000
0001
0001
,
0001
0001
0100
0010
,
0001
1000
0001
0000
,
0000
0010
0001
0100
,
0010
1000
1000
0000
,
0000
0001
0001
0100
,
0010
0010
0010
0000
,
0010
0001
0100
0010
,
0010
0010
0010
0000
,
1000
0000
0100
0010
,
1010
0000
0100
1000
,
0011
0010
0001
0000
,
0100
0000
0000
0001
0000
0000
0000
0000
,
1000
0000
0010
0100
,
0110
0000
0001
1000
,
1100
0010
0001
0000
,
0010
0000
0000
1000
0000
0000
0000
0000
;

//---------------dance-single - ----------------
#NOTES:
     dance-single:
     :
     Beginner:
     1:
     0.138,0.171,0.000,0.000,0.000: // measure 1
0000
0000
0000
0000
,  // measure 2
0000
0000
0000
0010
,  // measure 3
0010
0000
1000
0000
,  // measure 4
0010
0000
0010
0000
,  // measure 5
0010
0000
0001
0000
,  // measure 6
1000
0000
0100
0000
,  // measure 7
0010
0000
0001
0000
,  // measure 8
1000
0000
0010
0000
,  // measure 9
0001
0000
0010
0000
,  // measure 10
0100
0000
0001
0000
,  // measure 11
1000
0000
0001
0000
,  // measure 12
1000
0000
0010
0000
,  // measure 13
0100
0000
0100
0100
,  // measure 14
0100
0000
0100
0100
,  // measure 15
0100
0000
0000
0000
,  // measure 16
1000
0000
1000
0000
,  // measure 17
0010
0000
0100
0100
,  // measure 18
0100
0000
0010
0010
,  // measure 19
0010
0000
0000
0000
,  // measure 20
0001
0000
0001
0000
,  // measure 21
0100
0000
0100
0000
,  // measure 22
0100
0000
0000
0000
,  // measure 23
1000
1000
0000
0000
,  // measure 24
1000
0000
0001
0000
,  // measure 25
0100
0000
0010
0000
,  // measure 26
0100
0000
0000
0000
,  // measure 27
1000
1000
0000
0000
,  // measure 28
0001
0000
0010
0000
,  // measure 29
0000
0100
0000
1000
,  // measure 30
0000
0001
0000
0010
,  // measure 31
0010
0010
0000
0100
,  // measure 32
0000
0100
0000
0001
,  // measure 33
0001
0001
0000
0010
,  // measure 34
0000
1000
0000
0000
,  // measure 35
0000
0010
0000
0100
,  // measure 36
0000
1000
0000
0000
,  // measure 37
0000
0001
0000
0100
,  // measure 38
0000
0010
0000
0000
,  // measure 39
0010
0000
0100
0000
,  // measure 40
0010
0000
0010
0000
,  // measure 41
1000
0000
0010
0010
,  // measure 42
0010
0000
1000
1000
,  // measure 43
1000
0000
0000
0000
,  // measure 44
0100
0000
0001
0000
,  // measure 45
1000
0000
0010
0010
,  // measure 46
0010
0000
0001
0001
,  // measure 47
0001
0000
0000
0000
,  // measure 48
0010
0000
1000
0000
;
