#TITLE:你比从前快乐;
#SUBTITLE:;
#ARTIST:周杰倫;
#TITLETRANSLIT:Ni bi congqian kuaile;
#SUBTITLETRANSLIT:;
#ARTISTTRANSLIT:Jay Chou;
#GENRE:;
#CREDIT:;
#BANNER:Ni bi congqian kuaile.png;
#BACKGROUND:Ni bi congqian kuaile-bg.png;
#LYRICSPATH:;
#CDTITLE:;
#MUSIC:Ni bi congqian kuaile.mp3;
#OFFSET:0.117000;
#SAMPLESTART:74.666000;
#SAMPLELENGTH:15.000000;
#SELECTABLE:YES;
#BPMS:0.000000=140.000000
,28.000000=139.500000
,48.000000=140.500000
,61.000000=138.500000
,68.000000=137.500000
,88.000000=139.500000
,112.000000=141.000000
,120.000000=140.000000
,252.000000=141.000000
;
#STOPS:
;
#BGCHANGES:0.000=Ni bi congqian kuaile.mp4=1.000=0=0=0=StretchNoLoop====,
256.000=Ni bi congqian kuaile-bg.png=1.000=0=0=1=====,
99999=-nosongbg-=1.000=0=0=0 // don't automatically add -songbackground-
;
#KEYSOUNDS:;
#ATTACKS:;

//---------------dance-single - ----------------
#NOTES:
     dance-single:
     :
     Hard:
     6:
     0.325190,0.453495,0.053144,0.132860,0.057573,257.000000,251.000000,6.000000,15.000000,0.000000,0.000000,0.325190,0.453495,0.053144,0.132860,0.057573,257.000000,251.000000,6.000000,15.000000,0.000000,0.000000:
// measure 0
0000
0000
0000
0000
,  // measure 1
0000
0000
0000
0000
,  // measure 2
0000
0000
0000
0000
,  // measure 3
0000
0000
0000
0000
0000
0000
0000
0000
0000
0000
0000
0000
0000
0000
0000
0000
0000
0000
0000
0000
0000
0000
0000
0000
0000
0000
0000
0000
0000
0000
0000
0001
,  // measure 4
1000
0000
0100
0100
,  // measure 5
0100
0010
0100
0000
,  // measure 6
0010
0000
0000
0000
0001
0000
0000
0000
1000
0000
0000
0000
0100
0000
0000
0010
,  // measure 7
0100
0000
1000
0001
1000
0000
1000
0000
,  // measure 8
0001
0100
0001
2000
,  // measure 9
0000
0000
0000
3000
0010
0000
0000
0000
,  // measure 10
1000
0000
0000
0000
0000
0000
0000
0000
0000
0000
0000
0000
0000
0000
0000
0000
0001
0000
0000
0000
0000
0000
0000
0000
0000
0000
0000
0000
0000
0000
0000
0010
,  // measure 11
0001
0000
1000
0000
,  // measure 12
0200
0000
0000
0000
,  // measure 13
0320
0000
0000
0000
0000
0000
0000
0000
0000
0000
0000
0000
0000
0000
0000
0000
0000
0000
0000
0000
0000
0000
0000
0000
0000
0000
0000
0000
0000
0000
0000
0000
0000
0000
0000
0000
0000
0000
0000
0000
0000
0000
0000
0000
0000
0000
0000
0000
0000
0000
0000
0000
0000
0000
0000
0000
0000
0000
0000
0000
0000
0000
0000
0000
0000
0000
0000
0000
0000
0000
0000
0000
0000
0000
0000
0000
0000
0000
0000
0000
0000
0000
0000
0000
0000
0000
0000
0000
0000
0000
0000
0000
0000
0000
0000
0000
0000
0000
0000
0000
0000
0000
0000
0000
0000
0000
0000
0000
0000
0000
0000
0000
0000
0000
0000
0000
0000
0000
0000
0000
0000
0000
0000
0000
0000
0000
0000
0000
0000
0000
0000
0000
0000
0000
0000
0000
0000
0000
0000
0000
0000
0000
0000
0000
0000
0000
0000
0000
0000
0000
0000
0000
0000
0000
0000
0000
0000
0000
0000
0000
0000
0000
0000
0000
0000
0000
0000
0000
0000
0000
0000
0000
0000
0000
0000
0000
0000
0000
0030
0000
0000
0000
0000
0000
0000
0000
0000
0000
0000
0000
0000
0000
,  // measure 14
0100
0001
1000
0001
,  // measure 15
0010
0100
0000
0000
,  // measure 16
0200
0000
0000
0000
,  // measure 17
2300
0000
3020
0000
,  // measure 18
0230
0000
0302
0000
,  // measure 19
2003
0000
0000
0000
0000
0000
0000
0000
0000
0000
0000
0000
3000
0000
0000
1000
0200
0000
0000
0000
0000
0000
0000
0000
0000
0000
0000
0000
0000
0000
0000
0000
,  // measure 20
0320
0000
0032
0000
,  // measure 21
0203
0000
0000
0320
0000
0000
2030
0000
,  // measure 22
3100
0010
0000
0100
,  // measure 23
1000
0001
0100
0000
,  // measure 24
0000
0010
1000
0000
,  // measure 25
0001
0010
0100
0000
,  // measure 26
1000
0000
0010
0100
,  // measure 27
0100
0000
0001
0010
,  // measure 28
0001
0000
0000
0100
0001
0000
0100
0010
,  // measure 29
0100
0000
0010
1000
0010
0000
1000
0000
,  // measure 30
0001
0000
0000
0010
0100
0000
0010
0000
,  // measure 31
0001
0100
0001
0000
1000
0010
1000
0000
,  // measure 32
0100
0000
0010
0001
0100
0001
0100
0000
,  // measure 33
0010
0000
0000
1000
0001
0000
0010
0000
,  // measure 34
0100
0000
1000
0100
1000
0000
0000
0000
,  // measure 35
0001
0000
0100
0000
0010
1000
0001
0000
,  // measure 36
0010
0000
0001
1000
,  // measure 37
0010
0100
0001
1000
,  // measure 38
0100
0000
0010
0000
0001
1000
0001
1000
,  // measure 39
0100
0010
0100
1000
,  // measure 40
0001
0000
0100
0000
0010
0100
0001
0100
,  // measure 41
0010
0000
1000
0000
0001
1000
0001
0000
,  // measure 42
0100
0000
0000
0000
0010
0000
0000
0000
1000
0000
0000
0001
1000
0000
0100
0000
,  // measure 43
0010
0000
0001
1000
0000
0001
0100
0010
,  // measure 44
1000
0000
0001
0000
0010
0000
0100
1000
,  // measure 45
0100
0000
0000
1000
0000
0000
0001
0000
0000
0000
0000
0000
0100
0000
0000
0000
0000
0000
0000
0000
0000
0001
1000
0001
,  // measure 46
1000
0000
0000
0001
1001
0000
0100
0000
,  // measure 47
1001
0000
0001
0000
1001
0000
1000
0001
,  // measure 48
1001
0000
1001
0000
1000
0010
0000
0100
,  // measure 49
0001
0100
0001
0000
1001
0000
1000
0000
,  // measure 50
0100
0000
0010
0100
1000
0001
1000
0001
,  // measure 51
1000
0000
0000
0000
0001
0000
1000
0000
0001
0000
1000
0000
0001
0000
0000
0100
0000
0000
0000
0000
0000
0000
0000
0000
,  // measure 52
0010
0000
0000
1000
0001
0000
0010
0001
,  // measure 53
1000
0001
1000
0001
0100
0000
0100
0000
,  // measure 54
0100
0000
0000
0010
1000
0000
0100
1000
,  // measure 55
0100
0010
0001
1000
,  // measure 56
0100
0000
1000
0010
0100
0000
0100
0000
,  // measure 57
1000
0000
0000
0000
0000
0000
0000
0001
0100
0000
0000
0000
0000
0000
0000
0000
0000
0000
0000
0000
0000
0000
0000
0000
0001
0000
0000
0010
0001
0000
0000
0000
,  // measure 58
0010
0000
0000
1000
1000
0000
0100
0000
,  // measure 59
0010
0010
0100
1000
,  // measure 60
0010
0000
0010
0100
0010
0000
0010
0000
,  // measure 61
0000
0000
0100
0000
0001
0010
0100
1000
,  // measure 62
0001
0000
0000
0100
0001
0100
0010
0000
,  // measure 63
1000
0000
0000
0000
0100
0000
1000
0000
0100
0000
0010
0000
0000
0100
0010
0000
,  // measure 64
0001
0000
0000
0000
;
