#TITLE:Nevena;
#SUBTITLE:;
#ARTIST:Đorđe Balašević;
#TITLETRANSLIT:;
#SUBTITLETRANSLIT:;
#ARTISTTRANSLIT:;
#GENRE:;
#CREDIT:;
#MUSIC:Nevena.mp3;
#BANNER:Nevena.png;
#BACKGROUND:Nevena-bg.png;
#CDTITLE:;
#SAMPLESTART:70.941;
#SAMPLELENGTH:14.244;
#SELECTABLE:YES;
#OFFSET:-0.230;
#BPMS:0.000=124.011
,14.000=127.611
,16.000=124.011
,24.000=125.301
,34.000=123.301
,38.000=124.801
,48.000=124.301
,54.000=123.801
,62.000=118.651
,70.000=121.151
,74.000=122.151
,80.000=120.651
,86.000=121.901
,96.000=124.401
,102.000=122.401
,112.000=123.401
,120.000=121.901
,138.000=124.051
,145.000=119.551
,148.000=122.901
,160.000=120.901
,164.000=122.401
,173.000=124.151
,178.000=120.151
,182.000=123.151
,184.000=122.151
,186.333=124.151
,190.000=123.651
,196.000=122.510
,200.000=124.200
,210.000=121.260
,218.000=121.010
,228.000=124.010
,236.000=120.510
,244.000=123.510
,248.000=121.010
,254.000=122.510
,260.000=123.510
,266.000=125.510
;
#STOPS:;
#BGCHANGES:;
#FGCHANGES:;

//--------------- dance-single - ----------------
#NOTES:
     dance-single:
     :
     Easy:
     3:
     0,0,0,0,0:
0000
0000
0000
0000
,
0000
0000
0000
0000
,
0000
0000
0000
0000
,
0000
0000
0010
0000
,
0100
0000
0010
0000
,
0001
0000
1000
0000
,
0010
0000
0100
0000
,
0001
0000
0100
0000
,
0010
0000
0000
0000
0000
0000
1000
0000
1000
0000
1000
0000
,
0001
0000
0010
0000
,
0100
0000
1000
0000
,
0001
0000
0100
0000
,
0010
0000
1000
0000
,
0000
0000
0001
0000
,
0000
0000
0000
0000
,
0010
0000
0000
0010
0000
0010
0000
0000
0000
0000
0000
0000
0100
0000
0000
0000
0000
0000
0000
0000
0000
0000
0000
0000
,
1000
0000
0001
0000
,
0100
0000
0010
0000
,
1000
1000
0000
0000
0000
0000
0000
0000
,
0001
0000
0100
0000
,
0010
0000
1000
0000
,
0100
0000
0010
0000
,
0001
0100
0001
0100
0000
0000
0010
0000
0000
0000
0000
0000
,
1000
0000
0100
0000
,
0010
0000
0000
0000
0000
0001
0100
0000
0000
0000
0000
0000
,
0010
0000
0000
1000
0001
0000
0000
0000
,
0010
0100
1000
0000
,
0001
0100
0010
0000
,
0100
0000
0001
0000
1000
0100
0000
0000
,
0010
0000
0001
1000
0010
0000
0000
0100
,
0010
0000
1000
0200
,
0300
0010
0001
0000
,
1000
0000
0000
0001
0000
0000
0000
0000
0000
0000
0000
0000
0100
0000
0020
0000
0000
0000
0000
0000
0000
0000
0030
0000
,
0000
0000
0000
0000
2000
0000
0000
3000
,
0000
0000
0000
0000
,
0000
0000
1001
0000
,
0001
0000
0000
0100
0010
0000
1000
0001
0000
0000
0000
0000
,
1000
0000
0000
0000
0000
0000
0001
0000
0100
0000
0000
0000
,
0010
1000
0001
0000
,
0010
0000
0000
0000
0000
0000
0000
0000
0000
0100
0000
0000
1000
0000
0000
0000
0000
0000
0000
0000
0000
0000
0001
0000
,
0100
0000
0010
0000
,
1000
0000
0001
0000
,
0100
0010
1000
0100
,
0010
0000
0000
0100
1000
0000
0000
0000
,
0001
0100
0001
0000
,
0010
0000
0100
1000
0100
0000
0010
0000
0001
0000
0000
0000
,
0100
0010
1000
0000
,
0001
0000
0000
0000
0000
0000
0000
0000
0010
0000
0000
0000
0000
0000
0000
0000
0000
0000
0000
0000
0000
0001
0000
0000
1000
0000
0000
0000
0000
0000
0000
0000
0000
0000
0000
0000
0010
0000
0000
0000
0000
0000
0000
0000
0000
0000
0000
0000
,
0100
0000
0001
0000
0000
0000
1001
0000
0000
0000
0000
0000
,
1000
0100
0000
0010
0001
0000
1000
0000
,
0000
0000
0000
0000
,
0001
0000
1000
0000
0000
0000
0000
0100
1000
0000
0000
0000
0000
0000
0001
0000
,
0100
0000
0001
0010
0001
0000
0000
0000
,
1000
0000
0000
0000
0100
0010
0000
0000
,
0110
0000
0010
0000
,
0100
0000
1000
0000
0010
0000
0000
0100
,
0001
0000
0000
0100
0001
0000
0000
0000
,
0010
0100
1000
0000
,
0010
0000
0100
0001
,
1000
0000
0100
0000
0000
0000
0010
0000
0000
0100
0000
0000
,
1000
0000
0010
0000
,
0100
0001
0000
0000
1000
0000
0000
0000
,
0100
0010
0000
0000
0001
0000
0000
0000
,
1000
0100
0000
0000
0000
0000
1000
0000
,
0100
0000
0000
0010
0001
0000
0000
0000
,
0100
0001
0000
0000
0010
0100
0000
0000
,
1000
0010
0000
0000
1000
0000
0000
0000
,
0001
0010
0001
0000
;

//--------------- dance-single - ----------------
#NOTES:
     dance-single:
     :
     Hard:
     6:
     0,0,0,0,0:
0000
0000
0000
0000
,
0000
0000
0000
0000
,
0000
0000
0000
0000
,
0001
0000
0000
1000
0100
0000
0000
0000
,
0010
0000
0001
0100
0001
0000
0000
1000
,
0100
0000
0010
0100
,
1000
0000
0000
0000
0001
0100
0010
0000
,
1000
0100
0010
0100
,
1000
0000
0000
0001
0000
0000
1000
0000
0000
0000
0000
0000
0010
0000
0000
0000
0100
0000
0000
0000
0001
0000
0000
0000
,
0100
0000
0000
0010
1000
0000
0000
0000
,
1100
0000
0001
0000
,
0001
0000
0000
0010
0000
0000
0100
1000
0000
0000
0000
0000
,
0001
0000
0100
0010
1000
0000
0010
0000
,
0100
0001
0010
0000
,
0010
1000
0000
0000
0000
0000
0001
0000
0000
0000
0000
0000
,
0100
0000
0000
0010
0000
0000
1000
0000
0000
0000
0010
0000
0100
0000
0000
0000
0000
0000
0000
0000
0000
0000
0000
0000
,
0001
0000
0000
0000
0000
1000
0100
0000
0000
0000
0000
0000
,
0010
0001
0010
0100
1000
0000
0000
0000
,
0010
0000
0000
0000
0100
0000
0010
0000
0000
1000
0000
0000
0100
0000
0000
0000
0000
0000
0000
0000
0000
0000
0000
0000
,
0010
0001
0000
0000
0100
0000
0001
0000
1000
0000
0000
0000
0000
0000
0000
0000
,
0100
0000
0000
0000
0000
0000
0000
0000
0000
0010
0000
0000
0001
0000
0000
0000
0000
0000
0000
0000
0000
0010
0000
0000
0001
0000
0000
0000
0000
0000
0000
0000
0000
0000
0000
0000
0000
0000
0000
0000
0000
0000
0000
0000
0010
0000
0000
0000
,
0100
0000
1000
0010
0100
0000
0000
0000
,
0010
1000
0001
0010
0000
0000
0100
0000
1000
0000
0000
0000
,
0020
0000
0000
0000
0030
0000
0000
0001
,
0100
0000
0000
0000
0000
0010
1000
0000
0000
0001
0000
0000
,
0010
0000
0100
1000
0001
0000
0000
0000
,
0100
0010
1000
0001
,
0010
0000
0100
1000
0001
0000
0000
0000
,
1000
0000
0000
0000
0010
0000
0100
0000
0001
0000
0000
0000
1000
0000
0000
0100
0000
0010
0000
0000
0000
0000
0000
0000
,
0001
1000
0001
1000
0010
0000
0000
0100
,
0001
0000
1000
0001
,
0010
0100
1000
0100
,
0010
0000
0001
0010
0000
0000
0001
1000
0010
0100
0000
0000
,
0001
0000
1000
0100
0010
0000
0000
0000
,
0002
0103
0010
0000
,
1000
0200
0000
0000
0300
1000
0020
0000
,
0030
0000
0000
0100
0001
0000
1000
0001
0000
0000
0000
0000
,
0020
0000
0030
0100
0020
0000
0030
0000
,
0001
0000
1000
0100
1000
0000
0100
0000
0000
0010
0000
0001
,
1000
0000
0000
0000
0000
0000
0010
0000
0000
0100
0000
0000
0001
0000
0000
0010
0000
0000
0000
0000
0000
0000
0100
0000
,
1000
0000
0100
0000
,
0010
0001
1000
0001
0000
0000
0100
0000
0010
0000
0100
0000
,
0001
0000
0000
0000
0000
0000
0000
0000
0000
0000
0000
0000
0000
0000
0000
0000
0000
0000
0000
0000
0000
0010
0000
0000
0100
0000
0000
0000
0000
0000
0000
0000
0000
0000
0000
0000
0000
0000
0000
0000
0010
0000
0000
0000
0000
0000
0000
0000
0001
0000
0000
0000
0000
0000
0000
0000
1000
0000
0000
0000
0000
0000
0000
0000
0000
0000
0000
0000
0000
0000
0000
0000
0010
0000
0000
0000
0000
0000
0000
0000
0000
0000
0000
0000
0000
0000
0000
0000
0000
0000
0000
0000
0000
0000
0000
0000
,
0100
0000
0000
0001
0010
0100
1000
0000
0000
0000
0000
0000
,
0001
0100
0010
1000
0001
0000
0000
0000
,
0100
0000
0010
1000
0001
0000
1000
0000
0100
0000
0000
0000
,
0110
0000
0000
0010
0001
0001
0000
1000
0000
0000
0000
0000
,
1100
0000
0100
0000
0000
0001
1000
0000
0000
0100
0000
0000
,
0110
0000
0011
0000
0000
0000
1000
0000
0000
0000
0000
0000
,
0001
0000
0000
0000
0000
0000
0010
0000
0000
0000
0000
0000
0001
0000
0000
0000
0000
0000
1000
0000
0000
0000
0000
0000
0010
0000
0000
0000
0100
0000
0000
0000
0000
0010
0000
0000
1000
0000
0000
0001
0000
0000
1000
0000
0000
0000
0000
0000
,
0001
0110
0100
1100
,
0001
0000
0001
0000
0001
1000
0001
0000
0010
0000
0000
0000
0000
0000
1010
0000
,
0100
0010
0001
0100
1010
0000
0000
0000
,
1000
0010
1000
0001
1000
0001
0010
0000
,
1100
0000
0000
0000
0000
0000
0110
0000
0000
0000
0000
0001
,
0010
0000
0101
0000
0101
0000
1000
0001
,
1001
0000
0000
1000
1001
0000
0000
0000
,
0001
0100
0010
0100
0000
0000
0101
0000
0000
1010
0000
0000
,
0011
0000
0000
0001
1000
0000
0001
2000
0000
3010
0000
0000
,
1100
0000
1001
0000
0000
0000
0011
0000
0000
1001
0000
0000
,
0001
0101
0101
0000
,
1000
0000
0010
1010
0000
0000
1100
0000
0000
0000
0000
0000
,
0001
0000
0000
0000
0000
0000
0000
0000
0000
0000
0000
0000
0000
0000
0000
0000
0010
0000
0000
0000
0000
0000
0000
0000
0000
0000
0000
0000
0000
0000
0000
0000
0000
0000
0000
0000
0001
0000
0000
0000
0000
0000
0000
0000
0000
1000
0000
0000
0010
0000
0000
0000
0000
0000
0000
0000
0000
0000
0000
0000
0000
0000
0000
0000
0110
0000
0000
0000
0000
0000
0000
0000
0000
0000
0000
0000
0000
0000
0000
0000
0000
0000
0000
0000
0000
0000
0000
0000
0000
0000
0000
0000
0000
0000
0000
0000
,
0100
0000
0000
0010
1000
0000
0000
0000
0001
0000
0000
0000
0010
0000
0000
0000
0010
0000
0000
0000
0000
0000
0000
0000
0110
0000
0000
0000
0000
0000
0000
0000
,
0100
1000
0100
1000
0001
0000
0000
0000
,
0100
0010
0000
1000
0100
1000
0000
0000
,
0010
0100
0001
0010
0001
0000
0000
0000
,
0100
0010
1000
0000
;
