#TITLE:무정;
#SUBTITLE:(8 Bit Bootleg Mix);
#ARTIST:채정안;
#TITLETRANSLIT:Moojung;
#SUBTITLETRANSLIT:;
#ARTISTTRANSLIT:Chae Jung Ahn;
#CREDIT:;
#BANNER:;
#BACKGROUND:;
#LYRICSPATH:;
#CDTITLE:;
#MUSIC:Moojung.mp3;
#OFFSET:-0.800;
#SAMPLESTART:0.000;
#SAMPLELENGTH:12.000;
#SELECTABLE:YES;
#BPMS:0.000=158.960;
#STOPS:36.000=1.510
;
#BGCHANGES:;

//---------------dance-single - ----------------
#NOTES:
     dance-single:
     :
     Hard:
     8:
     0.556,0.560,0.313,0.091,0.130:
0000
0000
0000
0000
,
0000
0000
0000
0000
,
0100
0001
1000
0100
,
0010
0000
0000
0000
0010
0000
0000
0000
0001
0000
1000
0001
0100
0000
0001
0000
,
0000
1000
0000
0000
0100
0000
0100
0000
,
0010
0000
0000
0000
1000
0000
0000
0000
1000
0000
0010
0001
0010
0001
1000
0000
,
0000
0100
0000
0000
1000
0000
0001
0000
,
0001
0000
0000
0000
0001
0000
0000
0000
0001
0000
0100
0001
0010
0000
0100
0000
,
0000
0100
0000
0000
1000
0000
1000
0000
,
0010
1001
0010
0101
,
0010
0000
0000
0000
0011
0000
0000
0000
0001
0000
1000
0001
0100
0000
0001
0000
,
0000
0001
0000
0000
0010
0000
0011
0000
,
0100
0000
0000
0000
1100
0000
0000
0000
0010
0000
1000
0010
1000
0010
0001
0000
,
0000
0010
0000
0000
0100
0000
0110
0000
,
1000
0000
0000
0000
1001
0000
0000
0000
1000
0000
0010
0100
0001
0000
0010
0000
,
0100
1010
0010
0101
,
0100
0010
0100
0000
1000
0100
1000
0000
0010
0001
0010
0000
0001
1000
0001
0000
,
0100
0000
0010
0000
0001
0000
1000
0100
,
0010
0001
0100
0010
0002
0000
0003
0000
,
0010
0000
0100
0000
1000
0000
0001
0010
,
0100
0000
0000
1000
0010
0000
0100
0000
2000
0000
0000
0000
3000
0000
0000
0000
,
0100
0000
0100
0000
0010
0000
1000
0100
,
0010
0100
0010
0100
0001
1000
0001
1000
,
0001
0110
0100
0011
,
0001
0000
0000
0000
1100
0000
0000
0000
0100
0000
0100
0010
0001
0000
0010
0000
,
1000
0100
0001
0010
1000
0100
1000
0001
,
1000
0010
1000
0001
2000
0000
3000
0000
,
0001
0100
1000
0100
0001
0010
0010
0001
,
2000
0000
0000
3010
2000
0000
3010
0100
,
0000
0001
0010
1000
0100
0001
0010
1000
,
0100
1000
0010
1000
0100
0010
0001
0010
,
0100
0100
0110
0000
0001
0001
1001
0000
,
0010
0000
0010
0000
1010
0000
0000
0000
0000
0000
0010
0100
1000
0100
0010
0000
,
0010
0000
0100
0100
0000
0001
0001
0001
,
0001
0000
1000
0010
1000
0010
1000
0100
,
0010
0000
0100
0100
0000
1000
0100
1000
,
0010
0100
0001
0010
0200
0000
0000
0000
,
1300
0000
0010
0010
0000
0010
0100
0100
,
0100
0000
0100
1000
0010
1000
0010
0100
,
0001
0000
0010
0010
0000
0001
0001
0010
,
0001
0100
1000
0010
0200
0000
0000
0000
,
1300
1100
0001
0011
,
0100
0000
0000
0000
1100
0000
0000
0000
0010
0000
0010
0001
0010
0000
0100
0000
,
0000
1000
0000
0000
0100
0000
1001
0000
,
0010
0000
0000
0000
0110
0000
0000
0000
0100
0000
1000
0100
0010
0100
0010
0000
,
0000
0010
0000
0000
1000
0000
1010
0000
,
0001
0000
0000
0000
0101
0000
0000
0000
0010
0000
1000
0100
0010
0000
0001
0000
,
0100
0100
0110
0000
0001
0001
1001
0000
;

//---------------dance-single - ----------------
#NOTES:
     dance-single:
     :
     Medium:
     6:
     0.452,0.435,0.169,0.039,0.000:
0000
0000
0000
0000
,
0000
0000
0000
0000
,
0100
1000
0001
0100
,
0100
0000
1000
0000
0001
0100
0001
0200
,
0000
1300
0000
0000
0100
0000
0010
0000
,
1000
0000
0100
0000
0100
0010
1000
0010
,
0100
1000
0000
0000
0010
0000
0100
0000
,
0100
0000
1000
0000
1000
0100
0010
0100
,
0000
0001
0010
0001
0100
0010
0100
1000
,
0001
0010
0001
0010
,
0100
0000
0001
0000
0010
0001
0010
0200
,
0000
1300
0000
0000
0100
0000
0001
0000
,
0010
0000
0001
0000
0001
0100
0010
0100
,
0010
0010
0000
0000
0100
0000
0100
0000
,
0100
0000
1000
0000
0010
0010
0001
0100
,
0010
1000
0100
0010
,
0100
0100
0010
1000
1000
1000
0001
0001
,
1000
0100
0010
0100
,
0001
1000
0001
1000
0001
0000
0000
0000
,
0100
1000
0010
1000
,
0100
0000
0001
0010
0001
0000
0000
0000
,
0001
0010
0100
0010
,
0001
0000
1000
0000
0001
1000
0001
1000
,
0100
0010
0100
1000
,
0010
0000
0001
0000
0010
0001
0100
1000
,
0100
0110
0000
0011
,
1000
0010
1000
0010
0100
0000
1100
0000
,
0000
0110
0000
0011
,
0000
0000
0110
0000
0000
0000
1000
0010
,
0000
1010
0000
0101
,
0000
0000
1000
0100
1000
0010
1000
0100
,
0001
1001
0100
0110
,
1000
0000
1001
0000
0010
0001
0100
0010
,
1000
0000
0100
0010
0000
1000
0100
0010
,
0100
0000
0010
0001
0000
0100
0010
0001
,
0100
0000
0001
1000
0000
0100
0001
1000
,
0001
0000
1000
0010
0000
0001
1000
0010
,
0100
0000
1000
0010
0000
0100
1000
0010
,
1000
0000
0010
0001
0000
1000
0010
0001
,
1000
0000
0100
0010
0000
1000
0100
0010
,
0100
0000
0010
0001
0000
0100
0010
0001
,
0001
0010
0001
0010
,
1000
0000
0001
0000
0010
0001
0010
2000
,
0000
3100
0000
0000
1000
0000
0001
0000
,
0010
0000
0001
0000
0001
1000
0010
1000
,
0010
0010
0000
0000
1000
0000
1000
0000
,
1000
0000
0100
0000
0010
0010
0001
1000
,
0010
1010
0100
0110
;

//---------------dance-single - ----------------
#NOTES:
     dance-single:
     :
     Easy:
     4:
     0.292,0.375,0.130,0.052,0.000: // measure 1
0000
0000
0000
0000
,  // measure 2
0000
0000
0000
0000
,  // measure 3
0100
1000
0001
0100
,  // measure 4
0100
1000
0001
0000
,  // measure 5
0000
1000
0100
0010
,  // measure 6
1000
0100
0100
1000
,  // measure 7
0000
0100
0010
0100
,  // measure 8
0100
1000
1000
0010
,  // measure 9
0000
0010
0100
0100
,  // measure 10
1001
0010
0001
0010
,  // measure 11
0100
0001
0010
0000
,  // measure 12
0000
0100
0100
0001
,  // measure 13
0010
0001
0001
0010
,  // measure 14
0000
0010
0100
0100
,  // measure 15
0100
1000
0010
0001
,  // measure 16
0010
0000
0100
0000
,  // measure 17
0100
0100
0100
0100
,  // measure 18
1000
0100
0010
0000
,  // measure 19
0001
0001
0001
0000
,  // measure 20
0100
1000
0010
0000
,  // measure 21
0100
0001
0001
0000
,  // measure 22
0001
0010
0100
0000
,  // measure 23
0001
1000
0001
0001
,  // measure 24
0000
0010
0000
1000
,  // measure 25
0000
0001
0000
0100
,  // measure 26
0100
0110
0000
0010
,  // measure 27
1000
1100
0000
1000
,  // measure 28
0100
0110
0000
0010
,  // measure 29
0100
0110
0000
1000
,  // measure 30
0000
1010
0000
0001
,  // measure 31
0000
1100
0000
0001
,  // measure 32
0000
1001
0100
0100
,  // measure 33
1000
0001
0010
0100
,  // measure 34
1000
0000
0000
0100
,  // measure 35
0100
0010
0000
0010
,  // measure 36
0100
0001
0000
0001
,  // measure 37
0001
1000
0000
1000
,  // measure 38
0100
1000
0000
1000
,  // measure 39
1000
0010
0000
0010
,  // measure 40
1000
0100
0000
0100
,  // measure 41
0100
0010
0000
0010
,  // measure 42
0001
0010
0001
0010
,  // measure 43
1000
0001
0010
0000
,  // measure 44
0000
0100
1000
0001
,  // measure 45
0010
0001
0001
0010
,  // measure 46
0000
0100
1000
1000
,  // measure 47
1000
0100
0010
0001
,  // measure 48
0000
2002
3003
0220
,  // measure 49
0330
0000
0000
0000
;
