#TITLE:Midi Killa;
#SUBTITLE:;
#ARTIST:NuBreed;
#TITLETRANSLIT:;
#SUBTITLETRANSLIT:;
#ARTISTTRANSLIT:;
#GENRE:;
#CREDIT:;
#MUSIC:Midi Killa.mp3;
#BANNER:Midi Killa.png;
#BACKGROUND:Midi Killa-bg.png;
#CDTITLE:;
#SAMPLESTART:4.637;
#SAMPLELENGTH:18.506;
#SELECTABLE:YES;
#OFFSET:-0.010;
#BPMS:0.000=129.687;
#STOPS:;
#BGCHANGES:;
#FGCHANGES:;

//--------------- dance-single - ----------------
#NOTES:
     dance-single:
     :
     Easy:
     4:
     0,0,0,0,0:
0000
0000
0000
0000
,
0000
0000
0000
0000
,
0000
0000
0001
0000
,
0000
0000
1000
0000
0010
0000
0000
0000
1000
0000
0000
0001
0100
0000
0000
0000
,
0000
0000
0001
0000
1000
0000
0000
0000
0100
0000
0000
0010
0000
0000
0000
0000
,
0000
0000
0001
0000
1000
0000
0000
0000
0010
0000
0000
0100
0000
0000
0000
0000
,
0000
0000
0001
0000
1000
0000
0000
0000
0100
0000
0000
1000
0000
0000
0000
0000
,
0000
0000
0001
0000
0100
0000
0000
0000
0010
0000
0000
1000
0000
0000
0000
0000
,
0000
0000
0001
0000
0010
0000
0000
0000
0100
0000
0000
1000
0001
0000
0000
0000
,
0000
0000
1000
0000
0010
0000
0000
0000
0100
0000
0010
1000
0001
0000
0000
0000
,
0000
0000
1000
0000
0100
0000
0000
0000
0010
0000
0100
0010
0100
0000
0000
0000
,
0000
0000
1000
0000
0001
0000
0000
0000
0100
0000
0000
0010
0000
0000
0000
0000
,
0000
0000
0000
0000
1000
0000
0000
0000
0001
0000
0010
0100
0010
0000
0000
0000
,
0000
0000
0100
0000
1000
0000
0000
0000
0001
0000
0000
1000
0010
0000
0000
0000
,
0000
0000
0100
0000
0001
0000
0000
0000
1000
0000
0000
0100
0010
0000
0000
0000
,
0000
0000
0001
0000
1000
0000
0000
0000
0010
0000
0000
0100
0001
0000
0000
0000
,
0000
0000
1000
0000
0100
0000
0000
0000
0010
0000
0000
0100
1000
0000
0000
0000
,
0000
0000
0001
0000
0100
0000
0000
0000
0010
0000
0000
1000
0000
0000
0000
0000
,
0000
0001
0010
0000
0020
0000
0000
0000
,
0030
0000
0100
0000
1000
0000
0000
0000
0001
0000
0000
0200
0000
0000
0000
0000
,
0000
0000
0000
0000
0000
0000
0000
0300
0001
0000
0000
0000
0000
0000
0000
0000
1000
0000
0000
0000
0000
0000
0000
0000
0000
0000
0000
0000
0000
0000
0000
0000
0100
0000
0000
0000
0000
0000
0000
0000
0000
0000
0000
0000
0020
0000
0000
0000
0000
0000
0000
0000
0000
0000
0000
0000
0000
0000
0000
0000
0000
0000
0000
0000
,
0000
0000
0031
0000
1000
0000
0000
0000
0010
0000
0000
0100
0001
0000
0000
0000
,
0000
0000
0100
0000
0010
0000
0000
1000
0001
0000
0000
1000
0100
0000
0000
0000
,
0000
0000
0010
0000
0001
0000
0000
0000
0100
0000
0000
0010
1000
0000
0000
0000
,
0000
0000
0001
0000
0010
0000
0000
0000
0100
0000
0000
1000
0000
0000
0000
0000
,
0000
0000
1000
0000
0001
0000
0000
0000
0100
0000
0000
0010
1000
0000
0000
0000
,
0000
0000
0010
0000
1000
0000
0000
0000
0001
0000
0000
0010
0100
0000
0000
0000
,
0000
0000
1000
0000
0001
0000
0000
0000
0100
0000
0000
0001
0010
0000
0000
0000
,
0000
0100
1000
0000
0010
0000
0100
0000
,
0000
0000
0001
0000
1000
0000
0000
0000
0010
0000
0000
1000
0001
0000
0000
0000
,
0000
0000
0010
0000
0100
0000
0000
0000
0010
0000
0000
0001
0000
0000
0000
0000
,
0000
0000
0100
0000
0010
0000
0000
0000
1000
0000
0000
0100
0000
0000
0000
0000
,
0000
0000
0010
0000
0001
0000
0000
0000
1000
0000
0000
1000
0000
0000
0000
0000
,
0000
0000
0100
0000
0010
0000
0000
0001
0100
0000
0000
0010
0100
0000
0000
0000
,
0000
0001
1000
0000
0010
0000
0100
0000
,
0000
0001
0010
0000
0100
0000
1000
0000
,
0000
0000
0000
0000
1000
0000
0000
0000
0001
0000
0000
0001
0100
0000
0000
0000
,
0000
0010
1000
0000
0100
0000
0000
0000
,
0000
0000
0000
0000
0010
0000
0000
0000
0001
0000
0000
0100
0010
0000
0000
0000
,
0000
0000
0100
0000
0001
0000
0000
0000
1000
0000
0000
0100
0010
0000
0000
0000
,
0000
0001
1001
1000
,
0000
0100
0010
0000
0001
0000
0000
0000
,
0000
0001
0100
0010
,
0000
1000
0100
0000
0010
0000
0001
0000
,
0000
1000
0010
0000
1000
0000
0001
0000
,
0000
0010
0100
0000
1000
0000
0000
0000
,
0000
0001
0100
0000
0010
0000
1000
0000
,
0000
0000
0001
0000
1000
0000
0000
0000
0001
0000
0000
1000
0001
0000
0000
0000
,
0000
1001
0010
0000
1000
0000
0000
0000
,
0000
0001
0100
0000
0001
0000
0000
0000
,
0000
1000
0100
0000
1000
0000
0000
0000
,
0000
0100
0010
0000
0001
0000
0000
0000
,
0000
1000
0010
0000
0100
0000
0000
0000
,
0000
0010
1000
0000
0001
0000
0000
0010
,
0000
0000
0100
0000
1000
0000
0000
0100
,
0000
0000
0000
0000
0000
0000
0000
0010
0001
0000
0000
0000
0000
0000
0200
0000
,
0000
0000
0000
0000
0000
0000
0300
0000
0010
0000
0000
1000
0001
0000
0000
0000
,
0000
0010
0100
0000
0010
0000
0000
0002
,
0000
0000
1003
0000
;

//--------------- dance-single - ----------------
#NOTES:
     dance-single:
     :
     Medium:
     7:
     0,0,0,0,0:
0000
0000
0000
0000
,
0000
0000
0000
0000
,
0000
0000
0000
0000
0000
0000
0000
0000
0000
0000
0000
1000
0002
0000
0000
0000
,
0000
0000
0103
0000
0010
0000
0000
1000
0001
0000
0000
0010
0200
0000
0000
0000
,
0000
0000
0310
0000
0002
0000
0000
0000
1003
0000
0010
1000
0100
0000
0000
0000
,
1000
0000
0001
0000
0100
0000
0000
0000
0010
0000
0000
1000
0200
0000
0000
0000
,
0300
0010
0001
0000
1000
0000
0000
0000
1000
0000
0001
0100
0020
0000
0000
0000
,
0000
0000
1030
0000
1000
0000
0000
0001
0010
0000
0000
0001
0100
0000
0000
0000
,
0010
0000
1000
0000
0100
0000
0000
0000
1000
0000
1000
0010
1000
0000
0000
0000
,
1000
0000
0001
0000
0001
0000
0000
0000
0010
0000
0010
0001
0100
0000
0000
0000
,
0010
0000
0010
0000
1000
0000
0000
0100
1000
0000
0101
0000
0021
0000
0000
0000
,
0000
0000
0030
0000
0110
0000
0000
0100
1000
0000
0010
1000
0001
0000
0000
0000
,
0000
0000
0010
0000
0100
0000
0000
0000
1000
0000
0100
1000
0001
0000
0000
0000
,
0000
0000
0100
0000
0010
0000
0000
0000
1000
0000
0100
0010
0001
0000
0000
0000
,
0000
0000
0001
0000
0010
0000
0000
0000
0100
0000
1000
0001
1000
0000
0000
0000
,
0000
0000
0100
0000
0010
0000
0000
0000
1000
0000
0001
1000
0100
0000
0000
0000
,
0000
0000
0010
0000
0001
0000
0000
0000
0100
0000
0010
1000
0100
0000
0000
0000
,
0000
0000
0010
0000
0001
0000
0000
0000
0010
0000
0001
1000
0001
1000
0000
0000
,
0010
0000
0100
0000
0001
0000
0000
0000
0010
0000
0000
0010
0000
0000
0000
0000
,
0100
0000
1000
0000
0001
0000
0000
0100
0010
0000
0000
1000
0010
0000
0100
0000
,
0000
0000
0001
0000
0010
0000
0000
0100
1000
0000
0000
0010
0100
0000
0000
0000
,
0001
0000
1000
0000
0100
0000
0000
0000
0010
0000
0000
0001
1000
0000
0000
0000
,
0000
0000
0010
0000
0100
0000
0000
0001
1000
0000
0000
0100
0010
0000
0000
0000
,
0001
0000
1000
0000
0001
0000
0000
0010
1000
0000
0000
0100
0010
0000
0000
0000
,
0000
0000
0001
0000
0100
0000
0000
0000
0001
0000
0000
0100
0010
0000
0000
0000
,
0000
0000
1000
0000
0100
0000
0000
1000
0010
0000
0000
1000
0001
0000
0000
0000
,
0000
0000
0010
0000
0010
0000
0000
0010
1000
0000
0000
0100
1000
0000
0000
0000
,
0000
0000
0100
0000
1000
0000
0000
0001
0010
0000
0000
0100
1000
0000
0000
0000
,
0000
0000
0001
0000
0100
0000
0000
0001
0010
0000
0000
0001
1000
0000
0000
0000
,
0000
0000
0010
0000
0100
0000
0000
0000
0001
0000
0000
0010
0001
0000
0000
0000
,
0000
0000
1000
0000
0010
0000
0000
0000
0100
0000
0000
0001
0100
0000
0000
0000
,
0010
0000
1000
0000
0010
0000
0000
0000
0100
0000
0000
0001
1000
0000
0000
0000
,
0000
0000
0100
0000
0010
0000
0000
0000
0001
0000
0000
1000
0001
0000
0000
0000
,
0100
0000
0001
0000
0010
0000
0000
0001
0100
0000
0000
0010
1000
0000
0000
0000
,
0000
0000
0100
0000
0010
0000
0000
0001
0100
0000
0000
0010
1000
0000
0100
0000
,
0000
0000
1000
0000
0001
0000
0100
0000
0010
0000
0000
1000
0002
0000
0000
0000
,
0013
0000
0010
0000
0100
0000
0000
0000
0100
0000
0000
0100
1000
0000
0010
0000
,
0000
0000
0010
0000
1000
0000
0100
0000
0010
0000
0000
0001
0100
0000
0001
0000
,
0000
0000
1000
0000
0100
0000
0000
0000
1000
0000
0010
1000
0001
0000
0010
0000
,
0000
0000
0100
0000
1000
0000
0010
1000
0100
0000
0000
1000
0020
0000
0000
0000
,
0000
0000
0130
0000
0001
0000
0010
0000
0001
0000
0000
1000
0001
0000
0200
0000
,
0000
0000
0310
0000
1000
0000
0010
0000
1000
0000
0000
0001
1000
0000
0100
0000
,
0000
0000
0010
0000
0001
0000
0000
0000
1000
0000
0000
1000
0001
0000
0100
0000
,
0000
0000
0010
0000
1000
0000
0001
0000
1000
0000
0000
0100
0010
0000
0000
0000
,
0000
0000
0001
0000
0100
0000
0000
0000
0010
0000
0000
1000
0001
0000
0010
0000
,
0000
0000
0100
0000
1000
0000
0010
0000
0100
0000
0000
0001
0010
0000
0100
0000
,
0000
0000
0010
0000
0001
0000
0000
0000
1000
0000
0000
0010
1000
0000
0000
0000
,
0000
0000
0100
0000
0010
0000
0001
0000
0100
0000
0000
0100
0002
0000
0000
0000
,
0000
0000
0003
0000
0001
0000
0100
0000
0010
0000
0000
1000
0100
0000
0100
0000
,
0010
0000
0001
0000
1000
0000
0000
0000
1000
0000
0000
0010
0100
0000
0001
0000
,
0000
0000
1000
0000
0100
0000
0000
0000
0010
0000
0000
0001
0000
0000
0000
0000
,
0000
0000
1000
0000
0010
0000
0000
0100
0001
0000
0000
1000
0100
1000
0001
0000
,
1000
0000
0001
0000
0200
0000
0000
0000
0320
0000
0030
1000
0001
0000
0010
0000
,
0000
0000
0100
0000
0002
0000
0003
1000
0020
0000
0030
0100
0001
0000
1000
0000
,
0100
1000
0002
0000
0203
0000
0300
0010
1000
0000
0000
0010
0001
0000
0000
0000
,
1000
0000
0002
0000
0013
0000
0000
0010
1000
0000
1000
0001
0010
0001
0010
0000
,
0000
0000
0010
0000
0010
0000
0000
0010
1000
0000
1000
0100
0010
0000
0002
0000
,
0000
0000
0023
0000
0230
0000
0300
1000
0010
0000
1000
0001
0100
0000
0010
0000
,
0000
0000
0100
0000
0001
0000
0000
0100
0020
0000
0000
0000
2030
0000
0002
0000
,
3003
0020
0000
0000
0230
0000
0000
1300
;

//--------------- dance-single - ----------------
#NOTES:
     dance-single:
     :
     Hard:
     10:
     0,0,0,0,0:
0000
0000
0000
0000
,
0000
0000
0000
0000
,
0000
0000
0000
0000
0000
0000
0000
0000
0001
0000
1000
0100
1000
0100
0000
0000
,
0010
0000
0001
0000
0100
0000
0000
0010
1000
0000
0010
1000
0001
0010
0000
0000
,
0100
0000
1000
0000
0001
0000
0000
0000
0100
0000
0010
1000
0010
0000
0000
0100
,
0001
1000
0100
0000
0010
0000
0000
0100
1000
0000
0000
0001
0010
0001
0000
1000
,
0010
1000
0001
0000
0010
0100
0000
0000
1000
0000
0001
0100
0010
0000
0000
0000
,
1000
0000
0001
0000
0010
0100
0000
1000
0001
0000
0100
0010
2000
0000
0000
0000
,
3002
0000
0203
0000
0320
0000
0000
0000
1030
0000
0100
1000
0001
0000
0000
0000
,
1000
0010
0100
0000
0001
0010
0000
0100
1000
0000
0001
0100
0001
0010
0000
0000
,
0200
0000
2300
0000
3001
0100
0000
0001
0020
0000
0200
0000
0330
0000
0000
0000
,
1000
0000
1000
0000
0010
0100
0000
0010
0001
0000
0001
1000
0001
0000
0001
2000
,
0000
0000
0200
0000
3300
0000
0000
0100
0100
0000
0010
0001
0010
0100
0000
0000
,
1000
0000
0001
0000
0100
0010
0000
0010
0001
0000
0001
1000
0010
0200
0000
0000
,
0000
0000
0000
0000
0020
0300
0030
1000
1000
0000
0001
0100
0001
0100
0000
0000
,
0010
0000
1000
0000
0001
0000
0000
0000
0010
0000
0001
0100
0001
1000
0000
0000
,
0000
0000
1200
0000
0020
0000
0330
0000
0001
0000
1000
0010
1000
0100
0000
0010
,
0001
0000
0100
0000
0020
0000
0000
0000
0030
1000
0001
0100
0010
2000
0000
0000
,
3010
0100
0001
0000
0020
0000
0000
0000
0200
0030
0300
1000
0001
0200
0000
0300
,
0000
0000
0010
0000
1000
0000
0000
0001
1000
0000
0001
0010
0001
1000
0000
0000
,
0000
0100
0001
0000
2000
0000
0000
3100
0010
0000
0000
0010
0002
0000
0000
0000
,
0103
0000
0010
0000
2010
0000
0000
3100
0010
0000
0000
0001
0200
0000
0000
0000
,
0310
0100
0010
1000
0002
0000
0003
0000
0011
0000
1000
0001
0020
0000
0031
0000
,
1000
0000
0010
0000
0100
0000
0010
1000
0200
0000
0000
0310
0002
0000
0000
0000
,
1003
0000
0001
0000
0100
0000
0000
0010
1000
0000
0001
0010
0200
0000
0000
0000
,
0300
0000
0001
0000
0100
0000
0000
0100
0010
0000
1000
0010
1000
0000
0002
0020
,
0033
0000
0020
0000
0030
0000
0000
0100
1000
0000
0010
1000
0010
0100
0000
0000
,
0010
1000
0100
0010
0001
0000
0100
0001
0100
0000
0010
1000
0001
0000
0000
0000
,
0001
0000
1000
0000
0100
0000
0000
0100
0010
0000
0010
0001
1000
0010
0000
0010
,
0100
0001
1000
0000
0100
0000
0000
0010
0001
0000
0001
0100
0020
0000
0000
0000
,
0030
0000
1010
0000
2000
0000
0000
3000
0200
0000
0310
0001
0010
0100
0000
0100
,
1000
0010
0100
0000
2100
0000
0000
0000
3010
0000
0010
0010
0200
0000
0000
0000
,
0301
0000
0100
0000
0100
0000
0000
0001
0010
0000
0000
0010
0100
1000
0000
0000
,
1010
0000
0100
0000
0201
0000
0000
0310
0100
0000
1000
1000
0001
0010
0011
0000
,
0000
0000
1000
0000
0001
0000
0000
0010
1000
0000
0000
0010
0100
0000
0001
0000
,
1000
0000
0001
0000
0010
0000
0001
0010
0001
0000
0001
0100
0010
1000
0010
1000
,
0100
0000
0010
0000
0100
0000
0100
1000
0001
0000
0010
0000
0100
0000
1000
0000
,
1000
0000
0100
0000
1000
0000
1000
0000
0001
0000
0100
0000
0010
1000
2000
0000
,
3100
0000
0010
0000
0020
0000
0030
0100
2000
0000
3000
0100
0200
0000
0300
0000
,
0010
0000
0001
0000
1000
0000
0010
0000
0001
0000
0000
0010
0000
0000
2000
0000
,
3000
0001
0010
0000
0001
0000
1000
0010
1001
0000
1000
0100
0010
0001
0100
0000
,
0000
0000
0010
0000
1000
0000
0001
0010
0001
0000
0100
0010
1000
0000
0010
0000
,
0000
1000
0010
0000
0200
0000
0000
0301
0010
0000
1001
0100
0010
0100
0001
0000
,
0000
1000
0100
0000
1000
0000
0001
0100
0001
0000
1001
0001
0010
0000
0011
0000
,
1000
0001
1000
0000
0110
0000
1100
0000
1000
0000
0001
0010
0100
1000
1100
0000
,
0100
0000
0110
0000
1000
0000
0011
0000
0001
0000
0000
0100
0010
1000
1100
0000
,
0000
0100
0010
0000
0110
0000
0001
1000
0010
0000
0100
0001
1000
0100
0010
0100
,
1000
0001
0101
0000
1000
0000
0001
0000
1001
0000
1000
0001
0010
0000
0100
1000
,
0010
0000
0100
0000
0002
0000
0013
0001
2000
0000
0000
3000
0100
0010
0110
0000
,
0001
0000
1000
0000
1010
0000
0010
0000
0101
0000
0000
0001
0010
0100
1000
0000
,
0010
1000
0100
0000
0110
0000
0000
0000
0011
0000
0000
0001
1000
0000
0100
1000
,
0001
0000
1000
0000
1010
0000
1000
0001
0100
0000
0001
0010
0001
1000
0100
0010
,
0001
0100
0010
1000
0100
0000
0010
0100
1000
0000
0001
0010
0100
0000
0001
0000
,
0010
0000
0100
0000
1000
0000
0001
1000
0010
0000
1010
1000
0001
0100
0010
0000
,
1000
0100
0010
0000
0001
1000
0010
0100
0010
0000
1000
0100
1000
0000
0200
0000
,
0310
0001
1000
0000
0010
1000
0010
1000
0001
0000
0010
0001
0100
0001
0010
0001
,
1000
0100
1000
0000
1000
0000
0100
0010
0001
0000
0001
0100
0010
0000
1000
0000
,
0001
0000
0100
0000
0001
0000
1000
0100
0010
0000
0001
0100
0010
0000
1000
0000
,
1100
0000
0001
0010
0001
0000
1000
0100
0010
0000
0000
0000
0110
0000
1001
0000
,
0000
0000
1000
0000
0101
0000
0001
0000
0110
0000
0000
0010
1000
0000
0100
0000
;

//--------------- dance-single - ----------------
#NOTES:
     dance-single:
     :
     Challenge:
     11:
     0,0,0,0,0:
0000
0000
0000
0000
,
0000
0000
0000
0000
,
0000
0000
0000
0000
0000
0000
0000
0000
1000
0000
0001
0100
0001
0010
0000
0100
,
1000
0001
1000
0000
0100
0010
0000
0010
0001
0000
1000
0010
0100
0001
0010
0001
,
1000
0100
0020
0000
0030
0000
0010
0000
0010
0000
0001
0100
0010
1000
0001
0100
,
0001
0010
0100
0000
1000
0010
0000
0100
0010
0000
1000
0100
1000
0010
0100
0001
,
0010
0001
0100
0000
0010
0100
0000
0001
0100
0000
0100
0010
1000
0001
1000
0100
,
0010
0000
0001
0000
0100
0010
0000
1000
0100
0000
1000
0010
1000
0010
0000
0010
,
0100
0001
0010
0000
0010
0100
0000
0010
0001
0000
0001
1000
0010
0100
0000
0010
,
1000
0001
0010
0000
0100
1000
0000
0001
0100
0000
0010
1000
0001
0010
0001
0100
,
0010
1000
0100
0000
0010
0001
0000
0100
0010
0000
1000
0100
0010
0100
1000
0100
,
0010
0000
0001
0000
0100
0010
0000
1000
0001
0000
0010
0001
1000
0010
1000
0100
,
1000
0001
0010
0000
0001
0100
0000
0010
0100
0000
0001
1000
0010
0100
0000
0001
,
1000
0000
0100
0000
0010
0100
0000
0010
0001
0000
1000
0010
0100
0001
1000
0001
,
1000
0001
1000
0000
0010
0100
0000
0001
1000
0000
0100
0010
0001
1000
0000
0010
,
1000
0010
0100
0000
0001
0000
0000
1000
0100
0000
1000
0001
0100
0010
0000
1000
,
0010
1000
0010
0000
0100
0000
0000
0001
1000
0000
0001
0010
0100
1000
0000
0001
,
0100
0010
1000
0000
0010
1000
0000
0000
0100
0010
0100
1000
0001
1000
0010
1000
,
0010
1000
0100
0010
0001
1000
0000
0000
0010
0000
1000
0001
0010
0100
0000
1000
,
0001
0100
0010
0000
1000
0001
0010
0100
1000
0000
0001
0100
0010
1000
0100
0000
,
0010
0001
0010
0100
1000
0000
0001
0100
0010
0000
1000
0100
0010
0001
0100
0010
,
1000
0000
0001
0000
0010
0000
0001
1000
0100
0000
1000
0010
0100
0001
0000
0000
,
0010
0100
1000
0001
0010
0000
0000
0100
0001
0000
1000
0001
0010
0100
1000
0010
,
0100
0001
0010
0000
0100
0000
0010
0001
1000
0000
0001
1000
0010
0100
0000
0000
,
0001
0000
1000
0100
0010
0000
0001
1000
0010
0100
0010
1000
0100
0000
0010
0100
,
1000
0010
0100
0010
1000
0000
0100
0010
0001
0000
0100
0010
1000
0001
1000
0100
,
1000
0100
1000
0001
0100
0000
0000
0010
1000
0000
0100
1000
0001
0010
0001
1000
,
0001
0100
0010
1000
0100
0010
0001
0100
0001
0000
1000
0100
0010
0100
0000
1000
,
0001
0010
0100
1000
0010
0000
0100
0001
0010
0001
1000
0100
1000
0001
0000
0100
,
0010
1000
0001
0010
0200
0000
0000
0310
0100
0000
1000
0010
0100
0001
1000
0100
,
0010
0001
1000
0010
0110
0000
0100
1000
0100
0000
0001
0010
0001
0010
0001
1000
,
0001
0100
0020
0000
2030
0000
3000
0100
0010
0000
0001
0100
0010
0200
0000
0000
,
0300
0001
0010
0000
0100
0000
0000
0010
0001
0000
1000
0010
1000
0001
0010
0100
,
1000
0100
0010
0000
0001
0100
0001
0010
0100
0000
1000
0010
1000
0001
0010
0001
,
1000
0010
0100
0000
0001
0000
0001
0010
0100
0000
1000
0010
0100
0000
0100
0000
,
0100
0001
0100
0000
0010
0000
0010
1000
0001
0000
1000
0010
0100
0001
0100
0010
,
1000
0000
0001
0000
0020
0000
0000
0000
0130
0000
0000
0000
0001
0000
0100
0000
0010
0000
0000
0001
1000
0000
0010
0000
0200
0000
0000
0000
0320
0000
0000
0000
,
2030
3200
0320
0000
0032
0000
2003
0002
3003
0000
1000
0001
0010
0100
1000
0001
,
1000
0001
0100
0000
0001
0010
0001
1000
0100
0000
0010
0001
0100
0001
1000
0010
,
0100
0001
0010
0100
1000
0000
0010
1000
0100
0000
0010
0100
1000
0001
1000
0010
,
0000
0100
0001
0000
0010
0000
0110
0001
1000
0000
0100
0010
0001
0010
0001
0000
,
1000
0010
1000
0001
0100
0000
0010
1000
0010
0000
1000
0001
0010
0100
0010
0001
,
0100
0001
1000
0100
0010
0000
0001
1000
0100
0000
1000
0100
0010
0001
1000
0010
,
0100
0010
1000
0001
0100
0000
0010
1000
0001
0000
0010
0100
1000
0001
0100
0010
,
1000
0000
0100
0000
0010
0000
0000
0000
0001
0000
0000
0000
0100
0000
0001
0000
0010
0000
0000
0100
1000
0000
0001
0000
0010
0000
0001
0000
0100
0000
0001
0000
,
1000
0010
1000
0100
0010
0000
0001
0100
0010
0000
1000
0010
0100
0001
0010
0001
,
0010
0001
1000
0000
0010
0000
0100
0001
1000
0000
0001
0010
0100
1000
0100
0010
,
0001
1000
0001
0000
0010
0000
0010
0100
1000
0000
1000
0100
0010
0001
1000
0010
,
0100
0001
0010
0000
0100
1000
0010
1000
0100
0000
0010
0001
0100
0020
2000
0030
,
3001
0100
0101
0000
1000
0000
1100
0100
0020
0000
0002
0033
1000
0010
0100
0001
,
1000
0100
0020
0000
0002
0000
0033
0100
0010
0000
0100
0001
1000
0000
1000
0100
,
1000
0010
0200
0000
0300
0001
0010
0100
2000
0000
3000
0010
1000
0001
1000
0100
,
0000
1000
0010
1000
0001
0010
0100
1000
0010
0000
1000
0001
0010
0100
1000
0001
,
0100
0010
1000
0010
1000
0001
0010
0100
0020
0000
0031
1000
0100
0010
0001
1000
,
0001
0100
0010
0100
0001
1000
0100
0010
0002
0000
1003
0100
0010
0100
1000
0001
,
0010
0100
1000
0001
0100
0001
0100
0010
1000
0010
1000
0010
0100
0001
0010
0100
,
1000
0100
0020
0000
0031
1000
0010
0100
0001
1000
0001
1000
0001
0100
0010
1000
,
0001
1000
0001
1000
0001
0010
0100
1000
0010
0100
0001
0010
0000
0010
0100
1000
,
0001
1000
0001
0100
0010
1000
0001
1000
0020
0000
0000
0000
0130
0000
0002
0000
,
0000
0000
1003
0000
0100
0010
0100
0010
0001
0000
0100
0001
1000
0000
1100
0000
;
