#TITLE:Love Me;
#SUBTITLE:;
#ARTIST:費翔;
#TITLETRANSLIT:;
#SUBTITLETRANSLIT:;
#ARTISTTRANSLIT:Kris;
#GENRE:;
#CREDIT:;
#BANNER:Love Me.png;
#BACKGROUND:Love Me-bg.png;
#LYRICSPATH:;
#CDTITLE:;
#MUSIC:Love Me.mp3;
#OFFSET:-0.270000;
#SAMPLESTART:46.180000;
#SAMPLELENGTH:14.985000;
#SELECTABLE:YES;
#BPMS:0.000000=125.462997
;
#STOPS:
;
#BGCHANGES:0.000=Love Me.mp4=1.000=0=0=0=StretchNoLoop====,
187.000=Love Me-bg.png=1.000=0=0=1=====,
99999=-nosongbg-=1.000=0=0=0 // don't automatically add -songbackground-
;
#KEYSOUNDS:;
#ATTACKS:;

//---------------dance-single - ----------------
#NOTES:
     dance-single:
     :
     Beginner:
     2:
     0.201513,0.223389,0.021701,0.065104,0.000000,130.000000,128.000000,2.000000,6.000000,0.000000,0.000000,0.201513,0.223389,0.021701,0.065104,0.000000,130.000000,128.000000,2.000000,6.000000,0.000000,0.000000:
0000
0000
0000
0000
,
0000
0000
0000
0000
,
0000
0000
0000
0000
,
0000
0000
0000
0000
,
1000
0010
0000
0100
,
0000
0001
0000
0000
,
0000
1000
0000
0000
,
0000
0100
0000
0010
,
0100
1000
0000
0001
,
0001
0001
0001
1000
,
1000
1000
1000
0010
,
0010
0010
0010
0100
,
0100
0100
0100
0001
,
0001
0001
0001
1000
,
1000
0001
0001
0001
,
0001
1000
1000
1000
,
1000
0001
0000
0000
,
0010
0010
0010
1000
,
1000
1000
0100
0100
,
0100
0000
0000
0010
,
0010
0010
0000
0001
,
0001
0001
0000
0001
,
0001
0001
0010
0010
,
0000
0100
0000
0100
,
0000
1000
1000
1000
,
1000
0010
0010
0010
,
0000
0100
0100
0100
,
0001
0000
0010
0000
0010
0000
0010
0100
,
0000
1000
1000
0100
,
0100
0100
0100
0010
,
0000
0002
0000
0000
,
0000
0103
0000
1001
,
0001
2000
0000
3020
,
0000
0230
0000
0302
,
0000
2003
0000
3000
,
1000
0100
1000
0100
,
0010
0000
0100
1000
,
0001
0100
0000
0010
,
1000
0100
0000
0110
,
0000
0000
0010
0001
,
0000
0100
0010
1000
,
0010
1000
0100
1000
,
0000
0001
0100
0001
,
0100
0001
0100
0010
,
0100
0001
0000
0000
,
1000
0010
1000
0100
;

//---------------dance-single - ----------------
#NOTES:
     dance-single:
     :
     Easy:
     3:
     0.237165,0.297852,0.021701,0.043403,0.010851,153.000000,151.000000,2.000000,4.000000,0.000000,0.000000,0.237165,0.297852,0.021701,0.043403,0.010851,153.000000,151.000000,2.000000,4.000000,0.000000,0.000000:
0000
0000
0000
0000
,
0000
0000
0000
0000
,
0000
0000
0000
0000
,
0000
0000
0000
0000
,
0002
1003
0000
0100
,
0000
0010
0000
1001
,
0000
0000
0001
1000
0000
0000
0000
0000
,
0000
0010
0000
0100
,
0001
0100
0000
0010
,
0100
0001
1000
0001
,
0010
0100
1000
1000
,
0001
0000
0001
0000
0010
0000
0100
1000
,
0001
0000
0000
0000
0100
0000
0000
0000
0010
0000
0000
0000
1000
0000
0000
0001
,
1000
0010
0100
0001
,
1000
1000
0100
0010
,
0001
0001
0100
0010
,
1000
1000
0001
0000
,
0001
0010
0100
1000
,
1000
0100
0010
0000
0100
0000
1000
0000
,
0001
0000
0000
0010
,
0100
1000
0000
0001
,
0100
0010
0100
0001
,
1000
0100
0010
0001
,
0000
0100
0000
0010
,
1000
0000
0001
0000
1000
0000
0001
0010
,
0001
1000
0010
0200
,
0000
0301
0010
0100
,
1000
0000
0010
0000
1000
0000
0001
0010
,
0100
0000
0010
0000
0001
1000
0001
0000
,
0100
0010
1000
1001
,
0000
0010
0000
0100
,
0000
0001
0000
1000
,
0100
0010
0001
1000
,
0010
0000
0100
0001
,
0010
0100
0010
0000
,
0001
0000
0000
0000
1000
0000
0000
0000
0010
0000
0000
1000
0010
0000
0000
0000
,
0100
0001
1000
0001
,
0010
0100
1000
0010
,
1000
0200
0000
0310
,
0000
0001
1000
0100
,
0010
0001
0001
0001
,
0010
0100
0010
0001
,
1000
1000
0100
0010
,
0001
0001
0100
0010
,
1000
1000
0200
0000
,
0310
0001
1000
0001
;

//---------------dance-single - ----------------
#NOTES:
     dance-single:
     :
     Medium:
     5:
     0.310020,0.380452,0.032552,0.021701,0.097656,200.000000,197.000000,3.000000,2.000000,0.000000,0.000000,0.310020,0.380452,0.032552,0.021701,0.097656,200.000000,197.000000,3.000000,2.000000,0.000000,0.000000:
0000
0000
0000
0000
,
0000
0000
0000
0000
,
0000
0000
0000
0000
,
0000
0000
0000
0000
,
1000
0010
0000
0100
,
0000
0001
0000
1000
,
0000
0000
0001
0010
0000
0000
0001
0000
,
0000
1000
0000
0010
,
0100
0010
1000
0100
,
1000
0100
0000
0000
1000
0000
0000
0000
0001
0000
0000
0000
0100
0000
0000
0000
,
0001
0000
0100
0010
0100
0000
0010
0000
,
1000
0000
0000
0000
1000
0000
0000
0000
1000
0000
0000
0010
0100
0000
0001
0000
,
1000
0000
0000
0000
0010
0000
0000
0000
0100
0000
0001
0000
0100
0000
0001
0100
,
0001
1000
0100
0010
,
0001
1000
0001
0100
,
0001
0000
0000
0000
1000
0000
0000
0000
0100
0000
0000
1000
0100
0000
0000
0000
,
0010
0000
0000
0000
0001
0000
0000
0000
0100
0000
0000
0000
0010
0000
0000
1000
,
0010
0100
0001
0010
,
0100
0010
0001
0000
0100
0000
0010
0000
,
1000
0000
0000
0000
0100
0000
0000
0000
0010
0000
0000
0001
0100
0000
0000
0000
,
0010
0100
0001
1000
,
0100
0010
0100
0000
1000
0000
0010
0000
,
0010
0000
0000
0000
0100
0000
0000
0010
0001
0000
0000
0000
2000
0000
0000
0000
,
0000
0000
0000
0000
3010
0000
0000
0000
0000
0000
0000
0100
0001
0000
0000
0000
,
0010
0000
0000
0000
0100
0000
0000
0000
0010
0000
0100
0000
1000
0000
0010
1000
,
0001
0100
0000
0000
0010
0000
0000
0000
1000
0000
0000
0000
1001
0000
0000
0000
,
0001
0000
0010
0100
0010
0000
0001
0000
,
1001
0000
0000
0000
0001
0000
0000
0000
0010
0000
0000
0001
0010
0000
0100
0000
,
1000
0000
0000
0000
0001
0000
0100
0000
0001
0000
1000
0000
0100
0000
0000
0010
,
0001
1000
0001
0101
,
0000
1000
0000
0010
,
0100
0010
0000
0100
,
0001
0000
1000
0001
0010
0000
0100
0000
,
1000
0010
0100
0000
0001
0000
0010
0000
,
0100
1000
0001
0000
1000
0000
0000
0010
,
0100
0000
0001
0000
1000
0000
0000
0000
0100
0000
0000
0010
0100
0000
1000
0000
,
0001
1000
0010
1000
,
0100
0010
0001
0000
0100
0000
0010
0000
,
1000
0000
0000
0000
0100
0000
0000
0010
0000
0000
0000
0000
0001
0000
0100
0000
,
0001
0000
0000
0000
0010
0000
0000
0000
0100
0000
0000
1000
0010
0000
0000
0000
,
0100
0000
0000
0000
0001
0000
1000
0000
0001
0000
0000
0000
1000
0000
0100
1000
,
0100
0010
0000
0000
0001
0000
0000
0000
0100
0000
0000
0000
0001
0000
0000
0000
,
0010
0000
0001
1000
0100
0000
1000
0000
,
0010
0100
0001
0010
,
0001
0000
0000
0000
1000
0000
0100
0000
0010
0000
0000
0000
0100
0000
0000
1000
,
0001
0100
0010
0200
,
0000
0000
0000
0300
;

//---------------dance-single - ----------------
#NOTES:
     dance-single:
     :
     Hard:
     7:
     0.418527,0.507270,0.043403,0.314670,0.254991,270.000000,266.000000,4.000000,29.000000,0.000000,0.000000,0.418527,0.507270,0.043403,0.314670,0.254991,270.000000,266.000000,4.000000,29.000000,0.000000,0.000000:
// measure 0
0000
0000
0000
0000
,  // measure 1
0000
0000
0000
0000
,  // measure 2
0000
0000
0000
0000
,  // measure 3
0000
0000
0000
0000
,  // measure 4
0001
0000
0000
0000
0001
0000
0200
0000
0000
0000
0000
0000
0310
0000
0000
1000
,  // measure 5
0000
0002
0000
0013
,  // measure 6
0100
0000
0000
1000
0100
0000
1000
0000
0001
0000
0000
0000
0100
0000
0000
0000
,  // measure 7
0000
0010
1000
0100
,  // measure 8
1000
0000
0000
0100
0010
0000
0001
0000
0100
0000
0000
0000
0010
0000
0000
1000
,  // measure 9
0001
0010
0000
0000
0100
0000
0000
1000
0001
0000
0000
0000
0100
0000
0000
0000
,  // measure 10
0010
0000
0000
1000
0001
0000
0010
0000
0100
0000
0000
0000
1000
0000
0000
0000
,  // measure 11
0010
0000
0000
0000
0100
0000
0000
0000
0001
0000
0000
0010
0100
0000
1000
0000
,  // measure 12
0010
0000
0000
1000
0001
0000
0010
0000
0100
0000
0010
0000
0001
0000
1000
0001
,  // measure 13
1000
0100
0010
0001
,  // measure 14
0200
0000
0000
0310
0100
0000
0001
0000
2000
0000
0000
0000
0001
0000
0010
0000
,  // measure 15
3002
0000
0000
0000
0103
0000
0000
0000
0010
0000
0000
1000
0100
0000
1000
0000
,  // measure 16
0001
0000
0010
0000
0002
0000
0000
0000
0203
0000
0000
0000
0310
0000
1000
0001
,  // measure 17
0200
0301
0020
0130
,  // measure 18
1000
0000
0001
1000
0001
0000
1000
0010
0100
0000
0001
0000
0010
0000
0100
0000
,  // measure 19
1000
0100
0010
0000
0002
0000
0000
0000
0103
0000
0000
0010
0100
0000
0010
0000
,  // measure 20
0220
0000
0330
1000
0001
0010
0100
0010
,  // measure 21
0001
0100
0020
0000
1030
0000
0100
0000
,  // measure 22
0011
0000
0000
0000
1000
0000
0001
0010
0001
0000
1000
0000
0010
0000
0200
0000
,  // measure 23
0000
0000
0301
0000
2000
0000
0000
3100
0000
0000
0000
0010
0001
0000
0010
0000
,  // measure 24
0200
0000
0000
1300
0010
0000
1000
0000
0001
0000
1000
0000
0100
0000
0010
0001
,  // measure 25
1000
0001
0000
0000
0020
0000
0000
0000
0100
0000
0000
0000
1030
0000
0000
0000
,  // measure 26
0020
0000
0000
0000
0000
0000
0000
0000
0130
0000
0000
0000
0001
0000
0000
0000
2000
0000
0000
0000
0000
0000
0000
0000
3100
0000
0000
0010
0100
0000
0000
0000
,  // measure 27
2000
0000
0000
0000
3001
0000
0000
0000
0100
0000
0010
0100
0001
0000
1000
0000
,  // measure 28
0200
0000
0000
0000
0310
0000
0001
0000
0100
0000
0010
0000
1000
0000
0000
0100
,  // measure 29
0010
0001
1000
0001
,  // measure 30
0010
0000
0100
2000
0000
0000
3010
0100
,  // measure 31
0001
0010
0000
0100
,  // measure 32
1000
0000
0000
0000
0100
0000
1000
0001
1000
0000
0000
0000
0010
0000
0000
0100
,  // measure 33
0010
0000
0100
0000
0001
0000
0000
1000
0001
0000
1000
0000
0001
0000
0000
0000
0010
0000
0000
0000
0000
0000
0000
0000
0100
0000
0000
0000
0000
0000
0000
0000
,  // measure 34
0100
0000
1000
0100
0010
0000
0000
0100
0010
0000
0000
0000
0001
0000
1000
0000
,  // measure 35
0001
0000
1000
0000
0010
1000
0010
0100
0001
0000
0000
1000
0100
0000
0010
0000
,  // measure 36
0200
0000
0000
0000
0000
0000
1300
0000
0000
0010
0000
0000
1000
0000
0000
0010
0100
0001
1000
0000
0000
0000
0000
0000
,  // measure 37
0001
0010
0100
0000
1000
0000
0010
0000
,  // measure 38
1000
0000
0000
0000
0000
0000
0000
0000
0001
0000
0000
0000
1000
0000
0100
0000
1000
0000
0000
0000
0100
0000
0000
0000
0010
0000
0000
0000
0100
0000
0000
0010
,  // measure 39
0001
0000
0000
0000
0000
0000
0000
1000
0100
0000
0000
0000
0000
0000
0000
0000
0100
0000
0000
0000
0000
0000
0020
0000
0031
0000
0000
0000
0000
0000
0000
0000
,  // measure 40
0100
0000
0000
0000
0010
0000
1000
0000
0010
0000
0100
0000
0001
0000
1000
0010
,  // measure 41
1000
1100
0000
0000
1000
0000
0000
0000
0010
0000
0000
0000
0100
0000
0000
0000
,  // measure 42
0001
0000
0000
0000
0000
0000
0001
0000
0010
0000
0000
0000
0100
0000
0000
0000
1000
0000
0000
0000
0000
0000
0000
0000
0010
0000
0000
0100
0001
0000
0000
0000
,  // measure 43
2000
0000
3002
0000
0023
0000
0130
1000
,  // measure 44
0100
0000
0000
0000
0000
0000
0010
0000
0001
0000
0000
0000
1001
0000
1000
0010
,  // measure 45
0200
0310
0010
2000
,  // measure 46
0000
0000
0000
3000
;
