#TITLE:Little Persound;
#SUBTITLE:;
#ARTIST:skirt;
#TITLETRANSLIT:;
#SUBTITLETRANSLIT:;
#ARTISTTRANSLIT:;
#GENRE:;
#CREDIT:;
#MUSIC:Little Persound.mp3;
#BANNER:Little Persound.png;
#BACKGROUND:Little Persound-bg.png;
#CDTITLE:;
#SAMPLESTART:90.552;
#SAMPLELENGTH:17.066;
#SELECTABLE:YES;
#OFFSET:-0.199;
#BPMS:0.000=170.000
,32.000=85.000
,40.000=170.000
;
#STOPS:;
#BGCHANGES:;
#FGCHANGES:;

//--------------- dance-single - ----------------
#NOTES:
     dance-single:
     :
     Beginner:
     2:
     0,0,0,0,0:
0000
0000
0000
0000
,
0000
0000
0000
0000
,
0000
0000
0000
0000
,
0000
0000
0000
0000
,
1000
0000
0000
0000
0010
0000
0100
0001
,
1000
0001
0001
0000
,
1000
0000
0000
0000
,
0000
1000
0011
0000
,
0010
0000
1100
0000
,
0001
0000
0010
0000
,
0100
0000
1000
1000
,
1000
1000
0010
0000
,
0000
0000
0000
0000
,
0100
0000
0100
0000
,
0100
0000
0001
0001
,
0001
0000
0010
0000
,
1001
0000
0000
0000
0000
0000
0000
1000
,
0010
0000
0000
0000
,
0100
0000
0000
0000
,
0001
0001
0000
0000
,
0100
0000
0000
0000
0000
0000
0000
0010
,
0010
0000
0010
0000
,
1000
1000
0000
0100
,
0100
0000
0010
0000
,
0001
0000
0000
0000
,
1000
0000
0010
0000
,
0100
0000
0001
0000
,
0010
0100
0000
0000
,
0000
1000
0001
0000
,
0001
0100
0000
0000
,
1000
0010
0100
0001
,
1000
0000
0010
0000
,
0110
0000
0000
0000
0000
0000
0000
0001
,
0100
0000
0000
0000
,
0010
0000
1000
0000
,
1000
0001
0000
0001
,
0010
0000
0000
0000
,
0000
0000
0100
0000
,
1000
0001
0000
0100
,
0010
0000
1000
0000
,
0100
0000
0000
0000
,
0010
0001
1000
0000
,
0010
0000
0000
0000
,
0100
1001
0000
0000
,
0000
0000
1000
0000
,
0001
0000
0010
0000
,
0220
0000
0330
0000
,
0000
0001
1000
0000
,
1000
0000
0000
0000
,
0000
0100
0000
0010
,
0001
0000
0000
0000
,
0000
0100
0000
0000
,
0000
0010
0000
0000
,
0100
0010
0000
1000
,
0000
0000
0001
1000
,
0100
0000
0010
0000
,
0001
0000
0000
0000
,
0100
0000
0010
0000
,
0100
0000
0001
1000
,
0001
1000
1001
0000
,
0001
0000
1000
0000
,
0010
0000
1000
0000
,
0001
0010
0000
0000
,
0001
0000
0000
0000
,
0100
0000
0010
0000
,
1000
0000
0100
0000
,
0010
0000
0000
0001
,
1000
0001
0000
0000
,
1000
0000
0000
0000
,
0010
0000
0100
0000
,
0001
0000
0000
1000
,
0010
0000
0000
0000
,
0000
0000
0000
0000
,
0100
0000
0100
0000
,
0001
0000
0000
0000
,
0010
0010
0000
0000
,
0100
0000
0000
0000
,
1000
0000
0000
0000
,
0001
0000
0000
0000
;

//--------------- dance-single - ----------------
#NOTES:
     dance-single:
     :
     Easy:
     4:
     0,0,0,0,0:
0000
0000
0000
0000
,
0000
0000
0000
0000
,
0000
0000
0000
0000
,
0000
0000
0000
0000
,
0010
0000
0000
0000
0100
0000
0001
0100
,
0001
0100
0010
0000
,
1000
0000
0000
0000
,
0000
0000
0001
0000
0010
0000
0001
1000
,
0100
0000
1100
0000
,
0010
0000
1001
0000
,
2000
0000
3000
1001
,
0101
0001
0100
0000
,
0000
0000
0000
0000
0110
0000
0000
0010
,
1000
0000
0101
0000
,
0011
0000
0010
1000
,
1001
0000
0011
0000
,
1001
0000
0000
0000
0000
0000
0000
0001
,
1000
0000
0000
1000
0100
0000
0000
0000
,
0110
0000
0000
0000
1100
0000
0000
0001
,
1000
0001
0101
0000
,
0100
0000
0000
0000
0000
0000
0001
1000
,
0001
0000
0101
0000
,
0100
0001
0100
0010
,
1000
0000
0000
0010
0000
0000
0000
0000
1000
0000
0000
0000
0000
0000
0000
0000
,
0011
0000
0000
0000
0000
0000
0000
0001
,
1000
0100
0000
0000
0010
0000
0000
0000
,
0110
0000
1000
0000
,
0100
0010
0000
0000
,
0000
0000
0001
1000
0200
0000
0000
0000
,
0310
0100
2000
0000
,
3010
0001
0010
0000
0110
0000
0100
0000
,
0010
0000
0101
0000
,
1010
0000
0000
0000
0000
0000
0000
0100
,
1000
0000
0000
0000
,
0001
0000
0101
0000
,
0100
0001
0000
1000
,
0001
0011
0000
0000
,
0010
0000
0100
0000
,
1000
0010
0000
0100
,
0001
0000
1001
0000
,
0100
0000
0000
0000
,
1000
0010
1000
0000
,
1001
0000
0000
0000
0001
0000
0000
0010
,
0100
0010
0000
0000
,
0001
0000
0100
0000
,
0110
0000
0000
0000
,
0220
0000
0330
0000
,
0001
0010
0001
0000
,
1001
0000
0000
0000
,
0000
0000
0000
1000
0100
0000
0010
0000
,
0100
0000
0000
0000
,
0000
1000
0001
0000
0000
0000
0000
0000
,
0100
0000
0010
0000
0000
0000
0000
1000
,
0001
0010
0100
1000
,
0010
0000
0100
0001
,
0010
0000
0100
0000
,
1000
0000
0010
0000
,
0100
0000
0001
0000
,
1000
0000
0100
0010
,
0100
0100
0010
0000
,
0001
0000
1000
0000
,
0010
0000
0100
0000
,
0001
0010
0000
0000
,
0100
0000
1000
0000
,
0010
0000
0100
0000
,
0001
0000
0000
0010
0001
0000
0000
0000
,
1000
0000
0000
0000
,
0010
0100
0001
0000
,
1000
0000
0000
0000
,
0100
0000
0010
0000
,
0001
0000
0000
1000
,
0010
0000
0100
0000
,
0001
0000
0000
0000
,
1000
0000
0100
0000
,
0010
0000
0000
0000
,
0100
1000
0001
0000
,
0100
0000
0010
0000
,
1000
0000
0000
0000
,
0001
0000
0000
0000
;

//--------------- dance-single - ----------------
#NOTES:
     dance-single:
     :
     Medium:
     6:
     0,0,0,0,0:
0000
0000
0000
0000
,
0000
0000
0000
0000
,
0000
0000
0000
0000
,
0000
0000
0000
0000
,
0000
0000
0000
0000
0011
0000
1000
0100
,
0020
0000
0130
0010
0011
0000
0000
0000
,
1000
0000
0000
0001
0100
0010
0000
1000
,
0100
0000
0020
0000
0031
0000
1000
0010
,
0200
0000
0000
0000
0000
0000
0000
0000
0000
0000
0000
0000
0000
0000
0000
0000
0310
0000
0000
0102
0000
0000
0000
0000
0023
0000
0000
0000
0000
0000
0000
0000
,
0230
0000
1300
0000
,
0001
0000
0100
0010
,
0100
0001
0010
0200
,
0000
0000
0000
0000
0300
0000
0000
1000
,
0010
0100
0000
0001
1000
0000
0100
0000
,
0010
0001
0100
0000
0010
0000
1000
0000
,
0002
0000
0013
0100
,
2000
0000
0000
0000
0000
0000
0000
3001
,
0100
0001
0100
0001
2000
0000
3200
0000
,
0310
0001
0000
0000
1000
0000
0000
0001
,
0010
0100
1000
0001
,
0100
0000
0010
0000
1000
0000
0100
0010
,
0001
1000
0010
0100
,
0001
0010
0100
1000
,
0001
0000
0000
0100
0001
0000
0000
0000
1000
0000
0000
0000
0100
0000
0000
0000
,
0010
0000
0000
0000
0001
0000
0000
1000
,
0010
0100
0001
1000
0000
0000
0100
0000
,
0010
0000
0100
1000
,
0001
0100
0010
1000
,
0001
0000
0010
0100
2000
0000
0000
0000
,
3001
1000
0010
0000
0100
0000
0001
0000
,
0100
0001
1000
0000
0100
0000
0010
0000
,
0100
0000
0010
0001
1000
0000
0000
0000
0002
0000
0000
0000
0000
0000
0000
0000
,
2000
0000
0000
0000
3003
0000
0000
0100
,
0010
0100
1000
0001
1000
0000
1001
0000
,
0001
0100
0000
0000
0010
0000
0000
1000
,
0010
1000
0001
0000
0010
0000
0100
0000
,
0010
0100
1000
0001
,
0010
0100
1000
0000
0010
0000
0000
0000
,
0100
0001
1000
0001
,
0010
0000
0100
1000
,
0001
0000
0100
0000
0001
0100
0000
0010
,
1000
0100
1000
0001
0010
0000
0001
0000
,
1000
0010
0000
0000
0100
0000
0001
1000
,
0100
0010
0001
0100
,
0010
0000
0000
1000
0100
0000
0000
0000
,
1000
0001
0100
0000
0001
0000
0100
0010
,
1000
0010
1000
0000
0001
0000
0010
0001
,
0010
0100
0010
0001
,
1000
0000
0001
0000
0010
0000
0000
0100
,
0000
0000
0000
0010
0001
0000
1000
0000
,
0010
0000
0100
0000
0000
0000
0000
0001
,
0000
1000
0100
0010
0000
0000
0001
0010
,
0100
0000
1000
0001
0000
1000
0000
0010
,
0100
0001
1000
0000
0010
0000
0100
0000
,
0001
0000
0010
0100
,
1000
0000
0001
0100
,
0010
0000
0000
0100
0001
0000
0000
1000
,
0100
0000
0000
1000
0001
0000
0010
0000
,
0001
0000
1000
0000
0100
0000
0010
0100
,
1000
0001
0100
0001
,
0100
0000
0000
0010
1000
0000
0000
0001
,
1000
0001
0000
0010
0100
0000
1000
0000
,
0010
0100
0001
0000
,
0010
0000
0100
1000
,
0001
0000
0100
0000
,
0010
1000
0000
0001
0010
0000
0000
0000
,
0100
0000
1000
0001
,
0100
0000
0001
0000
1000
0000
0000
0100
,
0010
0000
0000
0001
1000
0000
0000
0000
,
0010
0000
0000
0100
0001
0000
1000
0000
,
0100
0000
0010
0001
,
1000
0000
0010
0000
,
1000
0001
1000
0000
,
0010
0100
0000
0010
1000
0000
0001
0000
,
1000
0010
1000
0100
,
0010
0100
1000
0000
,
0001
0000
0100
0000
,
0010
1000
0000
0001
0010
0000
0000
0000
,
0100
0000
0000
0000
;

//--------------- dance-single - ----------------
#NOTES:
     dance-single:
     :
     Hard:
     8:
     0,0,0,0,0:
0000
0000
0000
0000
,
0000
0000
0000
0000
,
0000
0000
0000
0000
,
0000
0000
0000
0000
,
1010
1000
0001
0010
1001
0000
0110
0010
,
0011
0001
0001
0001
1001
0000
0011
0000
,
1010
0000
0000
0001
0010
0110
0000
0100
,
0100
1100
1010
0000
0110
0000
0011
1010
,
1010
0000
0000
0000
0000
0000
0000
0000
0000
0000
0000
0000
0000
0000
0000
0000
0100
0000
0010
0001
0000
0000
0000
0000
1010
0000
0000
0000
0000
0000
0000
0000
,
0011
0000
0000
0000
0000
0000
0000
0000
1000
1001
0000
0000
0000
0000
0000
0000
,
0011
0000
0000
0000
0010
0000
0010
1000
,
1100
1001
0001
0110
,
0000
0000
0000
1000
0100
0000
0000
1000
,
0001
0100
0000
0001
1000
0000
0100
0000
,
1000
0001
1000
0000
0010
0000
0100
0001
,
0100
0000
0001
1000
0100
0000
0000
0000
0010
0000
0000
0000
0100
0000
0000
0000
,
1000
0000
0000
0000
1001
0000
0000
0001
,
0100
0010
0100
0010
1000
0000
0100
0000
,
1000
1010
0000
0000
0101
0000
0001
0010
,
0001
0100
1001
0000
1100
0000
1001
0000
,
0101
0000
1000
0010
1000
0001
0010
0100
,
1000
0100
1000
0000
1001
0000
0001
0100
,
0001
0010
0001
0000
1000
0000
0010
1000
,
0001
0000
0000
0100
0001
0000
0000
0000
1000
0000
0000
0000
0100
0000
0000
0000
,
0010
0000
0110
0000
0100
0000
0000
1000
,
0001
1000
0010
0100
0001
0000
1000
1000
,
0101
0000
0000
0001
0010
0000
0100
1000
,
0001
0010
0100
0000
0010
0000
0001
0000
,
1000
0000
0001
1000
0001
0000
0100
0010
,
0100
0010
0100
0000
0001
0000
1000
0000
,
0100
1000
0100
0000
0010
0000
0010
0100
,
0001
0000
0100
0001
1000
0000
0000
0000
0100
0000
0000
0000
1000
0000
0000
0000
,
0010
0100
0000
0000
0001
0000
1000
0001
,
0100
0001
0010
0001
1000
0000
0010
0000
,
0100
0001
0100
0000
0001
0000
1000
0100
,
1000
0100
1000
0000
0001
0000
0010
0000
,
0100
0000
1000
0010
0010
0010
0010
0010
,
1001
0001
0010
0100
1000
0000
1001
0001
,
0001
0001
0100
0000
0011
0000
1000
0100
,
0010
0000
0001
1000
0010
0000
0000
0000
1001
0000
0000
0000
0001
0000
0000
0000
,
1000
0100
0101
0000
0100
0010
0000
0100
,
0010
1000
0010
0100
0001
0000
0010
0000
,
0100
1000
0001
0000
0011
0000
0010
0100
,
1000
0001
0001
1000
0020
0000
0130
0001
,
0100
0000
0001
0001
1000
1000
0010
0010
,
1000
1000
0001
0000
0010
0000
0100
0010
,
0001
0100
0200
0000
0020
0330
1000
0001
,
0010
0110
0011
0001
,
0200
0000
0020
0330
1000
0000
0001
0010
,
0001
2000
0000
3010
1000
0000
0002
0000
,
1003
0100
0010
0000
0002
0000
0000
0003
,
0000
1000
0010
0100
0001
0000
0010
0100
,
0002
0000
1003
0100
0000
1010
0000
0001
,
0010
0200
0300
0000
1001
0000
1001
0000
,
0002
0000
0000
0000
0200
0303
0010
0010
,
2000
0000
3001
1000
,
0100
0010
0000
0010
0001
0000
0000
1000
,
0010
0200
0000
0301
1000
0000
0100
0000
,
0110
0000
1000
0000
0001
0000
0100
0010
,
0010
0100
0001
0001
,
0020
0000
0000
0130
1000
0000
0001
1000
,
0001
0200
0000
0310
0100
0000
0001
0010
,
0100
1000
0200
0000
0320
0000
0031
1000
,
0010
0000
0220
0330
,
0001
0000
0010
0000
0100
0000
1000
0001
,
0100
0010
0000
1000
0001
0000
0010
0000
,
0100
1000
0020
0000
0130
0000
0001
1000
,
0010
1000
0010
0100
0001
0000
0010
0100
,
0020
0000
0031
0010
0100
2000
0000
3001
,
0100
0001
0000
1000
0010
0000
0100
0000
,
0001
1000
0200
0000
0310
0000
0001
0010
,
0001
0000
0100
0010
,
1000
0010
1000
0000
0200
0000
0000
0000
,
0310
0100
0000
1000
0001
0000
0100
0000
,
0001
1000
0100
0000
0010
0000
0001
0010
,
0001
0010
0100
0000
1000
0000
0000
0010
,
1000
0000
0100
0010
0001
1000
0020
0000
,
0130
0002
0000
0013
0200
0000
1300
0000
,
0010
0000
0000
0000
;
