#TITLE:Heartbreaker;
#SUBTITLE:;
#ARTIST:Leroy Burgess;
#TITLETRANSLIT:;
#SUBTITLETRANSLIT:;
#ARTISTTRANSLIT:;
#GENRE:;
#CREDIT:;
#MUSIC:Heartbreaker.mp3;
#BANNER:Heartbreaker.png;
#BACKGROUND:Heartbreaker-bg.png;
#CDTITLE:;
#SAMPLESTART:39.019;
#SAMPLELENGTH:16.557;
#SELECTABLE:YES;
#OFFSET:-0.265;
#BPMS:0.000=110.522
,8.000=110.722
,72.000=110.522
;
#STOPS:;
#BGCHANGES:;
#FGCHANGES:;

//--------------- dance-single - ----------------
#NOTES:
     dance-single:
     :
     Easy:
     2:
     0,0,0,0,0:
0000
0000
0000
0000
,
0000
0000
0000
0000
,
0000
0000
0000
1000
,
0100
0000
1000
0000
0000
0001
0000
0000
,
0000
0100
0010
0100
,
0001
0000
1000
0000
0000
0100
0000
0000
,
0000
1000
0001
0100
,
0000
0001
0001
0000
,
0000
0000
1000
0100
,
0000
0000
0010
0000
0000
0001
0001
0000
,
1001
0000
0000
0010
,
1000
0000
0100
0000
0010
0000
0000
0000
0000
0100
1000
0000
0010
0000
0000
0000
,
0000
0100
0000
0001
,
0000
0000
1000
0000
0000
0100
1000
0000
,
0000
0010
0000
0100
,
0001
0010
0000
0100
,
0000
1000
0000
0000
,
0000
0000
0000
0000
0001
0000
0000
0000
0000
0001
0000
0000
0001
0000
0000
0000
,
0001
0100
0000
0010
,
0000
1000
0000
0001
,
0000
0000
0000
0010
,
0000
0100
0000
1000
,
0010
1000
0000
0010
,
0000
0000
0000
0000
0100
0000
0000
0000
0000
0000
0000
0001
1000
0000
0000
0000
,
0000
0001
0000
0010
,
0000
0100
1000
0000
,
0001
0000
0000
0100
,
0000
0100
0010
0010
0000
0000
1000
0000
,
0000
0001
0000
0010
,
0000
0100
0000
0000
,
1000
1000
1000
0000
,
0000
0001
0001
0000
,
0000
0100
0000
0010
,
0000
0000
1000
0000
1000
0100
0100
0000
,
0000
0000
0000
0010
,
0010
0010
0000
0001
,
0000
0001
0001
0000
0000
0000
1000
1000
,
0000
0100
0000
0010
,
0010
0000
0001
0001
0000
0000
0100
0000
,
0000
0010
0010
0010
,
0000
0000
1000
1000
0000
0000
0100
0000
,
0000
0000
0000
0000
0000
0000
0010
0100
0000
0000
0000
0000
0000
0000
0000
0000
,
0000
0000
0000
1001
,
0000
0000
0000
0000
0000
0000
0001
0000
0000
0010
0000
0000
0001
0000
0000
0000
,
1000
0000
0000
0001
,
0000
0100
0000
0000
,
0010
1000
0000
0000
,
0100
0000
0000
0000
,
0001
0000
0000
0000
,
1000
0000
0000
0000
0000
0000
1000
1000
,
0000
0000
0000
0010
0010
0000
0010
0000
,
0000
0001
0000
0100
,
0000
0100
0100
0000
0100
0000
0000
0000
,
0000
0010
0000
0000
,
0000
0010
1000
0000
1000
0000
0000
0000
0000
0000
0000
0000
1000
0000
0000
0000
,
0100
0000
0000
0000
0000
0000
0010
0010
,
0000
0001
0000
0000
,
0000
1001
0000
0000
;

//--------------- dance-single - ----------------
#NOTES:
     dance-single:
     :
     Medium:
     6:
     0,0,0,0,0:
0000
0000
0000
0000
,
0000
0000
0000
0000
,
0000
0000
1000
0001
0000
0000
1000
0000
,
0010
0000
0100
0001
0100
0001
1000
0000
,
0000
0100
0010
0001
0100
0000
0010
0000
,
1000
0000
0001
0000
1000
0000
0001
0000
0000
0000
0010
0100
0010
0000
0000
0000
,
0001
0000
1000
0010
1000
0010
0100
0000
,
0001
0000
1000
0100
0010
0001
0100
0001
,
0010
0100
1000
0010
1000
0000
0001
0000
,
0100
0000
0000
0000
0001
0000
0000
0000
0010
0000
0100
0000
1000
0000
0000
0001
,
0100
0000
0000
0000
0010
0000
0100
0000
0001
0000
0000
0000
1000
0000
0000
1000
,
0100
0000
0010
0000
0001
0000
0010
0000
0100
1000
0001
1000
0010
0000
0000
0000
,
0100
0001
0010
0001
0100
0000
0010
0000
,
1000
0100
0010
0000
0100
1000
0001
0000
,
1000
0010
0100
0010
1000
0000
1001
0000
,
0110
0000
1000
0000
0001
0000
0010
0000
0000
0000
0001
0000
1000
0000
0000
0010
,
0100
0000
0010
0000
0100
0000
0001
0000
0010
0000
0000
0000
0100
0000
0000
1000
,
0001
0000
0000
0000
1000
0000
0000
0000
0000
0010
0100
0000
0001
0000
0000
0010
,
0001
0000
0100
0010
1000
0000
0010
0000
,
0000
1000
0100
0000
0010
0001
1000
0000
,
0001
0000
0100
0001
0000
0000
0010
0000
,
0000
0000
0100
0000
1000
0000
0000
0000
0000
0000
0001
0000
0100
0000
0000
0001
,
1000
0001
0010
0000
0000
0000
0100
1000
,
0001
1000
0001
0000
1000
0000
0000
0000
0000
0000
0010
1000
0001
0000
0000
0000
,
0000
0000
1000
0100
0010
0000
0000
0000
0001
0000
1000
0000
0010
0000
0000
0000
,
0000
0000
0000
0000
0100
0000
0000
0000
0001
0000
1000
0001
1000
0000
0000
0100
,
0010
0100
0000
1000
,
0000
0001
0100
0000
0010
0000
1000
0000
0100
0000
0010
0000
0100
0000
0000
1000
,
0000
0000
0010
0000
0100
0000
0001
0000
1000
0000
0000
0000
0001
0000
1000
0001
,
0000
0000
0000
0000
0010
0000
0100
0000
0010
0000
0001
1000
0001
0000
1000
0000
,
0010
0100
0001
0010
,
0000
0000
0100
0000
1000
0000
0001
0000
0010
0000
0100
0000
1000
0000
0000
0001
,
0000
0000
0000
0000
0100
0000
0010
0000
1000
0000
0000
0000
0001
0000
0000
0010
,
0000
0000
0000
0000
0100
0000
1000
0000
0010
0000
0100
0000
0010
0000
0000
1000
,
0001
0000
1000
0100
0000
0010
0001
1000
,
0100
0000
0000
0000
1000
0000
0000
0000
0001
0000
0000
0000
0001
0000
0001
0100
,
0000
0001
0100
0000
0100
0000
0010
0100
,
0000
0100
0001
0000
1000
0000
0001
1000
,
0001
0000
0000
0000
0010
0000
0100
0000
0010
0000
0000
0000
0001
0000
0000
1000
,
0010
0000
0000
0000
0100
0000
0000
0000
0100
0000
0001
0000
0100
0000
0000
0010
,
0000
0000
0000
0000
1000
0000
0001
0000
0000
0000
0000
0000
0010
0000
0000
0100
,
0000
0000
0000
0000
0000
0000
1000
0001
0000
0000
0100
0000
0010
0000
0000
0000
,
1000
0000
0000
0001
0000
1000
0100
1000
,
0000
0000
0000
0000
0100
0000
0010
0000
0001
0010
0000
0001
1000
0000
0000
0000
,
0010
0000
0000
0000
0100
0000
0000
0001
0000
0000
0000
0000
0010
0000
0000
0000
,
0000
0000
0100
0000
0000
0000
1000
0010
,
0100
0000
0001
0000
0000
0000
1000
0100
,
0000
0000
0000
0000
0000
0000
1000
0100
0000
0000
0010
0000
0001
0000
0010
0000
,
0001
0000
0000
0000
1000
0000
0010
0000
0000
0000
0000
0000
0100
0000
0000
0001
,
0000
0000
1000
0000
0000
0000
0100
1000
,
0000
0000
0000
0010
0100
0000
0001
0000
,
0000
0010
0100
0000
0000
0000
1000
0010
,
0000
0000
0100
0000
0001
0000
0000
0000
1000
0000
0000
0001
0010
0000
0000
0000
,
0100
1000
0001
1000
0001
0000
0100
0000
,
0010
1000
0001
0000
1000
0000
0000
0000
0000
0000
0010
0000
0100
0000
0001
1000
,
0100
0000
1000
0000
0000
0000
0001
0100
,
0010
1000
0001
0000
0010
0100
1000
0000
,
0000
0000
0001
0000
0100
0000
0010
0000
0000
0000
0000
0000
1000
0000
0000
0001
;

//--------------- dance-single - ----------------
#NOTES:
     dance-single:
     :
     Hard:
     9:
     0,0,0,0,0:
0000
0000
0000
0000
,
0000
0000
0000
0000
,
0010
0000
0010
0010
0010
0001
1000
0100
,
1000
0000
1000
0000
0001
0000
0001
1000
0001
0000
0100
0010
1000
0000
0000
0100
,
1000
0001
0001
0100
0001
0000
0010
0100
,
1000
0000
1000
0000
0010
0000
0100
0000
0001
0000
0010
0001
0100
0000
0000
0001
,
1000
0000
0100
0010
0100
1000
0010
0000
,
0100
0000
0001
0000
1000
0000
1000
0001
1000
0000
0100
0000
0010
0000
0001
1000
,
0001
0100
0010
1000
0001
0000
0010
0000
,
0100
0000
0010
0001
1000
0000
0010
0000
0100
0000
0001
0100
0001
0000
0010
0100
,
1000
0000
0010
0000
0010
0000
0100
0000
0100
0000
0001
0000
0001
0000
0000
1000
,
0100
0000
0010
0000
0001
0000
1000
0000
0001
0100
0010
1000
0001
0000
0000
0000
,
0100
0000
0001
0000
1000
0000
0100
0000
0010
0000
0000
0000
0001
0000
0000
1000
,
0001
1000
0001
0000
1001
0000
1000
0010
0100
0000
0010
1000
0001
0000
0010
0000
,
0001
0000
0010
0000
0001
0000
0100
0000
0010
0000
0000
0000
0110
0000
0000
0100
,
0001
0000
1000
0000
0100
0000
0010
0001
0000
0000
1000
0010
0100
0000
0000
0001
,
0010
0000
0001
0000
0011
0000
1000
0000
1001
0000
0000
0000
1010
0000
1000
0001
,
1000
0000
0001
0000
0110
0000
0100
0000
0100
0001
1000
0000
0200
0000
0000
0310
,
0001
0000
1000
0000
0010
0000
0100
0000
0001
0000
0110
0000
2002
0000
3003
2010
,
0000
3100
0010
0000
0001
0000
1000
0000
0001
0000
1000
0000
0020
0000
0000
0130
,
0001
0000
0010
0000
0100
0000
1000
0000
0020
0000
0000
0000
0031
0000
0000
1000
,
0010
0000
0010
0000
1010
0000
0000
0000
1100
0000
1000
0000
1000
0000
1000
0001
,
0010
0000
0010
0000
0010
0000
0001
0000
1001
0000
0000
0000
0001
0000
0001
1000
,
0001
1000
0010
0000
0100
0000
1000
0000
0001
1000
0010
1000
0001
0000
0000
0100
,
0010
0000
1000
0001
0100
0000
0010
0000
1000
0000
0001
0000
0010
0000
0100
1000
,
0010
0000
0000
0000
0100
0000
0001
0000
1000
0000
1000
0100
1000
0000
0000
0001
,
0100
0000
0001
0000
0010
0000
0100
0000
0010
0000
0000
0000
0001
0000
0000
0100
,
0000
0001
1000
0000
0010
0000
0100
0000
0001
0000
0100
0000
0010
0000
0000
1000
,
0000
0000
0000
0000
0001
0000
0000
0000
0010
0000
0000
0000
0001
0000
0000
0000
0100
0000
0000
0000
0010
0000
0000
1000
0001
0000
0000
0000
0000
0000
1000
0000
,
0100
0000
1000
0000
0011
0000
0001
0000
0100
0000
0010
0100
0010
0000
1000
0010
,
1000
0000
0100
0010
0001
0000
0100
0000
0110
0000
0000
0000
0010
0000
0000
2002
,
0000
3003
1001
0000
0001
0000
0010
0000
0010
0000
0001
1000
0010
0000
0100
0001
,
1000
0000
1000
0000
1000
0000
0200
0000
2302
0000
0000
3003
0020
0000
0000
0031
,
0010
0000
0000
0000
1001
0000
0001
0000
1000
0000
0010
0100
0010
0000
0000
0100
,
0002
0000
0000
0000
1003
0001
0000
0000
0010
0000
0100
0000
1000
0000
0001
0100
,
0001
0000
0100
0000
0001
0010
0100
0010
0001
0000
0100
0001
1000
0000
0100
0010
,
0100
0000
1000
0010
1000
0100
0010
0000
0001
0000
0100
0000
0101
0000
0010
1000
,
0000
0000
0000
0001
0000
0000
1000
0000
0000
0000
0000
0000
0001
0000
0000
0000
0000
0000
0010
0000
0000
0100
0000
0000
1000
0000
0000
0000
0000
0000
0010
0000
0100
0000
0001
0000
0010
0000
0000
0000
0000
0000
0001
0000
0000
1000
0000
0000
,
0010
0000
0100
0000
0110
0000
0010
0000
0110
0000
0011
0000
0110
0000
0000
1000
,
0001
0000
1000
0100
0010
0001
0100
0000
0101
0000
0001
0000
1010
0000
0100
1000
,
0000
0000
1000
0100
0010
0000
2000
0000
0100
0000
0000
0000
3200
0000
0000
0320
,
0000
0000
0000
0030
0001
0000
0100
0010
0000
0000
1000
0000
0110
0000
1000
0000
,
0010
0000
0000
0100
0000
0000
0000
0000
0000
0000
0000
0000
0000
0000
0000
0000
0000
0000
0000
0000
0000
0101
0000
0000
0000
0000
0000
0000
0000
0000
0001
0000
0000
0000
0000
0000
0010
0000
0000
0000
0000
0000
0100
0000
1000
0000
0100
0000
,
2000
0000
0000
0000
0000
0000
3100
0000
0010
1000
0000
0000
1001
0000
0000
1000
,
0100
0000
0010
0000
2000
0000
0000
3010
0000
0000
1000
0000
0110
0000
0100
0000
,
1010
0010
1001
0001
0000
0100
0011
0010
,
1010
0000
1000
0000
0001
0000
0000
0011
0000
0000
0000
0000
2002
0000
0000
3003
,
0001
0000
0000
0000
0001
0000
0001
1000
0000
0100
0010
0000
0010
0000
0010
0000
,
0002
0000
0000
0003
0100
0000
0010
0000
2001
0000
0000
0000
3001
0000
0001
2000
,
0000
0000
0000
3000
0110
0000
0010
0000
0101
0000
0100
0000
0001
0010
0001
0200
,
0000
0000
0000
0000
0320
0000
2030
0000
3200
0000
0320
0000
0032
0000
0003
1000
,
0010
0000
0100
0000
0110
0000
0110
0000
0011
0000
0011
0000
0110
0000
1000
0100
,
0010
0000
0010
0000
0001
0000
0010
0001
1000
0000
0001
0020
0000
0030
0100
0000
,
1000
0000
1100
0000
1100
0000
0110
0000
1001
0000
0001
0000
0200
0000
0000
0300
,
0001
0100
0001
0000
1010
0000
1001
0000
0000
0000
1000
0100
0010
0100
1000
0010
,
0100
0000
0110
0000
1100
0000
0001
0000
1001
0000
1001
0000
1000
0000
0001
0100
,
0010
0000
1000
0000
1010
0000
1000
0000
0100
0000
0100
0010
0001
0000
0000
0000
,
0012
0000
0013
0000
0200
0000
0302
0000
0023
0000
0000
0000
0230
0000
0300
1001
;
