#TITLE:ハートをわたそう;
#SUBTITLE:(You've Got My Heart);
#ARTIST:The Neatbeats;
#TITLETRANSLIT:Heart o watasou;
#SUBTITLETRANSLIT:;
#ARTISTTRANSLIT:;
#GENRE:;
#CREDIT:;
#MUSIC:Heart o watasou (You've Got My Heart).mp3;
#BANNER:Heart o watasou (You've Got My Heart).png;
#BACKGROUND:Heart o watasou (You've Got My Heart)-bg.png;
#CDTITLE:;
#SAMPLESTART:22.599;
#SAMPLELENGTH:14.956;
#SELECTABLE:YES;
#OFFSET:-0.381;
#BPMS:0.000=179.536
,4.000=177.036
,7.000=180.786
,25.000=183.786
,29.000=182.786
,36.000=177.286
,63.000=182.786
,68.000=176.786
,73.500=178.786
,79.000=177.286
,87.000=180.786
,101.000=182.786
,105.000=183.786
,109.000=179.786
,113.000=178.786
,124.000=177.536
,132.000=180.536
,140.000=177.036
,145.000=179.536
,149.000=178.036
,156.000=179.036
,168.000=183.036
,173.000=182.036
,182.000=177.036
,187.000=179.286
,212.000=179.786
,223.000=180.036
,240.000=183.286
,248.000=181.786
,256.000=180.786
,267.000=181.786
,276.000=179.286
,285.500=178.286
,292.000=178.786
,304.000=182.786
,309.000=181.286
,319.000=178.786
,331.000=180.286
,344.000=179.786
,349.000=176.286
,356.000=178.786
,376.000=180.786
,393.000=182.786
,396.000=180.286
,406.000=155.286
,409.500=145.286
;
#STOPS:;
#DISPLAYBPM:176.286:183.786;
#BGCHANGES:;
#FGCHANGES:;

//--------------- dance-single - ----------------
#NOTES:
     dance-single:
     :
     Easy:
     5:
     0,0,0,0,0:
0000
0000
0000
0000
,
0000
1010
0000
1010
,
0000
0110
0001
0011
,
0000
0000
0001
0000
0000
0000
1000
0010
,
0000
0000
1000
0000
0000
0000
0000
0001
,
1001
0011
0000
1010
,
0000
0000
0100
1100
,
0000
0012
0000
0000
,
0000
0000
1003
0000
,
1100
0000
0000
0000
,
0101
0000
0000
0000
,
0011
0000
0000
0000
,
2001
0000
0000
3000
,
1001
0000
0000
0000
,
0110
0000
0000
0000
,
0100
0010
0100
0010
,
0100
0000
0000
0000
0000
1000
0001
0000
,
1001
0000
0000
0000
1000
0100
0010
0000
,
0100
1000
0001
0000
0000
0000
1010
0000
,
0000
1000
0010
0000
0000
0000
0200
0000
,
0000
0000
0300
0100
,
0100
0000
0101
0000
0000
0001
1000
0000
,
0000
0001
1001
0000
0000
0000
0000
0000
,
1000
1010
0020
0000
,
0000
0000
0030
0000
0000
1000
0100
1000
,
0100
0000
0101
0000
0000
0000
1000
0001
,
1000
0000
0000
0000
0000
0000
0010
0011
,
0000
0100
0000
0100
,
0000
0001
0000
0101
,
0010
0000
0000
0000
0000
0000
0000
0011
,
0000
1000
0001
1000
,
0000
0001
1001
0000
,
0100
0100
0000
0000
,
0000
0000
0001
0000
0010
0000
0000
0100
,
0000
0000
0000
0000
,
1010
0000
0000
0000
0000
1000
0001
0000
,
0000
0010
0100
0000
0000
0000
0000
0000
,
0000
1000
0001
0000
0000
0000
0101
0000
,
0000
0000
0000
0000
,
1000
0000
0000
0000
0000
0001
0100
0000
,
0000
0000
0010
0000
0000
0001
1000
0000
,
0000
0010
0000
0200
,
0000
0000
0000
1300
,
0020
0130
0000
0022
,
0000
0000
0000
0000
0000
0000
0000
0000
0000
0000
0000
0000
0000
0000
0000
0000
0000
0000
0000
0000
0000
0000
0000
0000
0000
0000
0000
0000
0000
0033
0000
0000
0000
0000
0000
0000
0000
0000
0000
0000
0000
0000
0000
0000
0000
0000
0000
0000
1000
0000
0000
0000
0000
0000
0000
0000
0001
0000
0000
0000
0000
0000
0000
0000
,
0000
1000
0000
0010
,
0000
1000
0000
0000
,
0000
0001
0000
0100
,
0000
0000
0001
0000
0100
0010
0000
0010
,
0000
1001
0000
1001
,
0000
0000
0000
0000
,
0000
1000
0001
0100
,
0001
0000
0000
0000
,
0100
0000
0100
0000
0010
0000
0000
1000
,
0000
0000
0100
0000
0100
0000
0000
0002
,
0000
0000
1000
0000
1003
0000
0000
1000
,
0000
0001
1000
0000
1010
0000
0000
0010
,
0000
0000
0001
0000
0001
1000
0000
1000
,
0000
0000
0010
0000
0100
0100
0000
0010
,
0000
0000
0010
0000
1000
1000
0000
0000
,
0000
0000
0000
0100
,
0010
1000
0001
0010
,
0000
1000
0100
0000
0000
0000
0011
0000
,
1000
0000
0100
0000
0000
1000
0100
0000
,
0200
0000
0000
0000
0300
0000
0000
1000
,
0001
0011
0100
0001
,
1000
0001
0000
0101
,
1010
0000
0000
1010
0000
0000
0000
1010
,
0000
0000
0000
0000
,
1000
1010
0000
0110
,
0000
0100
0001
0000
0000
0000
1000
0000
,
0000
0001
0000
0022
,
0000
0000
0033
0000
,
0100
0000
0000
0000
0000
0000
0001
1000
,
0000
0000
0100
1000
0000
0000
0000
0000
,
0100
0010
0100
0001
0000
0000
2000
0000
,
0000
0000
0000
3000
0000
1000
0100
1000
,
1100
1000
0000
0100
,
0000
0000
0000
0100
,
0000
1000
0000
0001
,
0000
0000
0000
0000
,
1000
0000
0010
0000
,
1000
0000
0000
0000
,
0000
0000
0001
0000
0000
0000
0000
1001
,
0000
0010
0000
0000
0000
0000
0000
0000
,
0100
0000
0010
0000
,
1000
0000
0000
0000
,
0011
0000
0000
0001
,
0000
0100
0000
0010
,
0000
0000
0000
0000
1000
0100
0020
0000
,
0000
0031
0000
0000
,
2002
0000
0000
0000
0000
0000
0000
0000
0000
0000
0000
0000
0000
0000
0000
0000
0000
0000
0000
0000
0000
0000
0000
0000
0000
0000
0000
0000
0000
0000
0000
0000
0000
0000
0000
0000
0000
0000
0000
0000
0000
0000
0000
0000
0000
0000
0000
0000
0000
0000
0000
0000
0000
0000
0000
0000
0000
0000
0000
0000
0000
0000
0000
0000
0000
0000
0000
0000
0000
0000
0000
0000
0000
0000
0000
0000
0000
0000
0000
0000
0000
0000
0000
0000
0000
0000
0000
0000
0000
0000
0000
0000
0000
0000
0000
3003
,
0000
0102
0000
0000
,
1003
0000
0000
1010
,
0000
0000
0000
0000
0000
0000
0000
0100
,
0102
0000
0000
0000
,
0000
0000
0000
0000
0000
0000
0000
0000
0000
0000
0000
0000
0000
0000
0000
0000
0000
0000
0000
0000
0000
0000
0000
0003
2000
0000
0000
0000
0000
0000
0000
0000
0000
0000
0000
0000
0000
0000
0000
0000
0000
0000
0000
0000
0000
0000
0000
0000
0000
0000
0000
0000
0000
0000
0000
0000
0000
0000
0000
0000
0000
0000
0000
0000
0000
0000
0000
0000
0000
0000
0000
0000
3001
0000
0000
0000
0000
0000
0000
0000
0000
0000
0000
0000
0000
0000
0000
0000
0000
0000
0000
0000
0000
0000
0000
0000
,
0020
0000
0030
0100
,
0102
0000
0000
0000
0000
0000
0000
0000
0000
0000
0000
0000
0003
0000
0000
1000
,
0100
2010
0000
3002
,
0000
0000
0000
0013
,
0000
0020
0000
0000
,
0000
0000
0000
0230
,
0000
0000
0000
0000
,
0000
0000
0300
0000
;

//--------------- dance-single - ----------------
#NOTES:
     dance-single:
     :
     Hard:
     9:
     0,0,0,0,0:
0000
0000
0000
0000
,
1000
0200
2000
3300
0000
0000
0101
0000
,
0000
0000
0010
0000
1010
0000
0000
1000
0100
0000
0000
0000
0010
0000
0100
0000
,
0000
0100
1000
0000
0001
0100
0110
0100
,
0000
0000
0001
0000
1000
0000
0000
0000
0000
0000
1100
0000
0100
0010
0001
1000
,
0100
0000
0110
0000
0100
1000
0010
0001
,
0110
0000
0010
0000
0100
0000
0000
0000
1000
0000
1000
0001
0100
0000
0010
0000
,
0000
0110
1001
0000
0011
0000
0000
0011
,
0000
0000
1001
0001
0000
0011
0000
0010
,
1100
0000
1001
0000
0100
0000
0000
0001
,
0101
0000
0000
0000
0000
0000
1000
0000
0000
0000
1000
0010
0110
0000
0000
0000
,
0000
0001
1000
0000
0100
1000
0101
0000
,
1010
0000
0000
0000
0010
0100
0101
0000
,
0001
0000
0100
0000
0010
0000
0000
0000
0010
0001
0010
0000
0100
0000
0000
0000
,
0101
1010
0000
1010
,
0000
0000
1010
0000
0000
0001
1000
0000
,
0000
0000
0100
0010
0001
0100
0001
0010
,
0100
0000
1000
0010
1000
0010
0100
0000
,
0001
1000
0100
0100
0000
1000
0001
0000
,
0010
0100
1000
1001
,
0000
0001
0100
0000
0010
0000
1000
0000
,
0100
0000
1100
0000
0000
1000
1001
0000
,
0000
0001
0100
0010
0000
1000
0100
0000
,
0010
0001
0400
0000
,
0000
0000
0300
1010
0000
1000
0001
0100
,
0101
0000
1001
0000
0000
0000
1000
0001
,
0000
0000
0011
0000
1000
0000
0100
1000
,
0100
0010
0000
0011
,
0001
0000
1001
0000
0000
0100
0010
0000
,
1010
0001
0000
0110
,
0000
0000
0000
0000
0000
0000
1001
0000
0000
0000
0000
0000
0000
0000
0000
0010
0000
0000
0100
0000
0000
0010
1000
0001
,
1000
0000
0001
0000
1000
0001
0010
0000
,
0110
0000
1000
0000
,
0110
0000
1000
0100
0010
0100
0000
0000
,
2020
0000
0000
0000
0000
0000
0000
0000
0000
0000
3030
0000
1000
0001
0010
0100
,
0010
0000
0000
0000
0000
0001
0100
0010
,
0000
0000
1000
0000
0001
0000
0000
0000
0010
0000
0001
0000
0100
0010
1000
0000
,
0100
0010
0002
0000
0003
0000
1000
0000
,
1010
0000
0010
0000
0100
0000
0001
1000
1001
0000
0001
0000
0100
0000
0000
0000
,
0110
0000
0000
0000
0000
0001
1000
0000
,
0000
0000
1000
0000
0001
0000
0000
0000
0000
0000
0010
0100
1000
0001
0010
0000
,
0000
1000
0001
0000
0100
0010
0000
0000
,
0010
0000
0000
1001
0000
0000
0100
0000
,
1200
0000
0310
0000
0000
0000
1001
0001
,
1000
0001
0011
0000
0110
0000
1000
0001
,
0010
0000
0010
0000
0010
0010
0110
0010
,
0000
0011
0000
1100
,
0000
4001
0000
0000
,
0000
0000
3000
0000
0011
0000
0000
0101
,
0000
0000
1001
0000
0000
0001
0100
1000
,
0000
0000
0000
0000
0000
0010
2000
0000
,
0000
3001
1001
0000
1000
0000
0000
1000
,
0000
0000
1010
0000
,
1000
0010
0000
1000
,
0000
0010
1000
0010
1000
0000
0001
0000
,
0000
0000
0010
0000
0001
1000
0000
0000
,
0001
0100
0010
0100
0010
0100
0010
0000
,
1000
0100
1000
0000
0010
0000
0000
0000
,
1000
0000
0000
0000
0100
0000
1000
0100
0010
0000
0100
0000
0000
0000
0000
0000
,
0000
1000
0001
0100
0010
0100
0000
0000
,
0404
0000
0000
0000
0303
0001
0000
0100
,
0010
1000
0100
1100
,
0000
0000
1000
0000
0010
0000
0100
0000
0000
0000
0001
0000
0000
0000
0000
1000
,
0001
0000
0000
1000
0010
0000
0100
0000
0000
0000
0001
0000
0010
0000
0000
0000
,
0100
1000
0000
0000
0000
0010
0100
0001
,
0000
1000
0100
0000
0010
0000
0000
0001
,
0100
0000
0001
0000
1000
0000
0100
0000
0000
0000
0000
0000
0010
0000
0001
0010
,
0001
1000
0010
0000
0100
0001
0000
0000
,
1001
0000
2000
0000
0000
3000
0001
1000
,
0100
0000
0110
0000
0000
0010
0001
0000
,
0100
0000
0010
0000
1000
0000
0000
0000
0000
0000
1000
0010
0100
0000
0000
0000
,
0001
0000
0010
0000
0100
1000
0001
0000
0000
0000
1000
0100
1000
0000
0000
0000
,
0000
0001
0101
0000
0000
0000
0001
0000
,
0011
0000
0000
0000
0000
1000
1001
0001
,
0000
0100
0010
1000
0000
0000
0110
0000
,
0001
0010
0100
0000
0010
0000
0011
0000
,
0001
0001
0100
0000
0010
1000
0010
1000
,
1010
1001
0000
0100
,
0100
0000
0010
0000
0001
0000
0000
0000
0001
1000
0000
0000
0400
0000
0000
0000
,
0000
0310
0100
0010
,
0000
1000
0000
1000
0000
0100
0000
0000
,
0001
0010
0011
0000
0100
0000
0001
0100
,
0000
0101
0000
0110
,
0000
0000
0100
0010
0100
0000
0000
0000
0001
0000
0011
0000
0000
0000
1000
0000
,
0000
0100
0000
0000
0000
0000
1000
0000
,
0100
0000
0010
0000
0001
0000
0001
0010
,
0001
0000
1000
0000
0000
0000
0000
0000
0010
0100
0010
0000
1000
0000
0010
0000
,
0100
0001
1001
0000
0000
0000
1000
0100
,
0000
0000
0010
0000
0001
0000
1000
0000
0000
0000
0010
0100
0001
0000
0000
0000
,
1001
0000
1000
0000
0001
0010
0100
0000
0000
0000
1000
0000
0001
0000
0000
0000
,
0000
0100
0010
0000
1000
0000
0001
0000
,
0010
0000
0000
0100
,
1000
0001
1000
0000
0010
0000
0000
0000
0100
0000
0000
0000
0001
0000
0000
0000
,
0010
0100
1000
0000
0010
0000
1000
0000
,
0001
0000
0000
0100
0000
0000
0010
0000
0000
0000
0000
0000
0000
0000
1000
0000
,
0001
0000
0010
0000
0100
0010
0100
1000
,
0001
0000
0002
0000
2003
3200
0320
0032
,
2003
3000
2000
0020
0230
0300
3001
0000
,
0000
0000
0010
0000
0200
0000
0000
0000
0000
0000
0000
0000
1300
0000
0001
1000
,
0001
0000
0000
0000
0100
0000
0020
0000
0000
0000
1030
0001
1000
0000
0100
0000
,
1000
0001
0100
0000
0010
0000
1000
0001
,
1000
0100
0010
0000
0001
0000
0000
0000
,
1000
0010
1000
0100
0000
0000
0200
0000
,
0000
0000
0300
0000
;
