#TITLE:Freedive;
#SUBTITLE:;
#ARTIST:Liquid Light;
#TITLETRANSLIT:;
#SUBTITLETRANSLIT:;
#ARTISTTRANSLIT:;
#GENRE:;
#CREDIT:;
#MUSIC:Freedive.mp3;
#BANNER:Freedive.png;
#BACKGROUND:Freedive-bg.png;
#CDTITLE:;
#SAMPLESTART:32.037;
#SAMPLELENGTH:15.141;
#SELECTABLE:YES;
#OFFSET:-0.098;
#BPMS:0.000=126.805;
#STOPS:;
#BGCHANGES:;
#FGCHANGES:;

//--------------- dance-single - ----------------
#NOTES:
     dance-single:
     :
     Beginner:
     1:
     0,0,0,0,0:
0000
0000
0000
0000
,
0000
0000
0000
0000
,
0000
0000
0000
0000
,
0000
0000
0000
0000
,
0000
0000
0000
0000
,
0000
0000
0000
0000
,
0000
0000
1001
0000
,
0000
0000
0110
0000
,
0000
0000
2002
0000
,
0000
0000
0000
3003
,
0220
0000
0000
0330
,
0000
0000
0001
0000
,
0000
0000
1000
0000
,
0000
0000
0001
0000
,
0000
0000
1000
0000
,
0100
0000
0010
0000
,
0000
0000
0001
0000
,
1000
0000
0010
0000
,
0100
0001
0000
0000
,
1000
0000
0001
0000
,
0000
0000
0010
0010
,
0010
0000
0100
0100
,
0100
0000
0001
0000
,
0000
0000
1000
0000
,
0000
0000
0010
0000
,
0000
0000
0100
0000
,
0000
0000
0001
0000
,
0100
0000
0001
0000
,
0000
0000
0010
0000
,
1000
0000
1000
0000
,
0100
0000
0100
0000
,
0010
0000
0010
0000
,
0000
0000
0000
2002
0000
0000
0000
0000
,
3003
0100
0010
0000
,
0000
0000
0001
0000
,
0000
0000
1000
0000
,
0001
0000
0100
0010
,
0000
0000
1000
0000
,
0100
0000
1000
0000
,
0010
0000
1001
0000
,
0000
0001
0001
0100
,
0010
0000
1000
0000
,
0000
0000
0100
0000
,
0010
0000
0001
0000
,
0100
0000
0000
0000
,
0001
0000
0000
0000
,
1000
0000
0100
0000
,
1000
0000
0010
0000
,
1000
0000
0000
0000
,
0001
0000
0010
0000
,
0001
0000
0100
0000
,
0000
0000
0010
0000
,
0000
0000
1001
0000
,
0000
0000
1000
0000
,
1000
0000
1000
0000
,
0000
0000
0001
0000
,
0000
0000
0001
0001
,
0001
0000
1000
1000
,
1000
0000
0000
0000
;

//--------------- dance-single - ----------------
#NOTES:
     dance-single:
     :
     Easy:
     3:
     0,0,0,0,0:
0000
0000
0000
0000
,
0000
0000
0000
0000
,
0000
0000
0000
0000
,
0000
0000
0000
0000
,
0000
0000
0010
1000
0001
0000
0000
0100
,
0010
0000
1000
0000
,
0100
0000
0000
0000
0010
0000
0001
0100
,
0001
1000
0000
0100
,
0000
0010
0200
0000
,
0000
0300
0000
0000
1000
0000
0000
0000
,
0000
0000
0001
0000
,
0000
0000
0100
0010
0000
0000
1000
0000
,
0100
1000
0000
0000
,
0001
0000
0000
0000
0100
0000
0010
1000
,
0100
0000
0000
0010
0001
0000
0000
0000
,
0100
0000
0010
1000
,
0001
1000
0001
0000
,
0010
0000
0000
0000
0010
0000
0000
0000
0100
0000
0000
0000
0100
1000
0000
0000
,
1000
0001
0000
0100
,
0100
0000
0100
0000
0100
0010
1000
1000
,
1000
0000
0100
0100
,
0010
0000
0001
0001
,
1000
0000
0000
0000
0100
0000
0100
0100
,
0010
0000
0000
0010
0001
0000
0001
0000
,
1000
0000
0010
0010
,
0010
0000
0000
0000
0010
0100
0100
0000
,
1000
1000
1001
0001
,
1000
0000
0000
0000
0100
0000
0010
0010
,
0001
0000
1000
0100
,
0010
0000
0001
1000
,
0010
0000
0000
1000
0100
0000
0000
0000
,
0010
0000
0001
0000
,
0000
0000
0000
0002
0000
0000
0000
0000
,
0003
0100
0010
1000
,
0000
0000
0001
0010
,
0100
1000
0001
0000
,
0100
0000
0001
1000
,
0100
0000
0000
0010
0001
0000
0100
0000
,
0010
0000
0001
0000
,
0010
0000
1000
0000
,
0000
0100
1000
0010
,
0100
0000
0010
0000
,
1000
0000
0001
0010
,
0001
0000
1000
0010
,
0100
0000
0001
0000
,
0010
0000
0100
0000
,
1000
0000
0010
0100
,
0010
0000
1000
0000
,
0001
0000
0010
0100
,
1000
0100
0010
0000
,
0001
0000
0100
0010
,
1000
0000
0000
0001
0010
0000
0001
0000
,
1000
0000
0001
0000
,
0100
0010
0001
1000
,
0010
0000
0100
0001
,
1001
0000
1001
0000
,
1001
0000
1000
0100
,
0010
0000
0001
1000
,
0010
0000
0100
0000
,
0001
0000
0000
1001
,
1000
0000
0100
0000
,
0010
0000
0000
0000
;

//--------------- dance-single - ----------------
#NOTES:
     dance-single:
     :
     Medium:
     5:
     0,0,0,0,0:
0000
0000
0000
0000
,
0000
0000
0000
0000
,
0000
0000
0000
0000
,
0000
0000
0000
0000
,
0000
0000
0100
0001
1000
0000
0000
0100
,
0010
0000
0001
0100
0010
0000
0000
1000
,
1001
0000
0000
0001
0010
0000
0100
1000
,
0001
0000
0100
0010
1000
0000
0100
0010
,
0001
1000
2002
0000
,
3003
0000
0001
0001
,
0000
0000
0100
0000
,
1001
0000
0001
1000
0010
1000
0100
0000
,
0110
0000
0000
0010
0001
0000
1000
0010
,
0100
0000
0001
0010
0001
0000
1000
0010
,
1001
0000
0000
0100
0001
0100
0001
0010
,
0100
0000
1000
0010
0100
0000
0001
0000
,
1000
0000
0001
0010
0100
0000
1000
0010
,
0100
0000
0001
0000
0110
0000
0000
0000
1000
0000
0000
1000
0100
0010
0001
0000
,
1000
0000
0000
0000
0100
0000
0000
1000
0010
0000
0000
0000
0100
0000
0001
0000
,
0010
0000
0001
0000
0100
0010
0100
0001
,
0010
0000
0100
0000
1001
0000
1000
0100
,
1000
0000
1010
0010
0110
0000
0001
0100
,
0010
0000
0000
0000
0110
0000
1000
0001
,
0010
0000
0100
1000
0001
0000
0100
0000
,
0001
1000
0100
1000
0100
0000
0010
0000
,
0001
0000
0000
0000
0000
0000
0100
0000
0010
0000
1000
0000
0001
1000
0001
0000
,
0010
0000
0000
0100
0010
0000
0001
0000
1000
0000
0010
0000
0100
0000
0000
0000
,
0001
0000
1001
1000
0010
0100
0010
0100
,
0001
0000
0000
0000
1000
0000
0100
0010
,
0001
0000
2000
3100
,
0110
0000
0010
0100
1000
0000
1001
0000
,
0001
0000
0000
0000
0011
0000
0000
1000
,
0010
1000
0000
0000
0100
0000
0000
0000
,
0010
0001
1001
1000
,
1010
0000
0010
0100
,
0010
0000
1000
0001
0010
0000
0000
0100
,
1000
0000
1000
1001
,
0001
0000
0001
0010
0100
0000
0100
1000
,
0010
0000
0010
0100
0001
0000
0001
0100
,
0001
0000
0000
0000
0000
0000
0000
0000
1000
0000
0010
0000
0000
1000
0010
0000
,
1000
0000
1001
0000
0001
0010
0100
0000
,
1100
0000
0000
1000
0010
0000
0100
0000
,
0101
0000
0000
0001
0010
0000
0100
0000
,
1100
0000
0000
1000
0100
0000
0010
0000
,
0011
0000
1000
0001
,
0100
0110
0010
0000
,
0110
0000
0000
0000
1000
0000
1000
0001
,
0100
0000
0000
0010
0100
0000
0001
0000
,
1000
0100
0110
0010
,
0011
1001
0001
0100
,
0110
0000
0000
0010
1000
0000
1000
0000
,
0010
0000
0000
0100
0001
0000
1000
0100
,
0010
0000
0000
0001
0100
0000
0010
0000
,
1001
0000
0001
0000
0010
0000
0100
1000
,
0010
0000
0000
0100
0001
0000
0010
0000
,
0100
0000
1000
0000
,
0001
0000
1001
1000
,
0010
0000
0100
0010
1000
0000
0100
1000
,
0100
0010
0001
0100
,
0010
1000
0001
0010
,
0001
0000
0000
0100
0010
0000
1000
0000
,
1001
0000
0000
0000
;

//--------------- dance-single - ----------------
#NOTES:
     dance-single:
     :
     Hard:
     8:
     0,0,0,0,0:
0000
0000
0000
0000
,
0000
0000
0000
0000
,
0000
0000
0000
0000
,
0000
0000
0000
0000
,
0000
0000
0000
0000
0001
0000
0100
0001
0100
0000
0001
0000
0010
0000
0100
0000
,
0010
0001
1000
0010
1000
0100
0010
0001
,
1000
0010
0100
0001
0010
0001
0010
0001
,
1000
0000
0010
0000
0100
0000
0100
0001
0010
0000
0100
0000
0010
0000
0001
0000
,
0100
0000
0000
0010
1000
0000
0100
0000
0022
0000
0000
0000
0000
0000
0033
0000
,
0001
1000
0010
0100
0001
0000
1000
0100
,
0010
0000
0100
0000
0000
0000
1000
0001
0100
0000
0000
0000
0010
0000
0100
0000
,
0001
0010
0100
1000
0001
0100
0001
1000
,
0010
0100
0001
0010
0100
0000
1000
0001
,
0100
0000
0001
0000
0100
0000
0010
1000
0100
0000
1000
0000
0010
0000
0100
0000
,
0010
0100
0001
0010
0001
0100
0001
0010
,
0001
0000
0100
0010
0010
1000
1000
0010
,
0100
0000
0001
0100
0010
1000
0001
0100
,
0010
0000
1000
0000
0100
1000
0100
0000
0010
0000
0001
1000
0001
0100
0010
0000
,
1000
0010
0100
0001
0100
0000
0010
1000
0010
0000
1000
0000
0100
0000
0010
0000
,
0001
0100
0010
1000
0100
0010
0001
0100
,
0010
0000
1000
0000
0001
0000
1000
0001
0010
0000
0000
0000
0200
0000
0300
0000
,
0010
0000
0001
0000
0010
0000
0001
0100
0010
0000
0000
0000
0001
0000
1000
0000
,
0100
0000
1000
0001
0100
0000
0010
0000
1000
0000
0100
0000
1000
0000
0100
0000
,
0010
0001
1000
0001
1000
0010
0100
0001
,
1000
0000
0010
0100
0001
0000
1000
0100
1000
0000
0000
0000
0001
0000
0100
0000
,
0001
0000
0010
0000
0100
0000
1000
0000
0010
0000
0100
0001
0100
0001
1000
0000
,
0100
0000
0010
0001
0010
0000
0100
1000
0001
0000
1000
0000
0100
0000
0010
0000
,
0001
0100
0010
0000
1000
1000
0100
0010
,
0001
0000
0200
0000
0000
0000
0310
1000
0200
0000
0000
0000
0310
0000
0001
0000
,
1000
0100
0010
0001
1000
0010
0100
0001
,
2000
0000
3100
0010
0001
0000
0100
0010
,
0100
0000
0002
0000
0000
0000
0003
0010
0100
0000
1000
0000
0000
0000
0001
0000
,
0100
0010
1000
0001
0020
0030
0200
0300
,
2000
0002
3003
1000
1001
0000
0010
0000
,
0100
0001
0010
0100
1001
0000
1000
0000
,
0100
0000
0010
1000
0001
0000
0010
0100
,
1000
0000
0010
0100
0001
0000
0010
0100
,
1000
0000
0010
0100
0001
0010
0100
1000
,
0001
0100
0010
1000
0001
0000
0010
0100
,
1000
0000
0100
0000
0000
1000
0001
0000
0100
0000
0010
0000
0000
1000
0001
0000
,
0010
0000
0100
0000
1000
0000
0001
0100
0010
0000
2000
0000
0001
0000
3000
0000
,
0020
0000
0031
1000
0001
0000
0010
0100
,
1000
0010
0010
0100
0010
0000
0001
0010
,
0100
0010
0001
0100
0001
0000
0010
0100
,
2000
0000
0000
0000
3001
0100
0001
0000
,
1000
0001
1000
0100
1000
0000
0001
0010
,
0001
0000
1000
0100
2000
0000
3000
1000
,
0001
0010
0001
1000
0100
0000
0001
1000
,
0002
0000
0013
0100
2000
0000
3001
0100
,
0001
0010
0100
1000
0200
0000
0300
0000
,
1000
0010
0100
0010
1000
0010
0200
0000
,
0302
0000
1003
0100
1000
0100
1000
0001
,
0010
0000
0000
0001
0010
0000
0001
0000
1000
0000
0000
0000
0010
0000
1000
0000
,
0010
0000
0100
0001
0010
0000
0100
0010
,
0001
0010
0100
1000
0001
1000
0100
1000
,
0001
0100
0000
0010
2000
0000
0000
3001
,
0010
0000
0000
0010
0100
0000
1000
0010
0100
0000
0001
0000
0100
0001
0010
0000
,
0001
0100
0010
1000
0020
0000
1030
0100
,
0020
0000
0031
1000
0010
0100
0002
0000
,
0013
0100
1000
0010
1000
0010
0100
0001
,
0020
0000
0130
1000
0002
0000
0103
0001
,
0101
0001
0000
0000
;

//--------------- dance-single - ----------------
#NOTES:
     dance-single:
     :
     Challenge:
     9:
     0,0,0,0,0:
0000
0000
0000
0000
,
0000
0000
0000
0000
,
0000
0000
0000
0000
,
0000
0000
0000
0000
,
0000
0000
0000
0000
0001
0000
0010
0100
1000
0000
0001
0000
1000
0000
0010
0000
,
0100
0000
0010
0000
1000
0000
0001
0010
0100
0000
1000
0000
0010
0000
0010
0000
,
0100
0001
0010
0000
0010
0001
0100
0010
,
1000
0000
0100
0000
0010
0000
0100
1000
0001
0000
1000
0000
0010
0000
0100
0000
,
0001
0000
0010
0100
1000
0000
0001
0100
0001
0000
1000
0000
0010
0000
0100
0000
,
0001
0001
0010
0000
1000
1000
0010
0100
,
0001
0000
0001
0010
0001
0000
0100
0001
1000
0000
0100
0000
0010
0000
0001
0000
,
0100
0010
0100
0000
1000
0100
0010
0001
,
0010
0000
0100
1000
0001
0000
0100
0010
0100
0000
0010
0000
1000
0000
0001
0000
,
0010
0000
0100
0000
1000
0000
0010
0100
0001
0000
1000
0000
0100
0000
0010
0000
,
0001
0000
1000
0001
1000
0000
0000
0000
0010
0000
0001
0000
0010
0000
0100
0000
,
0010
0001
MMMM
0000
1002
1000
1000
1003
,
0001
0000
0001
0010
0100
0000
1000
0100
0010
0000
0010
0000
1000
0000
1000
0000
,
0010
0000
0000
0000
0001
0010
0001
1000
0001
0000
0001
0100
0001
0100
0010
0000
,
0000
1000
0010
1000
0100
0000
0010
0001
0100
0000
0000
0000
0001
1000
0100
0000
,
0010
0010
0010
0000
0100
0010
1000
0100
,
0010
0000
0001
1000
0010
0000
0100
0001
1000
0000
0100
0000
0100
0000
0000
0000
,
0010
0000
0100
0000
0010
0000
0001
1000
0001
0000
0100
0000
0010
0000
1000
0100
,
1000
0000
0001
0010
0100
0000
1000
0001
1000
0000
0010
0000
0100
0000
0001
0000
,
1000
0000
0100
0000
0010
0000
0002
0020
0033
0000
0100
0000
1000
0000
0001
0000
,
0100
0000
0010
1000
0001
0000
0010
0100
0010
0000
0100
0000
1000
0000
0002
0000
,
0000
0000
0103
0000
0010
0000
1000
0100
0010
0000
0001
1000
0010
0100
0001
0000
,
0010
0000
0001
1000
0010
0000
0100
0001
0010
0000
1000
0000
1000
0000
0000
0000
,
0110
0000
0010
0000
0001
0000
1000
0010
0100
0000
0001
0000
1000
0000
0001
0010
,
0100
0000
1000
0000
0010
0000
0100
0001
0100
0000
0001
0000
0010
0000
0100
0000
,
1000
0000
0010
0000
1000
0000
0001
1000
0100
0000
0010
0000
0001
0000
1000
0001
,
0100
0000
0001
1000
0100
0000
1000
0010
0100
0000
0001
0000
0010
0000
0100
0000
,
2000
0000
0020
0000
0M0M
3030
0100
0001
1000
0000
0200
0000
0000
0000
1300
0000
,
0100
0000
0010
0001
1000
0000
0010
0100
0010
0000
1000
0000
0001
0000
0010
0000
,
0100
0010
0001
0000
0010
1000
0010
0100
,
0001
0000
0010
0100
1000
0000
0001
0000
0100
0000
0010
0000
1000
0000
0100
0010
,
0001
1000
0100
0000
0001
0100
0010
1000
,
0001
0000
0010
0100
1000
0000
0010
0000
0100
0000
0001
0000
0010
0000
0001
0000
,
1000
0000
0010
0000
0100
0000
0001
0010
0100
0000
0010
0000
0001
0000
0100
0010
,
1000
0000
0100
0010
0001
0000
1000
0000
0001
0000
0100
0000
0001
0000
0010
0000
,
0100
0000
1000
0000
0010
1000
0010
0100
0001
0000
1000
0100
0000
0010
0001
0000
,
0100
0010
1000
0100
1000
0000
0010
1000
0001
0000
0010
0000
0100
1000
0010
0000
,
1000
0000
0100
0010
0001
0000
0100
0000
0010
0000
1000
0000
0100
0000
0010
0000
,
0001
0000
0100
0010
1000
0000
0001
0000
0010
0000
0100
0000
0010
0000
0001
0000
,
0100
0000
0010
1000
0001
0000
0010
0000
0001
0000
0100
0000
0010
0000
0100
0000
,
0001
0000
0100
0001
0010
0000
0001
0000
0010
0000
0100
0000
1000
0000
0010
0000
,
0100
0001
0100
0000
1000
0001
1000
0010
,
0100
0000
0010
0100
0001
0000
1000
0000
0100
0000
0010
0000
0100
0000
0010
0000
,
0001
1000
0010
0000
0001
1000
0100
1000
,
0001
0000
0100
0010
0100
0000
0010
1000
0010
0000
1000
0000
0100
0010
0001
0000
,
0010
0000
0001
0100
0010
0000
1000
0000
0001
0000
0100
0000
0010
0000
1000
0000
,
0001
0000
0010
0100
1000
0000
0010
0000
0100
0000
0001
0000
0010
0000
0100
0000
,
1000
0000
0010
0100
0001
0000
0010
0000
0001
0000
0010
0000
0100
0000
1000
0000
,
0100
0000
0010
0001
0100
0000
0010
0000
1000
0000
0001
0000
0100
0000
0010
0000
,
1000
0100
0010
0000
0100
0010
1000
0001
,
0010
0000
0001
1000
0100
0000
1000
0000
0010
0000
0100
0000
0001
0000
0010
0000
,
0100
0000
1000
0010
0000
0000
1000
0000
0001
0000
0020
0000
0000
0000
0130
0000
,
1000
0000
0010
0100
0001
0000
0001
0100
0010
0000
1000
0000
0001
0010
0100
0000
,
1000
0010
0100
0000
1000
0001
0100
0010
,
1000
0000
0001
1000
0001
0000
0010
0000
0100
0000
1000
0000
0002
0000
0003
0000
,
0001
0000
0100
0010
1000
0000
0100
0000
0010
0000
0100
0000
1000
0000
0001
0000
,
0100
0000
0010
0100
0001
0000
1000
0000
0001
0000
0010
0000
0100
0000
0010
0000
,
0001
0100
0010
0000
0000
0000
0000
0000
;
