#TITLE:Farewell 블루스;
#SUBTITLE:;
#ARTIST:Lee Soo Young;
#TITLETRANSLIT:Farewell Blues;
#SUBTITLETRANSLIT:;
#ARTISTTRANSLIT:;
#GENRE:;
#CREDIT:;
#MUSIC:Farewell Blues.mp3;
#BANNER:Farewell Blues.png;
#BACKGROUND:Farewell Blues-bg.png;
#CDTITLE:;
#SAMPLESTART:66.539;
#SAMPLELENGTH:19.701;
#SELECTABLE:YES;
#OFFSET:-0.270;
#BPMS:0.000=67.000
,15.000=134.000
,71.000=67.000
,75.000=134.000
;
#STOPS:;
#BGCHANGES:;
#FGCHANGES:;

//--------------- dance-single - ----------------
#NOTES:
     dance-single:
     :
     Beginner:
     2:
     0,0,0,0,0:
0000
0000
0000
0000
,
0000
0000
0000
0000
,
0000
0000
0000
0000
,
0000
0000
0000
0000
0000
0000
1000
0200
,
0300
0010
0000
0001
,
0000
0000
0100
0000
0000
0010
1000
0000
,
0000
0010
0000
0100
,
0000
0001
0000
0100
,
0000
0001
0000
0100
,
0000
0001
0000
0010
,
0000
0100
0000
0000
,
0000
1000
0000
0010
,
0000
0100
0000
0001
,
0000
1000
0000
0100
,
0000
1000
0000
0000
,
0000
0001
0000
0100
,
0000
0010
0000
0000
,
0000
0000
0000
0000
1000
0000
0000
0001
0000
0000
1000
0000
0001
0000
0000
0000
,
0000
0000
1000
0010
,
0000
0100
0000
0000
,
0000
0001
0000
1000
,
0000
0100
0000
0010
,
0000
0001
0000
1000
,
0000
0001
0000
0100
,
0000
0000
0001
0000
0000
0000
0010
0010
,
0000
0010
0000
0100
,
0000
0000
1000
0000
0000
1000
1000
0000
,
0000
0001
0000
0000
,
0000
0100
0000
0000
,
0000
0010
0000
0000
,
0000
0000
0001
0000
0000
0001
0001
0000
,
0000
0000
1000
1000
0000
0000
0001
0000
,
0000
0000
0000
0010
,
0000
0000
0100
0000
0000
0100
0000
0000
,
0000
1000
0010
0010
0000
0010
0100
0000
,
0000
0001
0000
1000
,
0000
1000
1000
0000
0000
0001
0001
0000
,
0000
0000
0100
0000
,
0000
0000
0010
0000
0000
0010
0010
0000
,
0000
0000
1000
0000
0000
1000
0000
0000
,
0000
0100
0000
0000
,
0000
0001
0000
0000
,
0000
0010
0000
0000
,
0000
0001
0000
0000
,
0000
0000
0000
0000
0000
0000
0000
0000
0000
0000
0000
1000
0001
0000
0000
0000
,
0000
1000
0000
0000
,
0000
0100
0000
0010
,
0000
0001
0000
0000
,
0000
0000
1000
1000
0000
0000
0000
0000
,
0000
0010
0000
0000
,
0000
1000
0000
0100
,
0000
0100
0000
0000
,
0000
0001
0001
0001
0000
0000
0010
0000
,
0000
0000
0000
1000
,
0000
0100
0000
0100
,
0000
0100
0100
0000
,
0000
0100
0010
0010
0000
0000
0000
0000
,
0000
0100
0000
0000
,
0000
1000
0000
0000
,
0000
0000
0000
0001
,
0000
0000
0000
0000
0000
1000
1000
0000
,
0000
0001
0000
0000
,
0000
0100
0010
0000
0000
0000
0000
0000
;

//--------------- dance-single - ----------------
#NOTES:
     dance-single:
     :
     Easy:
     3:
     0,0,0,0,0:
0000
0000
0000
0000
,
0000
0000
0000
0000
,
0000
0000
0000
0000
,
0000
0000
0000
0000
0000
0000
0000
1000
,
0001
0010
0000
0100
,
0000
0000
1000
0000
0000
0001
0100
0000
,
0000
0010
0000
1000
,
0000
0100
0000
0010
,
0000
0100
0000
1000
,
0000
0010
0000
0100
,
0000
0001
0000
0000
,
0000
0010
0000
0100
,
0000
1000
0000
0010
,
0000
0100
0000
0001
,
0000
1000
0100
0000
,
0000
0000
0010
0000
0000
0001
1000
0000
,
0000
0010
0000
0000
,
0000
0000
0000
0000
0010
0000
0000
0001
0000
0000
1000
0000
0001
0000
0000
0000
,
0000
0000
1000
0010
,
0000
1000
0000
0000
,
0000
0000
0001
0000
0000
0010
0100
0000
,
0000
1000
0000
0010
,
0000
0100
0001
1000
0000
0100
0010
0000
,
0000
0000
0001
0000
0000
1000
0010
0000
,
0100
0000
0001
0000
0000
1000
0100
1000
,
0000
0001
0000
0010
,
0000
0000
0100
0000
0000
1000
0001
0000
,
0000
0100
0000
0000
,
0000
0010
0000
1000
,
0000
0001
0000
0000
,
0000
0000
0010
0000
0000
0100
0010
0000
,
0000
0000
0001
1000
0000
0001
0000
0100
,
0000
0000
0010
1000
,
0000
0000
0001
0000
0000
1000
0100
0000
,
1000
0001
1000
0001
0000
0100
0010
0000
,
0000
0000
1000
0000
0001
0010
0100
0000
,
0000
1000
0001
0100
0000
0010
1000
0000
,
0000
0000
0001
0000
0010
0100
1000
0000
,
0000
0000
0001
0000
0000
1000
0010
0000
,
0000
0000
0100
0000
0000
0001
0000
0000
,
0000
1000
0001
0000
,
0000
0010
0100
0000
,
0000
1000
0010
1000
,
0000
0000
0000
0001
,
0000
0000
0010
0000
0000
0000
0000
0000
0100
0000
0000
0010
0001
0000
0000
0000
,
0000
1000
0100
0000
,
0000
0010
0000
0001
,
0000
1000
0000
0000
,
0000
0000
0010
0100
0000
0000
0001
0000
,
0000
1000
0000
0000
,
0000
0100
0100
0010
,
0010
0001
0001
0000
,
0000
1000
0010
1000
0000
0001
0100
0000
,
0000
0000
0010
0000
,
0000
1000
0000
0010
,
0000
0100
0001
0000
,
0000
0001
1000
0100
0000
1000
0100
0000
,
0000
0010
0001
0000
,
0000
1000
0000
0010
,
0000
0000
0000
0000
,
0100
0000
0001
0000
1000
0000
0000
0100
0000
0000
0010
0000
0001
0000
0000
0000
,
0000
1000
0000
0010
,
0000
0100
0001
0000
0000
0000
0000
0000
;

//--------------- dance-single - ----------------
#NOTES:
     dance-single:
     :
     Medium:
     6:
     0,0,0,0,0:
0000
0000
0000
0000
,
0000
0000
0000
0000
,
0000
0000
0000
0000
,
0000
0000
0000
0000
0000
0000
1000
0100
,
0010
0010
0001
1000
0000
0000
0010
0000
,
0000
0000
0100
0000
0000
0001
1000
0000
,
0100
0010
0000
0001
,
0000
1000
0100
0000
0000
1000
0001
0000
,
0000
0100
0010
0100
0000
0000
1010
0000
,
0000
0000
0000
0000
1000
0000
0000
0010
1000
0000
0100
0000
0010
0000
0000
0000
,
0000
0001
1001
0000
,
0000
1000
0000
1001
,
0000
0001
1000
0001
0000
0000
0100
0000
,
0010
0100
0010
1000
0000
0000
0100
0000
,
0010
0001
0101
0100
,
0010
0000
1000
0000
0100
1000
0001
0000
,
0100
0000
0001
0010
0001
0000
1000
0000
,
0100
0000
0000
1000
0010
0000
0000
1000
0010
0000
1000
0000
0001
0000
0000
0000
,
0000
0000
0010
0100
,
0000
0000
1000
0001
0000
0100
0001
0000
,
0000
1000
0001
0000
0100
0001
1000
0100
,
0000
1000
0010
0000
0000
0100
0001
0000
,
0000
0010
0100
0010
0000
0001
0100
0000
,
0000
0000
0010
0000
0000
1000
0100
0000
,
1000
0000
0000
0001
1000
0000
0000
0010
0000
0000
0010
0000
0100
0000
0001
0000
,
0000
0000
0001
0000
1000
0100
1000
0000
,
0010
0000
0100
0000
0000
0001
2000
0000
,
0000
0000
0200
3300
0010
0001
1000
0000
,
0000
0000
0000
0000
0000
0000
0000
0000
0010
0000
0000
0000
0000
0000
0000
0000
0000
0000
0000
0100
0001
0000
0000
0000
0100
0000
0000
0000
0000
0000
0000
0000
,
1000
0000
1000
0100
1000
0000
0001
0000
,
0010
0000
0000
0000
0000
0000
0000
0000
0100
0000
0000
0000
1000
0000
0000
0000
0000
0000
0000
0001
0100
0000
0000
0000
0010
0000
0000
0000
0000
0000
0000
0000
,
0000
0000
0100
0001
0000
0010
0100
1000
,
0010
0000
0000
0000
0010
0000
0001
1000
0100
0000
0010
0000
0100
0000
0020
0000
,
0000
0031
1000
0000
0010
0100
0001
0000
,
1000
0100
0010
0001
0000
1000
0010
0000
,
0000
0100
0001
0010
0100
1000
0001
0000
,
0000
1000
0001
1000
0010
0100
0010
0000
,
1000
0000
0100
0000
0010
0100
1000
0000
,
0000
0000
0001
0000
0000
1000
0010
0000
,
0000
0000
1000
0001
0000
0010
0100
0000
,
0000
1000
0001
1000
0000
0000
0001
0000
,
0000
0010
0100
1000
,
0000
0000
0001
0000
0100
0000
0110
0010
,
1000
0001
0010
0100
0000
1000
0001
0000
,
0000
0000
0000
0100
0000
0000
0010
0000
1000
0000
0000
0100
0010
0000
0000
0000
,
0000
0000
0001
0000
0100
0010
1000
0000
,
0000
0100
0000
0010
,
0100
0000
1000
0000
0001
1000
0000
0000
,
0010
0100
0001
1000
0001
1000
0100
1000
,
0001
0000
0010
0000
0000
1001
0000
0000
,
0000
0000
1000
0000
1000
0100
0010
0001
,
0100
0000
0010
0000
1000
0001
1000
0001
,
0000
0100
0010
1000
0010
0100
0001
1000
,
0000
0100
0010
0001
,
1000
0000
0010
0000
0000
0100
0001
0000
,
0000
0000
0010
0000
0000
0100
1000
0000
,
0001
1000
0001
0100
0000
0010
1000
0000
,
0000
0000
0001
0000
0010
0100
0000
0000
,
0000
0000
1000
0010
0000
0100
0010
0000
,
0000
0000
0000
0000
0000
1000
0001
0010
,
0100
0000
1000
0000
0001
0000
0000
1000
0000
0000
0010
0000
0100
0000
0001
0000
,
0000
0000
1001
0000
0100
0010
0100
0000
,
0000
0001
1000
0000
0000
0000
0000
0000
;

//--------------- dance-single - ----------------
#NOTES:
     dance-single:
     :
     Hard:
     8:
     0,0,0,0,0:
0000
0000
0000
0000
,
0000
0000
0000
0000
,
0000
0000
0000
0000
0000
0000
1000
0010
,
0000
0000
0000
0000
0000
0000
0000
0100
0001
0000
0000
0000
0000
0000
0000
0000
0000
0000
0000
0000
0000
0000
0000
0000
0000
0000
0000
0000
0000
0000
0000
0000
0000
0000
0000
0000
0000
0000
0000
0000
0000
0000
0000
0000
0000
0000
0000
0000
1000
0000
0000
0000
0000
0000
0000
0000
0100
0000
0000
0000
0000
0000
0000
0000
,
1000
0001
0100
0010
0000
0000
1000
0000
,
0001
0000
0010
0000
0000
0100
1000
0000
,
0001
1000
0010
0000
0100
0000
0001
0000
,
0010
0000
0100
0000
1000
0010
1000
0000
0000
0000
0001
0000
0010
0000
0000
0000
,
0000
0100
1000
0001
0100
0010
1000
0000
,
0000
0000
0000
0000
0000
0000
0001
0000
0010
0000
0000
0000
0000
0000
0100
0000
1000
0000
0000
0000
0001
0000
0000
0100
0010
0000
0000
0000
1000
0000
0000
0000
,
0000
0000
0002
0000
0000
1003
0002
0000
,
0003
0000
0000
0000
0100
0000
0000
0000
0000
0010
0100
0000
0001
0000
0000
0000
,
0100
0010
1000
0010
1000
0001
0010
0000
,
0001
0000
0000
0000
1000
0000
0000
0000
0001
0000
0000
0000
1000
0000
0000
0000
0100
0000
0000
0000
1000
0000
0000
0000
0001
0000
0000
0000
0000
0000
0000
0100
,
0010
1000
0110
0011
,
0010
0000
0110
0000
0100
1000
0001
0000
,
0010
0000
0001
0100
0010
1000
0100
0000
,
1000
0000
0010
0100
0001
0000
0000
0100
0010
0000
1000
0000
0100
0000
0010
0000
,
0000
0000
0000
0000
0000
0000
0000
0000
0000
0000
0000
0000
0000
0000
0000
0000
0001
0000
0000
0000
0100
0010
0000
0000
1000
0000
0000
0000
0001
0000
0000
0000
,
1100
0000
0100
0010
0001
0100
0110
0000
,
0000
1000
0001
0100
0010
1000
0001
0011
,
0000
0001
0021
0000
0000
0031
0101
0000
,
0000
0100
1000
0010
0110
0100
0002
0000
,
0003
1000
0010
0100
0101
0001
1010
0000
,
1100
0000
0000
0001
1000
0000
0000
0001
0100
0000
0010
0000
1000
0000
1000
0000
,
0000
0001
1000
0100
0010
0001
1000
0000
,
0010
0010
0001
0000
0001
0010
0011
0000
,
0100
0001
1000
0100
0010
0001
0100
0010
,
0000
0000
0000
0000
1000
0000
0000
0000
0001
0000
0000
0000
0000
0000
0000
0000
0000
0000
0000
0010
0100
0000
0000
0000
1000
0000
0000
0000
0000
0000
0000
0000
,
0001
0000
0100
0000
0010
0000
1000
0000
0010
0000
0100
0000
0001
0000
1000
0100
,
1000
0000
0000
0000
0000
0000
0000
0000
0001
0000
0000
0000
0010
0000
0000
0000
0000
0000
0000
0100
1000
0000
0000
0000
0001
0000
0000
0000
0000
0000
0000
0000
,
0100
0100
0001
0020
0000
0030
0001
0010
,
0100
0000
0000
0000
0000
0000
0000
0000
1000
0000
0000
0010
0100
0000
0000
0000
0001
0000
0000
0000
1000
0000
0000
0000
0100
0000
0000
0000
0010
0000
0000
0000
,
0000
0001
0100
0010
1000
0100
1000
0000
,
0001
1000
0010
1000
0000
0001
1000
0000
,
0000
0100
1000
0001
0100
0010
1000
0100
,
0000
0000
0010
0000
0001
0000
1000
0000
0010
1000
0001
0000
0100
0000
0001
0000
,
1000
0100
1000
0000
0001
0100
0010
0000
,
0000
1000
0100
1000
0010
0100
0001
0100
,
0000
0000
0001
0010
0100
1000
0010
0100
,
0001
0010
0100
1000
0010
1000
0100
0000
,
0000
0010
0001
0010
0001
0010
0100
0000
,
0000
0000
1001
0000
1000
0001
0100
0001
,
1000
0000
0100
0000
1000
0000
0100
0000
1000
0100
0010
0000
0001
0000
0000
0000
,
0000
0000
1000
0100
0010
0000
0001
0000
0100
0000
0000
0001
0100
0000
0010
0000
,
1000
0001
0010
0100
1000
0001
1001
0000
,
1000
0000
0010
0100
0000
0001
0010
0000
,
0100
0000
0000
0000
1100
0000
0000
0000
1000
0000
0010
0000
0100
0000
0000
0001
,
0010
0000
0100
0000
1000
0000
0010
0000
0100
0000
0001
0010
0001
0000
1000
0000
,
0001
1000
0010
0100
0001
1000
0000
0000
,
1001
0000
0001
0010
0100
1000
0010
1000
,
0100
0000
0000
0000
0010
0000
0000
0000
0001
0000
1000
0000
0001
0000
1000
0010
,
0000
0000
0100
0000
0001
0000
1000
0000
0001
0100
0010
0000
1000
0001
0010
0000
,
0000
0000
0000
0100
1000
0000
0000
0000
0001
0000
0010
0000
1001
0000
0000
0000
,
0100
0001
0100
0001
0000
1001
1000
0100
,
0010
0000
0000
0000
0002
0000
0000
0000
1003
0000
0010
0000
0100
0000
0001
1000
,
0100
0000
1000
0000
0001
0000
0100
0000
0000
0010
1000
0000
0100
0000
0000
0000
,
0010
0000
0001
0100
0010
0100
0001
0000
,
1000
0000
0100
0010
0000
0001
0100
0000
,
0010
0000
0000
0000
1000
0000
0001
0000
0010
0000
0100
1000
0001
0000
0100
0000
,
0001
0000
1000
0000
0001
0000
0000
0010
0000
0000
0100
0000
1000
0000
0020
0000
,
0000
0000
0130
0000
0001
1000
0100
1000
,
0001
0100
0010
0000
0000
0000
0000
0000
;
