#TITLE:Farewell 블루스;
#SUBTITLE:(Nylon Guitar Instrumental Version);
#ARTIST:Lee Soo Young;
#TITLETRANSLIT:Farewell Blues;
#SUBTITLETRANSLIT:;
#ARTISTTRANSLIT:;
#GENRE:;
#CREDIT:;
#MUSIC:Farewell Blues(Nylon Guitar Instrumental Version).mp3;
#BANNER:Farewell Blues(Nylon Guitar Instrumental Version).png;
#BACKGROUND:Farewell Blues(Nylon Guitar Instrumental Version)-bg.png;
#CDTITLE:;
#SAMPLESTART:62.741;
#SAMPLELENGTH:15.489;
#SELECTABLE:YES;
#OFFSET:-0.538;
#BPMS:0.000=122.020
,240.500=113.520
;
#STOPS:;
#BGCHANGES:;
#FGCHANGES:;

//--------------- dance-single - ----------------
#NOTES:
     dance-single:
     :
     Easy:
     3:
     0,0,0,0,0:
0000
0000
0000
0000
,
0000
0000
0000
0000
,
0000
0000
0000
0000
,
0000
0000
0000
0000
,
1000
0000
1000
0000
1000
0001
0000
0000
,
0000
0000
0000
0010
0000
0100
0000
0000
,
0000
0000
1000
0001
0000
0000
0000
0000
,
0000
1000
0010
0000
0000
0100
0001
1000
,
0002
0000
0000
0000
0000
1003
0000
0100
,
0000
0100
0000
0100
0000
0100
0010
0000
,
0010
0000
0001
1000
0000
1000
0000
0001
,
0010
0000
0000
0000
0000
0000
0100
0000
0000
0000
0000
0000
0000
0000
0000
0000
0000
0000
0000
0000
1000
0001
0000
0000
0000
0000
0000
0000
0001
0000
0000
0000
,
1000
0000
0000
0010
0000
0000
0000
0000
0100
0000
0000
0000
0000
0000
0000
0000
,
0000
0001
0000
1000
0100
0000
0000
0020
,
0000
0000
0000
0000
0031
2000
0000
0000
,
3001
1000
0000
0010
0000
1000
0000
0200
,
0000
0000
0000
0310
0000
0001
0000
0010
,
0000
0100
0000
1000
0000
0000
0000
0001
,
0100
0000
0001
0200
0000
0000
0000
0000
,
0300
0000
0000
0000
0000
0001
0000
0000
,
0001
0000
0000
0000
0000
0000
1000
0000
1000
0000
0000
0100
0000
0000
0200
0000
,
0000
0000
0000
0310
0000
0001
0000
0000
,
0000
0000
0001
0100
0000
0000
0000
0010
,
0010
0001
0000
0000
0010
0000
0010
0000
,
0010
0100
0000
0000
0000
1000
0000
1000
,
1000
0000
0000
0001
0000
1000
0000
1000
,
0100
0000
0100
0010
0000
0000
0000
0000
,
0001
0000
0000
0001
0000
0000
0000
0000
0000
0000
0100
0000
0000
0000
0010
0000
,
0000
0000
0010
0100
0000
0001
0000
0000
,
0000
1000
0000
0100
0010
0100
0000
0010
,
0001
0000
0000
0000
0100
0010
0100
0000
,
0000
0000
0000
0001
0000
1000
0100
0010
,
0001
0000
0000
1000
0000
0000
0000
0001
,
0000
1000
0000
0010
0000
0000
0000
0100
,
0001
0000
1000
0000
0000
0100
0000
0000
,
0010
0000
0000
0001
0000
0100
0000
0001
,
0100
0000
0000
0000
0000
0010
0000
1000
,
0100
1000
0000
0001
0000
0100
0010
0000
,
1000
0000
0000
0000
0001
0000
0010
0000
0100
0000
0000
1000
0000
0000
0010
0000
,
0000
0100
0000
0000
0000
0001
0010
0100
,
1000
0100
0000
0000
1000
0000
0001
0000
0000
0000
0100
0000
0000
0000
0010
0000
,
0100
0010
1000
0001
0000
0010
0001
0000
,
1000
0000
0000
0000
0000
0000
0000
0000
0000
0000
0000
0000
0010
0000
0000
0000
0000
0000
0000
0000
0000
0100
0000
0000
0000
0000
0000
0000
0001
0000
0000
0000
,
0000
0000
0000
0000
0010
0000
0000
0000
0000
0000
0000
0000
0100
0000
0000
0000
0000
0000
0000
0000
0000
1000
0000
0000
0000
0000
0000
0000
0000
0000
0000
0000
,
0001
0000
0100
0000
0001
0000
0000
0010
,
0000
0000
0000
0000
0000
0100
0000
0000
,
1000
0000
0010
0000
0100
0001
0000
0010
,
0000
0000
0000
0100
0000
1000
0000
0000
,
0010
0100
0000
0001
0000
0010
0000
0001
,
0100
0010
0000
0000
0000
1000
0000
0100
,
0000
0010
0000
0000
0000
0001
0000
1000
,
0000
0010
0000
0100
0000
0001
0000
0000
,
0010
0000
0000
0000
0100
0000
0000
0000
1000
0000
0000
0010
0000
0000
0010
0000
,
0100
0000
0001
0000
0000
0001
0000
0000
,
1000
0000
0000
0000
0000
0100
0010
0001
,
0000
0100
0000
0010
0000
1000
0001
0000
,
1000
0000
0010
0000
0000
0000
0000
0100
,
0000
0001
0000
1000
0000
0100
0000
0010
,
0000
0000
0100
1000
0000
0001
0000
0100
,
0010
0000
1000
0001
0000
0000
0000
0000
,
1000
0000
0000
0000
0100
0000
0000
0000
0000
0000
0010
0000
0000
0000
0000
0000
0000
0000
0000
0000
0000
0000
0001
0000
0000
0000
0000
0000
0000
0000
0000
0010
,
0000
0100
0000
0000
0000
0000
0000
0000
;

//--------------- dance-single - ----------------
#NOTES:
     dance-single:
     :
     Hard:
     6:
     0,0,0,0,0:
0000
0000
0000
0000
,
0000
0000
0000
0000
,
0000
0000
0000
0000
,
0000
0000
0000
0000
,
0100
0000
0000
1000
0100
0100
0000
1020
,
0000
0130
0000
0010
0000
0000
0000
0100
,
0010
0000
1000
0100
0000
1000
0000
0000
,
0000
0010
0100
0000
0010
0010
0010
1000
,
0020
0000
0030
0000
0000
0100
0000
1000
,
0000
0100
0000
0010
0020
1030
1001
0000
,
0001
0000
0010
0100
0000
1000
0000
1001
,
0100
0000
0000
0000
0010
0000
0001
0000
0000
0000
0000
0000
0000
0000
0000
0000
0000
0000
0000
0000
0010
0100
0000
0000
0000
0000
0000
0000
1000
0000
0000
0000
,
0100
0000
0000
0100
0000
0000
0000
0000
1100
0000
0000
0000
0000
0000
0010
0000
,
0000
1000
0000
0010
1000
0100
0000
0011
,
0000
0000
0000
0000
0002
0000
0000
0000
0103
0000
0010
0000
0000
1000
0000
0000
,
0001
0010
0100
1000
0000
0000
0000
0000
0000
0100
0000
0000
0010
0000
0000
0001
0000
0000
0000
0000
0000
1000
0000
0000
,
0010
0000
0100
0001
0000
1000
0000
0100
,
0000
1000
0000
0020
0000
0000
0000
0130
,
0001
0100
0000
0000
0001
0000
1000
0000
0000
0000
0000
0000
0000
0000
1100
0000
,
0000
0001
0000
0110
0000
0010
0000
0000
,
0110
0000
0000
0000
1000
0000
0010
0000
0100
0000
0000
0001
0000
0000
1001
0000
,
0000
0000
0000
0000
1000
0000
0000
0000
0000
0000
0000
0000
0110
0000
0000
0000
0000
0000
0000
0000
0100
0001
0000
0000
0000
0000
0000
0000
0010
0000
0000
0000
,
0100
0000
1000
0001
0000
0000
0000
0100
,
0010
1000
0001
0010
0100
0000
1100
0000
,
0001
0000
1000
0000
0001
0000
0000
0000
0010
0000
0001
0000
0000
0000
1000
0010
,
0100
0000
0000
0001
1000
0100
0000
0010
,
0001
0000
0100
0010
0000
1000
0000
0100
,
0010
0000
0100
1000
0000
0000
0000
0000
0010
0000
1000
0001
0000
0000
0100
0000
,
0001
0000
0100
0010
0000
1000
0000
0000
,
0000
0100
0000
0010
0001
0100
0000
0010
,
0100
0001
0010
0000
0100
1000
0001
0100
,
0010
0000
0000
0000
0100
0000
0010
0000
1000
0000
0000
0000
0001
0000
0000
0000
0000
0000
0000
0000
1000
0100
0000
0000
0010
0000
0000
0000
0001
0000
0000
0000
,
0100
0000
0000
0000
0010
0000
1000
0000
0000
0000
0001
0010
0000
0000
0100
0000
,
0000
0010
0000
0001
0000
1000
0010
0100
,
0001
0000
0010
0000
0000
0100
0000
0000
,
1000
0000
0000
0010
0000
0100
0000
0001
,
1000
0000
0000
0000
0100
0000
0000
0000
0010
0000
0001
0000
0000
0000
0100
0010
,
1000
0010
0000
1000
0000
0001
0010
0000
,
0100
0000
1000
0000
0100
0000
0000
0000
0000
0000
0000
0000
1000
0000
0000
0000
0000
0000
0100
0000
0000
0000
0000
0000
0010
0000
0000
0000
0000
0000
0001
0000
0000
0100
0000
0000
0000
0000
0000
0000
0000
0000
0010
0000
0000
1000
0000
0000
,
0000
0100
0000
0010
0000
0001
0100
0010
,
0100
0001
0000
0000
0010
0000
0100
0000
0000
0000
1000
0000
0000
0000
0010
0000
,
0100
0010
1000
0001
0000
0010
0100
1000
,
0001
0000
0000
1000
0010
0000
0100
0000
0000
0000
0001
0000
1000
0000
0100
0000
,
0000
0000
0010
0000
0000
0000
0100
0000
1000
0000
0000
0001
0000
0000
0100
0000
,
0010
0000
1000
0000
0100
1000
0000
0001
,
0000
0100
0000
0010
0100
0001
1000
0000
,
0100
0000
0010
0000
0001
1000
0000
0010
,
0000
0100
0000
0001
0000
0010
0000
0000
,
0100
1000
0001
1000
0000
0010
0000
0100
,
0001
0100
0000
0010
1000
0010
0000
0100
,
0000
0001
0010
0000
0000
0100
0000
1000
,
0010
0100
0000
0010
0000
1000
0000
0100
,
0010
0000
0000
0000
0001
0000
1000
0000
0001
0000
0000
1000
0000
0000
0010
0000
,
1000
0010
1000
0001
0100
0001
0000
1000
,
0010
0000
0000
0000
0100
0001
0100
0001
,
0000
0010
0100
1000
0100
1000
0010
0000
,
0100
0000
0001
0000
0010
0100
0010
0100
,
0000
1000
0000
0001
0100
0010
0000
1000
,
0000
0000
0001
0010
0000
0100
1000
0001
,
1000
0000
0000
0010
0100
0000
0001
0000
0000
0000
0001
0000
0000
0000
0000
1000
,
0100
0000
0010
0000
0000
0001
0000
0000
0001
0000
1000
0010
0000
0000
0100
0001
,
0000
1000
0000
0000
0000
0000
0000
0000
;
