#TITLE:Do Ghost Dance?;
#SUBTITLE:[OFFICIAL];
#ARTIST:Brett Johnson;
#TITLETRANSLIT:;
#SUBTITLETRANSLIT:;
#ARTISTTRANSLIT:;
#GENRE:;
#CREDIT:;
#MUSIC:Do Ghost Dance.mp3;
#BANNER:Do Ghost Dance.png;
#BACKGROUND:Do Ghost Dance-bg.png;
#CDTITLE:;
#SAMPLESTART:47.652;
#SAMPLELENGTH:12.516;
#SELECTABLE:YES;
#OFFSET:-0.197;
#BPMS:0.000=115.057;
#STOPS:;
#BGCHANGES:;
#FGCHANGES:;

//--------------- dance-single - ----------------
#NOTES:
     dance-single:
     :
     Easy:
     4:
     0,0,0,0,0:
0000
0000
0000
0000
,
0000
0000
0000
0000
,
0000
0000
0000
0010
,
0010
0010
0001
0001
,
0001
0001
0010
0010
,
0001
0001
1000
1000
,
0010
0010
0001
0000
0001
0000
0100
0000
,
0000
0100
0001
0010
,
1000
0100
1000
0100
,
0100
0010
0001
0010
,
0001
0010
0001
0100
,
0001
1000
0010
2000
,
0000
0000
0001
3001
,
1000
1000
0100
0100
,
0020
0031
0001
0001
,
0001
1000
1000
0010
,
0010
0100
0100
0001
,
0001
1000
0100
0010
,
0001
0100
0001
0001
,
0000
1000
0100
0000
0010
0000
0001
0000
,
0010
0100
1000
0100
,
0010
0001
1000
0010
,
1000
0000
0000
0000
0010
1000
0000
0000
0001
0000
0000
0000
0010
0000
0000
0000
,
0100
1000
0100
0010
,
0001
0100
0010
0100
,
0001
0001
1000
0100
,
0010
0001
0010
0100
,
1000
0100
1000
0001
,
0100
0010
1000
0001
,
0010
0100
1000
0001
,
0100
0010
0100
0001
,
0100
0010
1000
0001
,
0010
0100
1000
0010
,
0100
0001
1000
0000
0001
0000
0010
0000
,
0100
1000
0010
0100
,
0001
0010
0100
0000
1000
0000
0010
0000
,
0000
0100
0001
1001
,
1000
0010
0100
0001
,
0000
1000
0100
0010
,
0001
1000
0001
0000
0100
0000
0010
0000
,
1000
0001
0010
0100
,
1000
0001
1000
0000
0010
0000
0100
0000
,
0001
0000
0000
0000
0100
0010
0000
0000
1000
0000
0000
0000
0100
0000
0000
0000
,
0010
0001
1000
0000
0100
0000
0010
0000
,
0001
0000
0000
0000
0100
0010
0000
0000
1000
0000
0000
0000
0100
0000
0000
0000
,
0010
0100
1000
0001
,
1000
0010
0100
0001
,
0010
0000
0000
0000
0001
0010
0000
0000
0100
0000
0000
0000
1000
0000
0000
0000
,
0010
0000
0000
0000
0100
0001
0000
0000
1000
0000
0000
0000
1000
0000
0000
0000
,
0100
0000
0000
0000
0010
0001
0000
0000
1000
0000
0000
0000
1000
0000
0000
0000
,
0010
0000
0100
0000
0001
0010
0000
0000
0100
0000
0000
0000
0100
0000
0000
0000
,
0100
0000
0010
0000
0010
0100
0000
0000
0100
0000
0000
0000
1000
0000
0000
0000
,
0010
0100
0001
1000
,
0100
0000
0010
0000
0001
1000
0000
0000
0010
0000
0000
0000
0010
0000
0000
0000
;

//--------------- dance-single - ----------------
#NOTES:
     dance-single:
     :
     Medium:
     6:
     0,0,0,0,0:
0000
0000
0000
0000
,
0000
0000
0000
0000
,
0000
0000
0000
0100
,
1020
1030
0101
0001
,
0010
0000
0000
0000
0010
0100
0000
0000
0100
0000
1000
0000
0010
0000
0000
0100
,
0001
0001
0100
0000
0010
0000
0010
0000
,
1000
2000
0000
0000
3100
0000
0010
0000
,
0002
0000
0103
0010
,
1000
0001
0100
0000
1200
0000
2000
3300
,
0002
0013
0100
0010
,
0011
0001
1001
1000
,
0010
0100
0001
0000
0020
0000
0130
0000
,
1000
0000
0001
0000
0100
0001
2000
0000
,
3100
0010
0001
0000
0100
0010
1000
0000
,
0100
0010
0002
0000
1003
0000
1001
0000
,
0001
0000
0100
0000
0010
0100
0000
0000
0001
0000
0000
0000
0011
0000
0000
0000
,
0011
1010
0101
0101
,
1000
0000
1000
0001
1000
0000
0000
0000
0100
0000
0010
0000
0002
0000
0000
0000
,
1003
0010
1000
0100
,
0010
0000
0100
0000
2000
0002
3003
0000
0100
0000
0000
0000
0001
0000
0000
0000
,
1000
0000
0000
0000
0100
0000
0000
0000
1000
0000
0000
0000
0001
0000
0000
0010
,
0001
0100
0010
0000
0100
0010
1000
0000
,
0001
0000
0000
0000
0010
0100
0000
0000
0010
0000
0000
0000
0011
0000
0000
0000
,
0001
0101
1000
0010
,
0010
0100
0001
1000
0100
0000
0011
0000
,
0101
0000
0000
0000
1000
0001
0000
0000
1000
0000
0000
0000
1010
0000
0000
0000
,
0001
0000
0100
0000
0010
0100
0010
0000
1000
0000
0000
0000
1001
0000
0000
0000
,
0001
0000
0000
0000
0010
0001
0000
0000
1001
0000
0000
0000
0100
0000
0000
0000
,
1100
0001
1001
0001
,
1001
0000
0000
0000
1000
0001
0000
0000
0010
0000
0000
0000
1010
0000
0000
0000
,
1000
0010
0101
0001
,
0100
0010
0110
0000
1000
0001
1000
0000
,
1010
0100
1001
0001
,
0001
1000
0010
0000
1000
0000
0110
0000
,
0010
0000
0001
0000
0010
0001
0000
0000
1001
0000
0000
0000
1000
0000
0010
0000
,
1000
0000
0010
1000
0001
1000
0000
0000
0100
0000
0000
0000
0010
0000
0000
0000
,
0001
1000
0001
0000
0001
0000
1001
0000
,
0001
0000
0100
0010
0100
0010
0000
1000
0010
0000
0000
0000
0110
0000
0000
0000
,
0100
0001
1000
0000
0100
0000
0010
0000
,
0100
0000
1000
0001
1000
0001
0000
0000
0100
0000
0010
1000
0001
0000
0000
0000
,
0010
0000
0000
0000
0100
1000
0000
0000
0001
0000
0000
0000
1001
0000
0000
0000
,
1000
0000
0010
0000
0100
0001
0000
0000
1000
0000
0000
0000
0100
0000
0000
0000
,
1000
0000
0000
0000
0001
0100
0000
0000
0010
0000
0000
0000
1000
0000
0000
0000
,
0001
0000
1000
0000
0100
0010
0000
0000
0100
0000
0000
0000
1000
0000
0000
0000
,
0001
0000
0000
0000
0100
0010
0000
0000
1000
0000
0000
0000
0001
0000
0000
0000
,
1000
0100
0010
0000
0100
0000
1000
0000
,
0001
0000
0000
0000
0100
0010
0000
0000
1000
0000
0000
0000
1000
0000
0000
0000
,
0001
0000
0000
0000
0010
0100
0000
0000
0100
0000
0000
1000
0001
0000
0000
0000
,
0100
0000
0001
0000
1000
0001
0000
0010
0100
0000
0000
0000
1000
0000
0000
0000
,
1001
0000
0001
0000
1000
0010
0000
0000
0100
0000
0000
0000
0001
0000
0000
0000
,
0001
0000
0100
0000
0010
1000
0000
0000
0100
0000
0000
0000
0010
0000
0000
0000
,
0001
0000
0100
0000
0001
0100
0000
0010
1000
0000
0001
0000
0010
0000
0000
0000
,
0001
0000
0010
0000
0100
1000
0000
0000
1000
0000
0000
0000
0001
0000
0000
0000
,
1000
0000
0010
0100
0010
1000
0000
0000
0001
0000
0000
0000
0010
0000
0000
0000
;

//--------------- dance-single - ----------------
#NOTES:
     dance-single:
     :
     Hard:
     9:
     0,0,0,0,0:
0000
0000
0000
0000
,
0000
0000
0000
0000
,
0000
0000
0000
0000
0000
0000
0000
0000
0000
0000
0000
0000
0010
0000
0000
0010
,
0100
0000
1000
0000
0001
1000
0000
0000
0001
0000
1000
0000
1000
0000
0000
0000
,
0010
0000
0100
0001
1000
0001
0000
0000
0010
0000
0100
0000
1000
0000
0010
0100
,
0001
0000
0100
0001
0010
0100
0000
0000
1000
0000
0001
0000
0100
0000
0000
0000
,
0010
0000
1000
0000
0001
0010
0000
0000
0100
0000
1000
0001
0010
0000
0100
0010
,
0001
0000
1000
0000
0010
0100
0000
0000
0001
0000
0010
0000
0100
0000
0000
0000
,
1000
0000
0010
0000
0100
0001
0000
1000
0100
0000
0010
0000
0001
0000
0000
0000
,
1000
0000
0010
0000
0100
0001
0000
1000
0001
0000
0010
0000
0100
0000
1000
0001
,
0100
0000
0001
0000
0010
0000
0000
0000
0100
0000
1000
0000
0001
0000
0000
0100
,
0010
0000
0100
0000
0001
1000
0000
0100
0010
0000
0001
0000
0100
0000
0001
0010
,
0100
0000
0010
0000
0001
0100
0000
0010
1000
0000
0001
0000
0010
0000
0100
1000
,
0010
0000
0100
0000
0010
1000
0000
0001
0010
0000
0010
0000
0210
0000
0010
0300
,
1000
0000
0010
0000
0200
0001
0000
0300
1000
0000
0100
1000
0100
0000
1000
0000
,
0100
0000
0020
0000
0031
0010
0000
0100
1000
0000
0010
0000
0010
0000
0000
0100
,
0001
0000
1000
0100
1000
0002
0000
0000
1000
0000
0010
0000
0103
0000
0001
0010
,
0001
0000
0010
0100
0010
0002
0000
0103
0010
0000
0100
0001
1001
0000
0000
0000
,
0001
0000
1000
0100
0010
0100
0000
0010
0001
0000
0000
0000
1001
0000
1000
0000
,
0010
0000
0100
0001
0010
0100
0000
1000
0001
0000
0100
0010
1000
0000
0000
1000
,
0100
0000
0010
0001
1000
0010
0000
1000
0010
0000
0100
0001
0010
0000
0000
0100
,
1000
0000
0010
0100
0010
1000
0000
0000
0010
0000
1000
0000
0011
0000
0001
0000
,
0010
0000
0100
1000
0010
0200
0000
0310
1000
0000
0000
0100
0010
0000
0001
1000
,
0101
0000
0000
0001
1000
0001
0100
0001
1000
0000
0001
0010
0100
0000
0000
0000
,
2000
0000
3000
0001
1000
0010
1000
0000
0100
0000
0010
0001
2000
0000
0000
0000
,
0000
0000
3000
0001
1000
0010
0100
0000
0001
0000
0000
0000
1000
0000
0100
0000
,
0010
0000
0001
0100
0010
0100
0001
0000
0010
0000
0100
0000
1000
0000
0001
0000
,
0001
0000
1000
0010
0100
0001
0000
0010
0100
0000
1000
0000
0020
0000
0000
0000
,
0100
0030
0001
1000
0002
0000
0003
0010
0100
0000
1000
0001
1000
0000
0000
0010
,
1000
0000
0001
0010
0001
0200
0000
0310
1000
0000
0100
0010
0002
0000
0000
0000
,
1000
0003
1000
0001
0010
0002
0000
0103
0010
0000
0010
0000
1000
0000
0000
0010
,
1000
0000
1000
0001
0010
0200
0000
0310
0100
0000
1000
0000
0100
0000
0010
0001
,
0100
0000
0010
0001
1000
0002
0000
0000
0200
0000
0303
0010
1000
0000
1000
0100
,
0020
0000
0030
0001
1000
0010
0000
0100
0010
0000
1000
0001
1000
0000
0100
0010
,
0001
0000
0100
0001
1000
0100
0000
0010
0001
0000
0100
0010
0100
0000
0001
1000
,
0100
1000
0010
1000
0001
0100
0000
0010
0100
0000
0001
0000
0010
0000
0100
0000
,
1000
0000
0010
1000
0100
0010
0000
0001
0100
0000
0010
1000
0100
0000
0010
0001
,
0100
0000
0010
0100
0010
0100
0000
0001
0010
0000
0001
0000
1000
0000
0000
0010
,
1000
0000
0001
0010
0100
1000
0000
0000
0001
0000
0001
0000
0100
0000
0100
0010
,
1000
0000
1000
0100
1000
0010
0000
0100
0001
0000
0010
0100
1000
0000
0001
0000
,
0010
0000
0100
1000
0100
0010
0000
0001
1000
0000
0000
0001
0100
0000
0001
0010
,
0100
0000
1000
0010
1000
0001
0000
0000
0110
0000
0100
0000
0010
0000
1000
0000
,
1001
0000
0001
0100
0010
0100
0000
0001
1000
0000
0100
1000
0100
0000
0010
0001
,
1000
0000
0010
0100
0001
0100
0000
0001
0010
0000
0001
0000
0010
0000
0100
1000
,
0001
0000
0100
0010
0100
0002
0000
0003
1001
0000
0001
0100
0010
0000
1000
0100
,
1000
0000
0001
0100
0010
1000
0000
0100
0010
0000
0001
0000
0100
0000
0001
0000
,
1000
0000
0100
0010
0001
0100
0000
0010
1000
0000
0000
0000
0200
0000
0320
0000
,
2030
0000
3001
0100
0000
0010
0000
0010
0100
0000
0100
0001
1000
0000
0000
0100
,
1000
0000
0001
0010
0001
2000
0000
3010
0200
0000
0301
0010
0200
0000
1000
0300
,
0001
0000
0010
0100
1000
0010
0000
0100
0001
0000
0001
0010
0001
0000
0100
0010
,
1000
0000
0100
0010
0001
0100
0000
0100
0001
0000
0100
0010
1000
0000
0000
0001
,
0010
0000
0001
0100
0010
1000
0000
0100
0010
0000
0001
0100
0010
0000
0000
1000
,
0100
0000
0100
0001
0010
0100
0000
1000
0010
0000
0000
0100
0001
0000
0000
0010
,
0001
0000
0100
0001
1000
0010
0000
0100
0001
0000
0010
0100
1000
0000
0000
0000
;

//--------------- dance-single - ----------------
#NOTES:
     dance-single:
     :
     Challenge:
     10:
     0,0,0,0,0:
0000
0000
0000
0000
,
0000
0000
0000
0000
,
0000
0000
0000
0000
0000
0000
0000
0000
0000
0000
0000
0000
0010
0000
1000
0001
,
0010
0000
0010
0100
1000
0001
0100
0010
1000
0000
0100
0010
0001
0000
1000
0010
,
0100
0000
0001
0010
0100
1000
0000
0010
0001
0000
1000
0100
0001
0000
0010
0001
,
0100
0000
0010
1000
0001
0010
0001
0100
0001
0000
1000
0000
0001
0000
0100
0010
,
1000
0000
0100
0010
0001
0100
0001
1000
0100
0000
0010
0001
0110
0000
1000
0010
,
1000
0000
0010
0100
0010
1000
0000
0001
0010
0000
0100
0000
1000
0010
1000
0010
,
0100
0000
0001
0010
0100
1000
0000
0001
0100
0000
0010
1000
0001
0000
0010
0100
,
0010
0000
0001
0100
0010
0100
0001
0010
0001
0000
0100
0010
0100
0000
0001
0010
,
0100
0000
1000
0001
0100
0001
0100
0001
0010
0000
0010
0000
1000
0000
0100
0010
,
0100
0000
1000
0010
0100
0001
0000
0010
0100
0000
0010
0001
1000
0000
0010
0100
,
0001
0000
0010
0001
0010
0100
0000
0100
1000
0000
1000
0001
0100
0000
0100
0001
,
1000
0000
0100
0010
1000
0010
0000
0010
0100
0000
0100
0000
0001
0000
1000
0001
,
0100
0000
0100
0010
1000
0001
0010
0100
1000
0000
0001
1000
0010
0000
0100
0010
,
1000
0000
0000
0000
0100
0000
0010
0000
0100
0010
0001
0000
0000
0000
0100
0000
0001
0000
0000
0000
1000
0000
0100
0000
1000
0000
0000
0000
0001
0000
0100
0000
,
0001
0000
0010
0001
1000
0010
1000
0100
1000
0000
0001
0100
0001
0000
0100
0001
,
0100
0010
1000
0100
1000
0010
0000
0100
0010
0000
0001
1000
0100
0000
0010
0001
,
0010
0000
0100
1000
0010
1000
0000
0001
0100
0000
0010
1000
0001
0000
0010
0001
,
1000
0010
1000
0001
0010
0001
0100
0010
0100
0001
0100
0010
1000
0000
0100
1000
,
0001
0000
0100
0010
1000
0010
0000
0100
0001
0000
0010
0100
1000
0000
0010
0100
,
0001
0000
1000
0100
1000
0010
0100
0001
1000
0000
0100
0010
0001
0000
0100
0010
,
1000
0010
0100
0010
1000
0100
0000
1000
0100
0000
0010
0001
0100
0000
0010
1000
,
0001
0010
0100
1000
0001
0010
0100
1000
0010
0100
0001
1000
0100
0000
0000
0010
,
0001
0000
1000
0010
0100
0001
0010
0100
1000
0000
0010
0100
0010
0000
1000
0001
,
0010
0000
0100
1000
0001
0010
0100
1000
0100
0000
1000
0010
0100
0000
0001
0010
,
0100
0000
0010
0001
0100
0001
1000
0100
1000
0000
0001
0100
0001
0000
1000
0010
,
0100
0000
0001
0100
0010
1000
0000
0100
0010
0000
0001
0100
0001
0000
1000
0010
,
1000
0000
0100
0010
0001
0100
0000
0001
1000
0000
0010
1000
0001
0000
0000
0100
,
0010
0000
1000
0010
0100
0001
0000
0010
0001
0100
0010
1000
0100
0000
1000
0010
,
0200
0000
0310
1000
0001
0010
0000
0001
1000
0000
0100
1000
0001
0000
0010
0100
,
1000
0000
0001
0100
0010
1000
0010
0100
0001
0000
1000
0100
0010
0000
0001
0100
,
0010
0000
1000
0001
1000
0100
0000
0010
0001
0100
0010
0100
0001
0000
0010
0100
,
0010
0000
0001
1000
0010
0100
0000
0001
1000
0000
0100
1000
0001
0000
0100
0010
,
1000
0000
0001
0010
0100
1000
0001
1000
0010
0100
0001
1000
0100
0000
0010
0001
,
1000
0001
1000
0010
0100
0001
0000
0010
0100
0000
0010
0001
1000
0000
0100
0010
,
0001
0000
1000
0001
0100
0010
0000
0100
0001
0010
0100
1000
0010
0000
0100
0001
,
0010
0000
0001
0010
0100
1000
0001
0010
0100
0000
1000
0001
1000
0000
0010
0100
,
0001
0000
0000
0000
0100
0000
0010
0000
1000
0001
0010
0000
0000
0000
0100
0000
1000
0000
0001
0000
0100
0000
0001
0000
1000
0000
0000
0000
0100
0000
0010
0000
,
0001
0000
0000
0000
1000
0000
0001
0000
0100
0010
0100
0000
0000
0000
0001
0000
1000
0000
0000
0000
0100
0000
0010
0000
0001
0000
0000
0000
1000
0000
0100
0000
,
0010
0001
1000
0010
0100
0001
0000
1000
0100
1000
0001
1000
0100
0000
1000
0001
,
0100
0000
0001
0010
0100
1000
0010
1000
0100
0000
1000
0001
0100
0000
0010
1000
,
0001
0010
0100
1000
0010
0100
0000
0001
1000
0100
0010
0001
0100
0000
0010
1000
,
0001
0010
0100
1000
0010
0100
0010
1000
0100
0010
0100
1000
0001
0000
0100
0010
,
1000
0010
0100
0001
1000
0100
0000
1000
0001
0010
0001
1000
0010
0000
0100
0001
,
0010
0000
0100
1000
0001
0100
0010
1000
0001
1000
0100
0010
0001
0000
1000
0010
,
1000
0000
0100
0010
0001
0100
0010
1000
0100
0000
0010
0001
1000
0000
0010
0100
,
0001
1000
0100
0010
0100
1000
0001
0100
0010
0100
0001
1000
0001
0000
0010
0100
,
0010
0001
1000
0001
0100
0010
1000
0100
0010
0001
0010
0100
1000
0000
0010
1000
,
0001
0000
0010
0000
0100
0000
1000
0000
0001
1000
0001
0000
0100
0000
0010
0000
0100
0000
0001
0000
0010
0000
0100
0000
1000
0000
0000
0000
0010
0000
1000
0000
,
0100
0010
0001
1000
0010
0100
0001
1000
0010
0100
0001
1000
0100
0000
1000
0010
,
0001
0010
0001
0010
0100
0001
0010
0100
1000
0000
0010
0100
0001
0000
0010
0001
,
0100
0001
0010
0100
1000
0010
0000
1000
0100
1000
0010
1000
0001
0000
0010
0001
,
0100
0000
0010
1000
0100
1000
0010
0100
0001
0010
0100
1000
0001
0000
0000
0000
;
