#TITLE:Can Be Real;
#SUBTITLE:(Soul House Extended);
#ARTIST:Vision F;
#TITLETRANSLIT:;
#SUBTITLETRANSLIT:;
#ARTISTTRANSLIT:;
#GENRE:;
#CREDIT:;
#MUSIC:Can Be Real (Soul House Extended).mp3;
#BANNER:Can Be Real (Soul House Extended).png;
#BACKGROUND:Can Be Real (Soul House Extended)-bg.png;
#CDTITLE:;
#SAMPLESTART:81.738;
#SAMPLELENGTH:13.864;
#SELECTABLE:YES;
#OFFSET:-0.147;
#BPMS:0.000=132.000;
#STOPS:;
#BGCHANGES:;
#FGCHANGES:;

//--------------- dance-single - ----------------
#NOTES:
     dance-single:
     :
     Beginner:
     5:
     0,0,0,0,0:
0000
0000
0000
0000
,
0001
0000
0000
0000
0000
0100
0001
1000
,
0100
0000
0010
0001
1000
0000
0010
0100
,
0001
1000
0100
0010
0000
0000
0001
0100
,
0001
1000
0010
0000
0100
0000
0010
0000
,
1000
0001
0010
0100
1000
0000
0001
0100
,
0010
0100
0010
1000
0100
0000
0010
0001
,
0100
0000
0010
1000
0001
0000
0010
0100
,
0000
2000
0000
0000
0000
3001
0000
0100
,
0010
0000
1000
0000
0011
0000
0001
0100
,
0001
0100
0001
1000
0100
1000
0010
1000
,
1001
0000
0002
0000
0000
0000
2003
3000
,
0002
0000
0103
0010
1000
0000
1000
1000
,
0002
0013
0000
0201
,
0301
0000
0010
0000
0000
0100
1000
0000
,
0010
1000
0002
0000
0013
0000
0100
0010
,
0002
0000
1003
0100
1000
0010
1000
0000
,
0200
0000
1300
0000
0000
0000
0001
1000
,
0000
0020
0000
0030
,
0100
0001
0020
0000
0000
0000
0130
0000
,
1000
0001
0200
0000
0320
0000
1030
0000
,
1000
0010
1000
0000
1000
0000
0010
0100
,
0001
1000
0001
0000
0100
0000
0010
1000
,
0200
0000
0310
0000
0000
0000
0001
1000
,
0000
0000
0000
1001
,
0001
0000
0000
0000
,
1001
0001
0000
1000
,
1200
0000
0310
0000
,
0001
0000
0000
0000
,
1000
0000
0000
0001
,
0001
0001
0010
0100
,
1000
0000
1000
0000
1000
0000
0010
0100
,
0001
0000
0010
0000
0000
1000
0001
0000
,
0010
0000
0100
0000
0000
1000
0010
0100
,
0000
0001
0000
1000
,
0000
1000
0000
0100
,
0100
0000
0010
0001
0000
0000
1000
0000
,
0001
0000
0000
0000
,
0000
0001
0000
0100
,
0000
0000
0010
1000
0000
0000
0000
0001
,
0100
0000
0001
1000
0010
0000
0100
0000
,
0010
0000
0000
0000
,
0001
0000
0000
0010
,
0100
0000
1000
0000
,
0100
0000
0000
0000
,
1000
0000
0000
0000
,
0200
0000
0300
0000
,
0002
0000
0000
0003
,
1000
0000
0000
0000
,
0001
0000
0000
0000
,
1000
0000
0000
0000
,
0002
0000
0000
0000
,
0000
0000
0000
0003
,
0100
0000
0000
0000
,
0010
0000
0000
0000
,
0100
0010
0000
1000
,
0000
0000
0000
0100
,
0000
0000
0000
0010
,
0000
0000
0000
0100
,
0000
0000
0000
0010
,
0000
0000
0000
1000
,
0001
0000
0000
0000
;

//--------------- dance-single - ----------------
#NOTES:
     dance-single:
     :
     Easy:
     7:
     0,0,0,0,0:
0000
0000
0000
0000
,
0010
1000
0000
0000
0001
0010
0001
0100
,
0010
0000
0000
0000
1000
0000
0100
0000
0010
0000
0000
0001
0010
0000
0100
0000
,
0010
0001
1000
0010
1000
0000
0001
0010
,
0001
0100
0010
1000
0100
0000
1000
0100
,
1000
0001
0100
0010
1010
0000
0001
0010
,
0100
0010
0001
0100
0010
0000
1000
0001
,
0010
0000
0100
0000
1000
0000
0010
0000
0100
0000
0000
0001
0010
0000
0100
0000
,
0000
1000
0000
0001
0000
0010
0000
0100
,
1000
0000
0001
0000
0100
0001
0100
0001
,
0010
0100
1000
0010
1000
0001
1000
0010
,
0100
0000
0001
0000
0010
0000
0100
0000
1000
0000
0000
0001
0010
0000
0001
0000
,
0100
0010
1000
0001
0200
0000
0310
1000
,
0001
1000
0001
0010
0100
1000
0001
1000
,
0001
1000
0010
0000
1000
0001
0010
0001
,
0100
0001
0100
0000
0001
1000
0001
0010
,
0100
1000
0100
1000
0001
0100
0010
0100
,
0001
0000
1001
0000
1001
0000
1000
0100
,
0010
0000
0101
0000
0001
0000
1000
0010
,
1000
0010
0100
0001
1000
0000
0001
0000
,
1000
0100
1000
0000
0001
0000
0100
0010
,
1000
0001
0100
0000
0010
0000
1000
0100
,
1000
0001
1000
0001
0100
0000
0010
1000
,
0100
0000
0010
0001
1000
0000
0010
1000
,
0000
0000
0000
0100
,
0010
0000
0000
0000
,
0001
0100
0010
0000
1000
0000
0100
0000
,
1000
0010
1000
0000
,
0110
0000
0000
0000
,
0001
0000
1000
0100
1000
0000
0100
1000
,
0001
1000
0001
0100
0001
0100
0001
0100
,
0010
0100
0001
1000
0001
1000
0001
0010
,
0001
0000
1000
0000
0010
0000
1000
0000
0001
1000
0001
0000
1000
0000
0001
0000
,
1000
0001
1000
0000
0010
0100
0001
0100
,
0001
1000
0000
0010
,
1000
0010
1000
0000
0000
0000
0001
1000
,
0001
0000
0010
0100
1000
0001
0010
0000
,
0002
0000
0103
0001
1000
0000
0000
0100
,
0010
0000
0011
0000
1000
0000
0100
0010
,
0001
0010
0100
0010
0001
0000
1000
0010
,
0100
0010
1000
0001
1001
0000
1000
0100
,
0010
0000
0001
0000
0101
0000
0000
1000
,
0100
0000
1000
0000
1000
0001
0100
0010
,
0010
1000
0001
0000
0011
0000
0000
0000
,
0001
0000
0000
0000
,
1000
0000
0000
1001
,
0000
1000
0100
0010
,
0000
0001
0100
0010
,
1000
0000
0000
0000
,
0100
0000
0000
0010
,
0001
1001
0000
1000
,
0000
0010
0000
0100
,
0000
0001
0000
0010
,
0100
0010
0000
0010
,
0000
0100
1000
0000
0000
0000
0001
0000
,
0010
0100
0010
0000
0000
0000
0001
0000
,
0000
0100
0020
0000
0000
0000
1030
0000
,
0000
2000
0000
3200
,
0000
0000
0000
0310
,
0010
0000
0000
0000
,
0110
0000
0000
2000
,
3001
0000
0000
0000
;

//--------------- dance-single - ----------------
#NOTES:
     dance-single:
     :
     Medium:
     8:
     0,0,0,0,0:
0000
0000
0000
0000
,
0010
0000
0100
0000
0010
0000
0000
0000
1000
0000
0010
0100
0010
0000
0100
0000
,
0001
0000
1000
0000
0001
0000
0010
0000
0001
0000
0000
0010
0100
0000
1000
0000
,
0100
1000
0001
1000
0001
0000
0100
0010
,
0100
0010
1000
0010
0100
0001
1000
0100
,
0010
0000
0001
0000
0100
0000
0010
0000
0100
0000
0001
1000
0001
0000
0010
0000
,
0100
0000
1000
0000
0010
0000
0100
0000
0001
0000
1000
0100
1000
0000
0100
0000
,
0010
0000
0001
0000
1000
0000
0001
0000
0100
0000
0000
0010
1000
0000
0001
0000
,
0000
0010
0000
0100
0000
1000
0100
1000
,
0001
0100
0010
1000
0001
1000
0100
0010
,
0001
1000
0001
0100
0010
0100
0010
1000
,
0001
0000
1000
0000
0001
0000
0010
0000
0100
0000
0010
0100
0010
0000
0001
0010
,
0001
1000
0100
1000
0010
0000
0100
0001
,
0100
0001
1000
0010
0100
0001
1000
0100
,
1000
0100
0010
0001
1000
0010
0100
0001
,
0010
0000
0100
0000
1000
0000
0000
0001
1000
0000
0100
0000
1000
0000
0001
0000
,
1001
0001
0010
0100
0010
0001
1000
0010
,
0100
0001
1000
0100
0010
0100
0010
0001
,
1000
0010
0100
0001
0100
0010
1000
0001
,
0010
0100
0010
0001
1000
0010
0100
0010
,
1000
0001
0010
0100
1000
0100
0010
0001
,
1000
0010
1000
0100
0010
0001
1000
0001
,
0100
0001
1000
0100
1000
0001
0100
0010
,
1000
0001
0100
0010
1000
0001
0010
0100
,
0010
0000
0001
0000
0010
0000
0100
0000
1000
0001
1000
0000
0010
0000
0100
0000
,
0001
0000
0010
0000
0100
0000
1000
0001
,
0100
0000
0010
1000
0010
0000
0100
0000
0001
0000
0000
0000
0010
0000
0100
0000
,
1000
0010
1000
0000
0001
0000
0101
0000
,
0000
0100
0020
0000
0000
0000
0000
0000
,
0130
0000
0000
0000
0010
0000
1000
0000
0100
0000
0010
0000
0001
0000
1000
0100
,
1000
0010
0100
0001
0010
0100
1000
0001
,
1000
0000
0010
0000
1000
0001
0010
0000
0001
0000
1000
0000
0100
0000
0010
0000
,
0001
0000
0011
0000
0001
0000
1000
0000
0100
0010
0100
0010
0001
0000
1000
0000
,
0010
0000
0100
0000
0101
0000
0000
0000
0001
0000
0010
0000
0100
0000
1000
0001
,
0100
0010
1000
0001
0000
0000
1000
0100
,
0010
0001
2000
3020
0000
0230
0302
2003
,
3200
2300
3001
0100
0010
1000
1002
0000
,
0003
0020
0130
1000
0200
0000
0310
0022
,
0033
0001
0020
0000
0130
1000
1001
0001
,
0010
0000
0100
0000
2000
0000
3010
0000
0200
0000
0000
0000
0301
0000
1000
0100
,
0010
0002
0103
0001
1000
0000
0100
0010
,
0001
2000
3020
0230
0302
0000
1003
0100
,
0010
0001
1000
0000
0020
0230
0302
1003
,
0100
0010
0100
2000
3100
0000
0020
0031
,
0000
1000
0010
0100
0001
0000
1000
0100
,
1000
1001
0000
0100
,
0110
0010
1000
0000
0010
0000
0100
0001
,
0010
0000
0100
1000
0010
0000
1000
0000
,
0001
0010
0100
1000
0000
0010
0100
0000
,
0001
1000
0000
0100
,
0010
0000
0001
1000
0000
0010
0100
0000
,
0000
0001
0000
1000
,
0100
0000
0010
0100
0000
0000
1000
0001
,
1000
0100
0010
0001
,
0001
0100
0010
0000
1000
0000
0100
0000
,
0010
0001
2000
0000
0000
0000
3010
0200
,
0000
0301
0010
0000
0000
0000
0100
1000
,
0001
0000
0200
0000
0000
0000
0310
1000
,
0001
0000
0010
0100
1000
0010
0100
0001
,
1000
1000
0200
0000
0000
0000
0320
0000
,
0000
0000
0031
0000
0000
0000
0100
0010
,
1000
0000
0000
0000
;

//--------------- dance-single - ----------------
#NOTES:
     dance-single:
     :
     Hard:
     10:
     0,0,0,0,0:
0000
0000
0000
0000
,
1000
0000
0010
0000
1000
0000
0001
0000
0100
0000
0010
1000
0100
0000
0010
0000
,
0001
0000
0100
0000
0010
0000
1000
0010
1000
0000
0001
0010
0100
0000
1000
0000
,
0010
0000
0100
0000
0001
0000
1000
0000
0100
0000
1000
0100
1000
0000
0001
0000
,
0100
0000
0001
0000
0010
0000
0100
0000
1000
0000
0100
1000
0001
0000
0100
0000
,
0010
0000
1000
0000
0010
0000
0100
0000
0001
0000
0010
0001
1000
0000
0100
0010
,
0001
0000
0100
0000
0010
0000
1000
0000
0010
0000
1000
0001
0010
0000
0100
0000
,
1000
0000
0001
0000
0100
0000
0010
0000
1000
0000
0001
0010
0001
0000
1000
0100
,
0000
0000
0010
0000
0000
0000
0001
0000
0000
0000
1000
0000
0001
0100
0010
0000
,
0100
0000
0001
0000
0010
0000
0100
0000
1000
0000
0001
0000
0100
0000
0010
1000
,
0100
0000
0010
0000
0100
0000
1000
0000
0001
0000
0100
0010
1000
0000
0100
0000
,
1000
0000
0010
0000
0100
0000
0001
0000
1000
0000
0100
0010
0001
0000
1000
0001
,
0100
0000
0010
0000
1000
0000
0001
0000
0010
0000
0001
0100
0010
0000
0100
0000
,
0001
0000
1000
0000
0100
0000
0010
0000
0110
0100
0010
0001
0010
0000
0100
0000
,
1000
0000
0001
1000
0010
0000
1000
0001
0010
0000
0001
0000
1000
0000
0010
0000
,
1000
0000
0001
1000
0001
0000
0100
0001
0100
0000
0001
0000
1000
0000
0100
0010
,
0100
0000
1000
0000
0001
0000
0100
0000
0010
0000
1000
0010
0100
0000
0001
0000
,
1000
0000
0100
0000
0010
0000
0001
0000
0010
0000
0001
0010
0200
0000
1300
0000
,
0001
0000
0100
0000
0001
0000
1000
0000
0100
0000
0010
0000
0001
0100
0001
0000
,
1000
0000
0100
0010
0001
0000
0001
1000
0001
0000
0100
0010
2000
0000
3000
0000
,
0200
0320
0230
0320
0032
0203
0310
0010
,
0100
0000
0100
0001
1000
0000
0001
0000
0010
0000
0100
0000
1000
0000
0010
0000
,
1000
0000
0001
0000
0010
0000
0100
0000
1000
0000
0001
0100
0010
0000
1000
0000
,
0100
0000
0010
0000
0001
0000
1000
0000
0020
0000
0030
0000
0010
0000
0100
0001
,
0010
0000
0100
0000
0010
0000
0001
0000
0100
0001
0010
0100
1000
0000
0010
0000
,
0100
0000
0200
0000
0300
0000
0002
0000
0003
0000
1000
0100
0020
0000
0030
0000
,
0001
0000
0100
0001
1000
0000
0020
0000
0130
0000
0001
1000
0100
0000
1000
0000
,
0001
0000
1000
0001
0100
0000
0001
0000
1000
0000
0100
0000
0010
0000
0001
0020
,
0000
0000
0031
0000
0200
0000
0000
0000
0320
0000
1030
0010
0100
0000
0101
0000
,
0001
0000
0010
0000
0001
0000
1000
0010
1000
0001
1000
0100
1000
0000
0010
0100
,
0010
0000
1000
0001
1000
0000
0010
0000
0100
0000
0001
0000
0100
0010
1000
0010
,
1000
0010
0100
0000
0001
1000
0001
0000
0010
0100
1000
0100
1000
0000
0001
0000
,
0100
0000
0010
0000
1000
0000
0100
0010
0001
0100
0010
0100
0001
0000
1000
0000
,
1001
0000
1001
0001
0010
0100
1000
0001
1001
0000
1000
0100
0010
0001
1000
0001
,
0101
0000
0001
1000
0010
0000
0110
0000
1010
0000
0001
1000
1001
0000
1000
0000
,
0100
0000
0110
0000
0010
0100
1000
0000
0010
0000
1010
1000
0001
0000
0101
0000
,
0011
0000
0010
0000
0110
0000
1000
0000
1100
0100
0010
0000
0011
0000
0001
0010
,
0100
0000
1100
0000
1000
0000
0001
0100
0010
0000
1010
1000
0010
0000
0100
0001
,
1000
0000
1100
0000
0010
0000
0011
0000
0011
0000
0011
0000
0001
1000
0100
0010
,
0001
0000
0101
0000
0100
0000
0010
0000
1000
0000
0100
0010
0001
0000
0001
1000
,
0010
0000
0010
0000
0100
0000
0100
0001
1000
0000
1000
0100
0010
0000
0001
1000
,
0001
1000
0100
0010
0001
0010
1001
1000
,
1001
0001
0100
0010
0100
0001
1000
0100
,
0010
0000
0100
0000
1000
0000
0001
0000
0200
0000
0300
0001
0010
0000
0100
0000
,
0000
1000
0001
0100
0010
1000
1001
0001
,
0010
0000
0100
0000
1000
0000
0001
0000
0100
0000
0110
0000
1000
0000
1000
0001
,
1001
0020
0130
1000
0010
0100
0002
1003
,
0100
0000
1000
0000
0010
0000
0110
0000
1000
0000
0001
1000
0200
0000
0310
0001
,
1000
1001
1000
0020
0000
0030
1001
0001
,
1000
0010
1001
0001
1001
1001
0010
0110
,
0001
0000
0101
0000
1100
0000
1010
0000
0000
0000
0011
0001
1000
0000
1000
0000
,
0000
0000
0101
0000
0011
0000
0000
0000
0000
0000
1100
0000
1001
0000
1000
0001
,
0100
0000
0100
0000
0010
0000
1000
0000
0011
0000
0011
0000
1100
0000
0001
0010
,
0100
0000
0110
0000
0010
0000
0001
0000
1010
0000
0010
0100
0001
0000
0101
0000
,
1001
0000
1001
0000
0011
0000
1100
0000
1010
0000
1001
0001
0100
0000
0101
0000
,
0001
0000
1000
0001
0101
0000
0100
0000
0101
0000
0001
0000
0010
0000
0100
1000
,
0001
0100
0010
0110
0011
0101
0001
0011
,
0101
0101
1100
0000
0001
0101
1000
1000
,
0110
0000
0010
0000
1001
0000
0001
0000
1000
0000
0001
0010
0001
0000
0100
0000
,
0010
1000
0100
0020
0000
0030
0100
1000
,
0001
0000
0100
0010
0100
0000
0010
1000
0000
0001
0000
0000
1000
0000
0001
0000
,
1000
0000
0000
0000
;

//--------------- dance-single - ----------------
#NOTES:
     dance-single:
     :
     Challenge:
     11:
     0,0,0,0,0:
0000
0000
0000
0000
,
0010
0000
1000
0000
0010
0000
1000
0010
0100
0010
0100
0001
0100
0000
0010
0000
,
1000
0001
1000
0000
0100
0000
0010
0100
0010
0001
0010
0001
1000
0000
0001
0000
,
0100
0010
1000
0000
0001
0000
0010
0100
1000
0100
1000
0001
0010
0000
0001
0000
,
0100
0010
1000
0000
0100
0000
1000
0001
0010
0001
0100
0010
1000
0001
1000
0100
,
0010
0001
1000
0000
0001
0000
1000
0010
1000
0000
0001
0010
0100
0000
1000
0001
,
1000
0010
0100
0000
0010
0000
1000
0100
0010
0001
0010
0001
1000
0000
0100
0000
,
0010
0001
1000
0000
0010
0000
1000
0001
0010
0100
1000
0001
0100
0000
0010
1000
,
0000
0000
0200
0000
0000
0000
0310
0000
0000
0000
0001
0000
1000
0010
0100
0000
,
0001
0000
0100
0000
0010
0000
0100
0010
1000
0001
0100
0010
1000
0000
0001
0010
,
0100
1000
0001
0000
0100
0000
0001
0100
0010
1000
0001
1000
0100
0000
0010
0000
,
0001
0000
0101
0000
1100
0000
1000
0000
0010
0000
0100
0001
0010
0000
0100
1000
,
0001
0000
1000
0000
0010
0000
1100
0000
0001
0010
0001
1000
0100
0000
0010
0000
,
0001
0010
0100
1000
0001
0000
0100
0010
1000
0100
1000
0001
0100
0000
0010
0000
,
1000
0100
0010
0001
1000
0000
0001
0010
0001
1000
0010
0100
0010
1000
0001
0000
,
0010
0100
0010
0001
0010
0000
0100
1000
0001
0000
0100
0001
1000
0000
0100
0010
,
0001
0100
0010
1000
0100
0000
0010
0001
1000
0010
0100
0010
1000
0100
0010
0001
,
1000
0000
0001
0100
0010
0100
0010
0100
0002
0000
0003
1000
0020
0000
2030
0000
,
3200
0000
0310
0001
1000
0001
0100
0010
0100
0001
1000
0100
1000
0010
0100
0000
,
0001
1000
0001
1000
0100
0010
0001
0010
0001
1000
0010
1000
0100
0000
0010
0000
,
0001
0100
0001
0100
0010
0000
2000
0000
3001
0000
0100
0000
0010
1000
0001
0000
,
0010
0000
0001
1000
0001
0010
0100
1000
0001
0000
0100
0010
1000
0000
0001
0000
,
0010
0000
0100
1000
0100
0010
0001
1000
0010
0000
1000
0001
0010
0000
0100
0000
,
0010
0001
1000
0000
0001
0010
0100
1000
0001
0000
0100
0010
1000
0000
0001
0010
,
0100
0000
1000
0000
0001
1000
0010
0100
0010
1000
0001
1000
0001
0000
0100
0000
,
0010
0000
1000
0001
0010
0001
0010
0100
1000
0001
0100
0001
1000
0000
0100
0000
,
0100
0000
0010
0001
0100
0000
0010
1000
0100
0010
0100
1000
0001
0100
0020
0000
,
0030
1000
0001
0100
0M10
0010
0100
1000
0001
1000
0001
0100
0002
0000
0013
0100
,
1000
0000
0100
0000
0M10
0000
0010
0000
1000
0001
0010
0100
2000
0000
3000
0000
,
2002
0000
3003
0000
0001
1000
0100
1000
0001
0100
0001
1000
0001
1000
0100
0010
,
0001
1000
0100
1000
0001
0000
0100
0000
0001
1000
0010
1000
0001
0010
0001
0100
,
0M10
0010
0100
0000
1000
0100
1000
0001
0100
0001
1000
0010
1000
0000
0100
0000
,
0010
0001
1000
0001
0100
0000
0001
0100
0010
1000
0001
1000
0100
0000
0010
0000
,
0001
0000
0100
0001
0100
0010
1000
0001
0010
0100
1000
0001
0100
0001
1000
0001
,
1001
0000
0001
1000
0100
0000
0010
0000
0001
0100
0010
0100
0001
0000
0010
0100
,
1000
0010
1000
0000
0001
0010
0100
1000
0001
0100
0001
0010
0100
0000
1000
0000
,
0100
1000
0001
0100
0001
0000
0010
0100
0010
0001
0100
0010
1000
0100
0010
0001
,
0010
0000
0100
0000
0010
0000
0001
1000
0010
0000
0010
0100
0001
0000
0001
1000
,
0100
0000
0010
0000
0010
0000
0001
1000
0010
0000
0010
0100
0001
1000
0100
0010
,
0100
1000
0100
0000
0010
0000
0001
0000
1000
0000
0010
0100
0001
0000
0010
0100
,
1000
0000
0001
0000
0001
0000
0100
0001
0100
0010
1000
0000
0010
0000
0100
0010
,
1000
0001
0010
0000
0100
0000
0001
0000
1001
0000
1000
0010
1010
0000
0010
0000
,
0110
0000
0110
0000
0200
0000
0301
0000
1001
0000
1000
0000
1100
0100
0010
0001
,
0100
0000
0101
0000
0110
0000
1100
0000
0110
0000
0110
0001
0020
0000
0130
1000
,
0010
0000
0101
0000
0010
0000
1010
0000
1000
0000
1000
0000
0100
0010
0001
0100
,
0101
0000
0110
0000
2000
0000
3000
0100
1000
0000
0010
0100
0010
0000
1000
0001
,
0100
0000
0100
0010
1000
0000
0001
0000
0010
0000
0010
0100
1000
0001
0100
0010
,
0100
0000
0001
0010
0001
0100
0001
0000
1000
0000
1000
0001
0010
0000
0100
1000
,
0001
0100
0001
0010
0001
0100
0110
0010
,
0110
0000
0100
0000
0101
0000
0001
1000
0100
0000
0100
0010
0001
0000
1000
0010
,
0100
0000
0001
1000
0010
0000
0100
0001
1000
0000
1000
0100
0010
0000
0001
0000
,
1001
0000
0001
0000
0010
0001
0100
0000
0010
0000
1000
0000
0110
0000
0001
1000
,
0010
0000
1010
0000
0001
0000
0011
0000
0110
0000
1000
0000
0100
0000
1000
0100
,
0110
0000
0010
0001
1000
0000
0100
0010
0001
0000
0100
0010
1000
0000
0001
1000
,
0001
0000
0010
0100
0010
0000
0011
0000
0100
0000
0001
1000
0001
1000
0100
0000
,
0110
0000
0010
0001
0010
0000
1000
0100
0010
0000
0100
1000
0001
0000
0100
0010
,
1000
0000
0100
0010
0001
0000
1010
0000
0110
0000
0001
1000
0100
0000
0010
0100
,
0010
0001
0100
0010
0100
0000
0001
1000
0100
0000
1000
0010
0100
0000
0001
0010
,
0100
1000
0010
0000
0110
0000
0100
0001
1000
0000
0100
1000
0010
0000
1000
0000
,
0101
0000
0001
0010
0100
0010
0001
0000
0100
0000
0010
1000
0010
0000
1000
0001
,
0010
0000
0100
1000
0010
0000
0010
1000
0000
0100
0010
1000
0100
1000
0001
0000
,
0101
0000
0000
0000
;
