#TITLE:Blind Hold;
#SUBTITLE:;
#ARTIST:La'Mule;
#TITLETRANSLIT:;
#SUBTITLETRANSLIT:;
#ARTISTTRANSLIT:;
#GENRE:;
#CREDIT:;
#MUSIC:Blind Hold.mp3;
#BANNER:Blind Hold.png;
#BACKGROUND:Blind Hold-bg.png;
#CDTITLE:;
#SAMPLESTART:4.120;
#SAMPLELENGTH:14.981;
#SELECTABLE:YES;
#OFFSET:-0.330;
#BPMS:0.000=189.963
,12.000=190.963
,25.000=188.663
,36.000=190.663
,43.000=184.663
,44.000=190.663
,48.000=191.063
,60.000=187.663
,72.000=192.663
,76.000=191.663
,88.000=190.163
,124.000=188.663
,132.000=188.163
,137.000=189.163
,140.000=190.663
,164.000=189.663
,172.000=190.163
,188.000=190.663
,196.000=189.663
,204.000=188.663
,208.000=190.163
,249.000=189.163
,264.000=190.663
,280.000=190.163
,296.000=188.163
,307.000=186.163
,308.000=191.163
;
#STOPS:;
#BGCHANGES:;
#FGCHANGES:;

//--------------- dance-single - ----------------
#NOTES:
     dance-single:
     :
     Beginner:
     2:
     0,0,0,0,0:
0000
0000
0000
0000
,
0000
0000
0000
0000
,
0000
0000
0000
0000
,
0000
0000
0000
0000
,
0000
1000
0000
0100
,
0000
0000
0000
0010
,
0000
0001
0000
0000
,
0000
1000
0000
0100
,
0000
0000
0000
0001
,
0000
0000
0000
0000
0000
1000
0010
0000
,
0000
0000
0100
0001
0000
0000
1000
0000
,
0000
0000
0000
0110
,
0000
0000
0000
1100
,
0000
0000
0000
0011
,
0000
0000
0000
1001
,
0000
0000
0000
0000
,
0100
0000
0010
0000
,
1000
0000
0001
0000
,
0100
0000
1000
0001
,
0000
0000
0000
0100
,
0000
0010
0000
0000
,
0000
0000
0100
0010
,
0001
0010
0000
0000
,
0100
0000
0000
0000
,
0000
0000
0000
1000
,
0000
0000
0001
0100
0010
0000
1000
0000
,
0000
0001
1000
0001
0010
0000
0100
0000
,
0000
0000
0000
1000
,
0000
0000
0000
0000
,
0000
1001
0000
0000
,
0000
0000
0000
0001
,
0000
1100
0000
0000
,
0000
0110
0000
0000
,
0001
0000
1000
0000
,
0001
0000
0100
0000
,
0000
0000
0000
0001
,
0000
0001
0000
0000
,
0000
0000
0000
1000
,
0100
0000
0000
0000
,
0000
0000
0010
0000
,
0100
0000
0001
0000
,
1000
0000
0000
0000
,
0000
0010
0000
0100
,
0000
0000
0000
0000
0000
0000
0000
0001
,
1000
0001
0000
0000
,
0000
0000
0100
0000
,
1000
0000
0000
0000
,
0000
0000
0100
0000
,
0010
0000
1000
0000
,
0001
0001
0001
0001
,
0000
0000
0000
0000
,
0020
0000
0000
0030
,
0001
0100
0000
0010
,
0000
1000
0000
0010
,
0000
1000
0000
0000
,
0220
0000
0330
0000
,
0000
0100
0000
0001
,
0000
0100
0000
0000
,
0000
0010
0000
0000
,
0000
0000
0001
1000
0000
0000
0000
0000
,
0000
1001
0000
0000
,
0000
0010
0000
0100
,
0000
0000
0000
0000
,
0000
0000
1000
0000
0000
0001
0100
0000
,
0001
1000
0000
0100
,
0000
0010
0000
0000
,
0100
0100
0100
0100
,
0100
0000
0000
0000
,
0000
0001
0000
1000
,
0000
0000
0000
0000
,
0000
0010
0000
0100
,
0000
0000
0000
0000
,
0000
0000
0001
1000
,
0000
0000
0000
0001
,
0000
0000
0000
1001
,
2002
0000
0000
0000
0000
0000
0000
0000
0000
0000
0000
0000
0000
0000
0000
0000
0000
0000
0000
0000
0000
0000
0000
0000
0000
0000
0000
0000
0000
0000
0000
0000
0000
0000
0000
0000
0000
0000
0000
0000
0000
0000
0000
0000
0000
0000
0000
0000
0000
0000
0000
0000
0000
0000
0000
0000
0000
0000
0000
0000
0000
0000
0000
0000
0000
0000
0000
0000
0000
0000
0000
0000
0000
0000
0000
0000
0000
0000
0000
0000
0000
0000
0000
0000
0000
0000
0000
0000
0000
0000
0000
0000
0000
0000
0000
3003
,
0000
0000
0001
0010
,
0000
0000
0000
0000
,
0000
0000
0001
1000
,
0000
0000
1100
0000
,
0000
0000
1000
0100
;

//--------------- dance-single - ----------------
#NOTES:
     dance-single:
     :
     Easy:
     5:
     0,0,0,0,0:
0000
0000
0000
0000
,
0000
0000
0000
0000
,
0000
0000
0000
0000
,
0000
2001
0000
0000
,
3000
0002
0000
1003
,
0000
0000
0010
0000
0000
0100
0001
0000
,
1000
0100
0000
0010
,
0001
0000
0000
1000
,
0001
0100
0000
0010
,
1000
0000
0000
0001
0000
0010
0001
0000
,
0000
0000
1000
0010
0000
0100
0001
0000
,
1000
0000
0000
0000
,
0002
0000
0000
0000
,
0023
0000
0000
0000
,
0032
0000
0000
0000
,
0013
0000
0000
0000
,
1000
0000
0000
0000
,
1100
0000
0110
0000
,
0000
0001
1000
0000
,
0000
0001
0000
0100
,
0000
0001
0000
0000
,
0000
0000
1000
0100
,
0010
0001
1000
0000
,
0010
0000
1000
0000
,
0100
0000
0010
0000
0000
0001
0100
0000
,
0000
0001
1000
0010
1000
0010
1000
0000
,
0001
0100
0001
0100
0001
0010
0001
0000
,
0000
1000
0000
0101
,
0000
0000
0010
0000
,
0000
0100
0000
1000
,
0000
0000
0010
0000
0000
0100
0001
0000
,
0000
1000
0000
0000
,
0000
0100
0000
0010
,
0000
0000
0001
0000
,
1000
0100
0010
0100
,
0000
0000
0000
0000
0000
1000
0010
0000
,
0000
1000
0000
0000
,
1001
0000
0000
0000
,
0100
0010
0001
0000
,
0110
0000
0000
0000
,
0100
0000
0101
0000
,
0001
0000
0000
0100
,
0000
0010
0000
0100
,
0000
0000
0000
0000
0000
0000
0000
0001
,
1000
0100
0000
0000
,
0000
0000
0000
0000
0010
0000
0000
0001
,
0010
0100
0000
0000
,
0000
0000
0000
0000
1000
0000
0000
0001
,
0100
0000
1000
0000
,
0001
0000
0000
1001
,
0000
0000
0000
0000
,
1000
0000
0000
1000
,
1000
0010
0000
0010
,
0100
0010
0000
0010
,
0000
0100
0010
1000
,
0000
0000
0000
0100
,
0000
0100
0000
0001
,
0000
0001
0000
0000
,
0000
0001
0000
0100
,
0000
0000
0010
1000
0000
0000
0000
0000
,
0000
0010
0000
0000
,
0000
0000
1000
0000
0100
0010
0001
0000
,
0000
0001
0000
1000
,
0000
0000
0010
0000
0100
0001
0100
0000
,
0001
0000
0010
0000
0000
0100
0010
0000
,
0100
1000
0000
0001
,
0000
1000
0001
1000
,
0001
0000
0000
0001
,
0000
1000
0010
0000
0000
0000
1000
0000
,
0000
0100
1000
0000
,
0000
0001
0000
0100
,
0000
0010
1000
0010
,
0000
0000
0000
0000
1000
0001
1000
0000
,
0000
0000
0000
0000
0000
0001
0010
0000
,
0000
0100
0000
0000
,
0220
0000
0000
0000
0000
0330
0000
0000
,
0000
0000
0010
0001
,
0000
0000
1000
0000
,
0000
0000
0100
0010
,
0000
0000
0001
0000
,
0000
0000
0100
0010
;

//--------------- dance-single - ----------------
#NOTES:
     dance-single:
     :
     Medium:
     7:
     0,0,0,0,0:
0000
0000
0000
0000
,
0001
1000
0000
0100
0000
0010
0000
0000
,
0002
0000
0000
0000
,
0003
1000
0000
0010
,
0000
0100
0000
0001
,
1000
0000
0001
0000
1000
0001
0010
0000
,
0100
0000
1000
0000
0010
1000
0010
0000
,
0100
0000
0001
0000
1000
0100
1000
0000
,
0010
0100
0000
0001
,
0010
0001
1000
0010
1000
0001
1000
0000
,
0000
0100
0010
0001
0000
1000
0001
0000
,
0100
0000
0010
0000
0000
1000
0100
0000
,
0000
0000
0010
0100
0000
0010
0000
0000
,
0000
0001
1000
0010
,
0100
0000
0001
1000
0001
0000
1000
0000
0000
0000
0100
0000
0010
0000
0000
0000
,
0100
0000
1000
0000
0000
0000
0100
0010
,
0000
0000
0001
0000
0000
0100
0010
0000
,
1000
0000
0001
0010
0001
0000
0000
0000
,
1000
0010
0100
0000
,
0000
0010
0000
0100
,
0000
0001
1000
0100
,
1000
0000
0001
0000
0010
0100
0010
0000
,
0001
0000
1000
0000
0000
0010
1000
0000
,
0001
0000
0000
0000
0000
0010
0100
0000
,
0010
0000
0100
0000
0010
0001
1000
0000
,
0000
0100
1000
0100
1000
0001
0100
0000
,
0010
1000
0001
1000
0100
0010
0001
0000
,
0000
0000
0010
0000
0000
0100
1000
0000
,
0000
0000
0001
0000
0000
0100
0010
0000
,
0100
0000
0001
0000
1000
0100
1000
0000
,
0100
0010
0001
0000
0000
1000
1010
0000
,
0000
1001
0000
0000
,
0001
0101
0000
0100
,
0001
0000
0000
1000
1100
0000
0000
0000
,
0200
0000
0000
0000
0000
0000
0000
0000
0000
0000
0000
0000
0000
0000
0000
0000
0000
0000
0000
0000
0000
0000
0000
0000
0000
0000
0000
0000
0000
0000
0000
0000
0000
0000
0000
0000
0000
0000
0000
0000
0000
0000
0000
0000
0000
0000
0000
0000
0000
0000
0000
0000
0000
0000
0000
0000
0000
0000
0000
0000
0000
0000
0000
0000
0000
0000
0000
0000
0000
0000
0000
0000
0000
0000
0000
0000
0000
0000
0000
0000
0000
0000
0000
0000
0000
0000
0000
0000
0000
0000
0000
0000
0000
0000
0000
0000
0000
0000
0000
0000
0000
0000
0000
0000
0000
0000
0000
0000
0000
0000
0000
0000
0000
0000
0000
0000
0000
0000
0000
0000
0000
0000
0000
0000
0000
0000
0000
0000
0000
0000
0000
0000
0000
0000
0000
0000
0000
0000
0000
0000
0000
0000
0000
0300
0020
0000
0000
0000
0000
0000
0000
0000
0000
0000
0000
0000
0000
0000
0000
0000
0000
0000
0000
0000
0000
0000
0000
0000
0000
0000
0000
0000
0000
0000
0000
0000
0000
0000
0000
0000
0000
0000
0000
0000
0000
0000
0000
0000
0000
0000
0000
0000
,
0000
0000
0030
0000
0001
1000
0010
1000
,
0001
0000
0010
0100
1000
0000
1001
0000
,
1100
0000
1001
0000
0000
1000
0000
0000
,
0010
1000
0100
0010
,
0001
0000
0000
0000
0000
0000
0000
1000
,
0001
0010
0100
1010
,
1001
0000
0000
0001
0000
0100
0001
0000
,
0010
0100
1000
0010
,
1000
0000
0000
0000
0000
0100
1000
0001
,
1000
0001
0000
0101
,
0000
0000
0000
0000
0010
0000
0010
0100
,
0110
0000
0000
0001
1000
0000
0000
0000
,
0000
0000
0000
0000
0010
1000
0001
0000
,
0000
0000
0010
0100
1000
0100
0010
0000
,
0001
0000
0000
0110
,
0000
0000
0000
0000
1010
0000
0000
1000
,
0001
0000
0100
0000
0000
0010
1000
0000
,
0001
0010
0000
0100
,
0110
0000
0010
0001
1000
0000
0001
0100
,
0010
0100
0001
0000
1000
0100
1000
0000
,
0000
0000
0000
0001
,
1000
0000
0010
0000
0000
0100
0001
1000
,
0001
0000
0010
0100
1000
0100
1000
0010
,
0100
0000
0001
0010
0000
0100
1000
0000
,
0000
0000
0001
0100
0020
0000
0030
0000
,
1001
0000
1000
0100
0010
0000
0001
0000
,
0100
0000
0010
1000
0001
0010
0100
1000
,
0010
0100
0001
0010
,
0000
0000
0100
0000
1000
0010
0100
0000
,
0010
1000
0100
0000
0010
0001
1000
0001
,
0010
0000
0100
1000
0000
0000
0101
0000
,
0000
0000
0000
1010
,
0000
0000
1001
0000
0000
0001
1000
0010
,
1000
0010
0100
0000
0001
0000
1000
0000
,
0100
0010
0100
0000
1000
0010
0100
0001
,
0010
0000
0001
1000
0001
0100
0010
0000
,
0000
1000
0001
0000
0010
0100
1000
0001
,
1000
0000
0100
0000
1000
0001
0100
0000
,
0010
0100
0001
0000
0010
0001
1000
0000
,
0000
0010
0200
0000
0300
0001
1000
0000
,
0200
0020
0000
0330
,
0001
0001
2000
0000
3010
0000
0200
0000
,
0000
0000
0300
0000
0010
0000
0000
0001
,
0000
0100
0000
0001
1000
0000
0100
0000
,
0110
0000
0000
0000
0010
0000
0000
0001
,
0000
1000
0010
0000
0200
0000
0301
0000
;

//--------------- dance-single - ----------------
#NOTES:
     dance-single:
     :
     Hard:
     10:
     0,0,0,0,0:
0000
0000
0000
0000
,
0001
0000
1000
0010
0000
0000
0100
0001
1000
0000
0100
0010
0000
0000
0100
0000
,
1000
0000
0001
0100
0010
1000
0001
0010
0001
0000
0000
0000
1000
0000
0000
0000
,
0000
0100
0000
1000
,
0000
0101
0000
0100
,
0010
0000
0110
0000
0010
1000
0010
0000
,
1010
0000
1000
0000
0001
0010
0100
0000
,
0011
0000
0001
0000
0100
0010
1000
0000
,
0010
0000
0100
0000
0001
0000
0000
0000
0000
0000
1010
0000
0001
1000
0000
0000
,
0011
0100
0001
1100
0010
0100
1001
0000
,
0001
1000
0010
0100
0001
1000
0100
0000
,
0110
0000
1100
0000
0000
0001
0100
0000
,
0010
1000
0100
0010
0100
1000
0001
0000
,
0101
0000
0011
0000
1000
0010
0011
0000
,
1000
0000
0001
1000
0001
0000
0010
0000
0100
0000
0010
0000
1001
0000
0000
0000
,
1010
0000
0000
0000
1010
0000
0000
0000
0100
0000
0000
0000
0010
0001
1000
0001
,
1000
0000
0002
0000
0100
0000
0020
0000
0000
0033
1000
0000
0100
0000
0010
0000
,
0001
0100
0010
1000
0100
0010
0100
1000
,
0010
1000
0001
0010
0002
0000
0000
0000
1003
0000
0100
0000
0010
0000
0001
0000
,
0100
0000
0000
0000
0010
0000
0000
0100
0002
0000
0000
0000
1003
0000
0000
0000
,
0100
0000
0010
0000
0001
0100
0101
0000
,
0010
0000
1010
0000
0001
0100
0101
0000
,
0001
0000
0000
0000
1000
0000
0000
0000
0100
0010
0100
0000
1000
0000
0000
0000
,
0001
0000
0000
0000
0100
0000
0010
0000
1000
0000
0100
0010
0001
0000
0000
0000
,
0100
0000
0010
1000
0100
0010
0001
0000
,
0100
0001
0010
0100
0010
0001
0100
0000
,
0010
0000
1000
0000
0001
0000
1000
0000
0100
0000
0010
0000
0001
0000
1000
0010
,
0100
0000
0010
1000
0001
0010
0100
0000
,
1000
0001
0100
0000
0001
1000
0200
0000
,
0310
0001
2000
0000
3100
0010
0001
0000
,
0100
0010
0200
0000
0000
0301
2000
0000
,
3020
0000
0200
0000
0030
0301
1000
0100
,
0010
0000
0000
0000
0001
0000
0000
0000
0000
0000
1000
0100
0010
0100
1000
0000
,
0010
0100
0001
0010
0001
1000
0010
0100
,
0001
0000
0010
0000
0100
0000
0000
0000
0000
0000
1000
0001
1000
0100
1000
0010
,
0100
0000
0000
0000
0000
0000
0000
0000
0001
0000
1000
0000
0001
0010
0100
0000
,
0010
0000
0000
0000
0001
0000
1000
0000
0010
0000
0100
0000
0010
0000
0000
1000
,
0001
0000
0010
0000
0001
1000
0000
0010
,
0100
0000
0010
1000
0001
0000
0010
0100
,
1000
0000
0000
0000
0001
0000
0100
0000
0010
0000
1000
0000
0001
0010
0100
0000
,
1000
0001
0100
0000
0001
0010
0001
1000
,
0010
0000
1000
0100
0010
0001
0010
0000
,
0100
0000
0000
1000
0010
0000
0000
0000
0100
0000
0001
0000
0010
0000
0000
0000
,
0001
0100
0010
0000
0000
1000
0100
1000
,
0001
0000
0010
0100
1000
0100
0010
0000
,
0001
0000
1000
0000
0001
0100
0010
1000
,
0001
0000
0000
0000
0010
0000
0000
0000
0100
0000
1000
0001
0100
0001
0000
0000
,
0010
0100
0000
0000
0000
0000
0000
0000
1000
0010
0100
0000
0001
0000
0010
0000
,
0000
0100
0010
0001
0100
0001
0010
0100
,
1000
0000
0000
0000
0010
0000
1000
0100
0000
0000
0010
0000
0001
0000
0100
0000
,
0000
0000
0000
0000
0000
0000
0010
0000
1000
0000
0001
0000
0000
0000
0010
0100
,
1000
0002
0003
0101
,
1000
0000
0000
0000
0200
0000
0000
0000
0310
0001
1000
0000
0010
0000
0100
0000
,
0001
0000
0100
0000
0010
0000
1000
0000
0100
0010
0100
0000
1000
0000
0001
0000
,
1000
0010
0100
0001
1000
0001
0020
0000
,
0000
0000
0200
0000
0330
1000
0001
0000
,
0100
0010
1000
0001
0010
0100
1000
0010
,
0200
0000
0300
0001
1000
0100
0010
0001
,
1000
0010
0200
0300
0100
0010
2000
0000
,
0200
3000
0310
0100
1000
0000
0010
0100
,
0002
0000
0003
1000
0100
1000
0020
0000
,
0030
0010
1000
0100
0020
0030
0001
1000
,
0001
1000
0020
0000
0030
0110
0100
0001
,
0101
0000
1010
0000
1000
0001
1001
0000
,
0022
0033
0010
0001
1000
0010
0100
0001
,
1100
0000
1000
0000
0101
0000
0010
0000
1010
0000
1000
0000
0100
0001
0000
0000
,
1001
0000
0000
0010
0100
0000
0000
0100
0001
0000
0000
0000
0110
0000
0100
1000
,
0100
0000
0100
1010
0000
0011
0011
0011
,
0011
0001
1000
0101
1000
0100
1001
0000
,
0110
0000
0100
0000
1001
0000
0001
0000
0001
0010
0001
0000
0001
1000
0001
0100
,
0001
0000
0100
0000
0101
0000
0010
0000
1000
0100
0010
0000
0010
0001
0000
0000
,
0011
0001
0010
0100
1000
0001
0010
0001
,
0110
0010
0001
1000
0100
1000
0101
0000
,
0001
1000
0010
0100
0110
0010
1000
0100
,
0010
0001
0010
0001
0010
0100
0010
0000
0000
0000
0100
0000
1000
0000
0001
0000
,
0100
0000
0000
0000
0010
0000
1000
0000
0001
0010
0001
0000
1000
0000
0010
0000
,
0100
0000
0001
0000
1000
0000
0100
0000
0010
0000
0000
0001
1000
0000
0000
0000
,
0010
0000
0000
0100
0000
0000
0001
0000
1000
0000
0000
0000
0001
0000
0100
0000
,
0001
1000
0100
0010
0001
0000
0100
0100
,
0010
0000
1000
0001
0010
0000
0000
0100
,
1000
0001
0100
0010
1000
0000
0001
0000
;
