#TITLE:Blazing Fury;
#SUBTITLE:;
#ARTIST:King Of The Sun;
#TITLETRANSLIT:;
#SUBTITLETRANSLIT:;
#ARTISTTRANSLIT:;
#GENRE:;
#CREDIT:;
#MUSIC:Blazing Fury.mp3;
#BANNER:Blazing Fury.png;
#BACKGROUND:Blazing Fury-bg.png;
#CDTITLE:;
#SAMPLESTART:90.506;
#SAMPLELENGTH:15.013;
#SELECTABLE:YES;
#OFFSET:0.550;
#BPMS:0.000=139.447
,8.000=128.947
,16.000=129.470
,32.000=128.970
,38.000=123.970
,39.000=119.470
,45.500=131.970
,48.500=128.970
,54.000=125.970
,63.000=127.970
,72.000=128.470
,86.000=130.400
,92.000=131.900
,102.000=135.600
,111.000=136.900
,124.000=135.900
,132.000=130.000
,136.000=128.500
,143.000=132.500
,152.000=126.500
,156.000=131.500
,163.000=133.000
,184.000=132.500
,188.000=136.500
,192.000=134.500
,202.000=140.000
,212.000=138.500
,232.000=138.000
,236.000=137.000
,240.000=131.000
,244.000=137.000
,248.000=138.000
,252.000=136.000
,268.000=139.000
,276.000=135.000
,284.000=135.500
,295.000=136.750
,316.000=138.500
,331.000=141.500
,340.000=138.500
,355.000=140.500
,367.000=131.000
,372.000=133.000
,374.000=137.000
,380.000=134.000
,384.000=131.500
,391.000=140.500
,399.000=131.500
,407.000=135.000
,419.000=138.500
,432.000=139.000
,444.000=143.500
,450.000=141.500
;
#STOPS:;
#BGCHANGES:;
#FGCHANGES:;

//--------------- dance-single - ----------------
#NOTES:
     dance-single:
     :
     Medium:
     6:
     0,0,0,0,0:
0000
0000
0000
0000
,
0000
0000
0000
0000
,
1000
0000
0000
0000
0000
0000
0010
0000
0000
0000
0000
0000
0001
0000
0000
0100
,
0010
0000
0000
0001
0000
0000
0100
0000
0000
0010
0000
0000
0100
0000
0000
0000
,
0001
0000
0000
0010
0000
0000
0001
0000
0000
0100
0000
0000
0001
0000
0000
0000
,
0020
0000
0000
0000
0000
0000
0230
0000
0000
0000
0301
1000
0001
1000
0001
0000
,
0100
0000
0000
0000
0000
0000
0010
0000
0000
1000
0000
0000
0002
0000
0000
0013
,
0100
0000
0000
2000
0000
0000
0000
0000
0000
3010
0000
0000
0200
0000
0000
0000
,
0301
0000
0000
0000
0000
0000
0010
0000
0000
0001
0000
0000
0100
0000
0001
0010
,
0200
0000
0000
0000
0000
0310
0001
0010
0002
0000
0000
0000
0203
0000
0000
0000
,
0320
0000
0000
2030
3200
0000
0000
0310
,
0001
0000
1000
0200
0000
0310
0002
0000
,
0003
0000
0200
0000
0000
0000
0320
0000
2030
0000
3000
0000
2000
0000
0000
3000
,
0020
0000
0000
0000
0000
0000
0130
0001
0000
1000
0001
0100
,
0020
0000
0000
0000
0030
0000
0000
1000
,
0001
0000
0100
0010
0000
0100
1000
0000
,
1000
0000
0000
0000
0001
0000
0010
0000
0100
1000
0001
0000
0100
0000
0010
0000
,
1000
0000
0000
0000
0000
0000
0001
0000
0000
0000
0200
0000
0000
0300
0000
0000
,
1001
0000
0000
0000
0000
0000
0000
0000
0020
0000
0000
0030
0000
0000
0000
0000
,
0000
1000
0002
0000
,
1000
0000
0003
0000
,
1000
0000
0100
0010
0001
0000
0000
0100
,
0010
0000
2000
0000
,
0000
0000
3001
0000
,
0200
0000
0000
0300
1001
0000
0000
0000
,
1000
0000
0100
0000
1000
0001
1000
0001
,
1000
0000
0000
0000
0000
0000
0001
0000
0000
0000
0000
0000
1000
0000
0000
0100
,
0010
0000
0000
0001
0000
0000
1000
0000
,
0010
0000
0100
0001
0000
1000
0100
0000
,
0010
0000
0000
0000
0000
0000
0010
0000
0000
0000
0000
0000
0000
0000
0000
0100
,
1000
0000
0000
0001
0000
0000
0100
0000
0000
0001
1000
0000
0010
0000
0000
0000
,
1000
0000
0000
1000
0000
0000
0100
0000
0000
0010
0000
0000
0001
0000
0000
0000
,
0100
0000
0000
0010
0000
0000
1000
0000
0000
0000
0000
0000
0001
0000
0000
0000
,
0010
0000
0000
0100
0000
0000
1000
0000
0000
0000
0001
0000
0100
0000
0000
0000
,
0001
0000
0000
1000
0100
0000
0000
0010
,
0100
0000
0000
1000
0000
0100
0010
0000
,
0001
0000
1000
0000
0000
0000
0000
0000
0010
0000
0100
0000
0001
0100
0001
0000
,
1000
0000
0000
0000
0000
0001
0010
0100
0010
0100
1000
0001
,
0100
0000
0000
0000
0010
0000
0000
1000
,
0001
0000
1000
0100
0000
0000
0010
0000
,
0001
0000
1000
0000
0010
0000
0100
0001
,
1000
0000
0000
0000
0000
0000
0001
0000
0010
0000
0100
0000
,
1000
0000
1001
0000
,
0000
0000
0000
0001
0100
0000
0000
0000
,
0010
0000
0000
1000
0001
0000
0000
0010
,
0100
0000
0010
0000
0001
0100
0000
0000
,
0010
0000
1000
0000
,
0100
0000
0000
0010
0001
0000
0000
0000
1000
0000
0000
0010
0100
0000
0001
0000
,
1000
0000
0010
0000
,
1000
0000
0100
0000
0010
0000
0100
1000
,
0001
0000
0000
0100
0000
0000
0000
0000
,
0010
0000
0000
0000
0000
1000
0001
0000
,
0010
0000
0000
0000
0000
0000
0100
0000
0000
0000
0000
1000
0010
0000
0000
0000
,
0100
0000
0010
1000
0000
0000
0000
0000
,
0002
0000
0000
0000
0000
0000
0023
0000
0000
0000
0000
0030
0100
0000
0000
0000
,
2000
0000
0000
3020
0000
0030
0100
0001
,
1000
0000
0000
0100
0000
0010
0000
0000
,
0001
0000
0000
1001
0000
0000
0000
0000
,
0110
0000
0000
0000
,
0000
0000
0000
1000
,
0000
0010
0000
0100
,
0000
0000
0000
0001
1000
0000
0000
0000
0000
0001
0010
0001
0010
0000
0001
0000
,
0010
0000
0100
0000
0000
1000
0001
0000
,
0000
0000
0000
0000
1001
0000
0000
0000
0000
0001
1001
0000
0001
0000
0100
0000
,
0010
0000
0100
0000
0000
0100
0100
0000
,
0000
0000
0110
0000
0000
1000
1100
0000
,
0000
0000
0000
0000
0100
0000
0000
0010
0000
0001
1000
0000
0001
0000
0000
0000
,
0001
0000
0000
0000
0010
0100
0000
0000
0000
0000
1000
0000
0010
1000
0010
0000
,
0000
1001
0000
0001
,
0001
0001
0000
0100
,
0000
1001
0000
1010
,
0000
0000
0110
0000
0000
0100
0001
0000
,
0000
0000
1000
0100
0000
0000
1100
0000
,
0000
0000
0001
1010
0000
0110
0000
0000
,
0000
0000
0000
0001
1000
0000
0000
0001
0000
0010
0000
0000
0110
0000
0000
0000
,
0000
0000
0000
0011
,
0000
0001
0000
1001
,
1000
0000
0000
1000
0000
0000
0010
0000
0000
0000
0000
0000
0100
0000
0001
0000
,
1000
0000
0000
0100
0000
0010
0100
0000
,
1000
0000
0000
0010
0000
0000
0100
0000
,
0010
0000
0000
0001
0000
0000
0010
0000
,
0000
0100
0000
0000
1000
0000
0001
0000
,
1000
0000
0000
0001
0000
0000
0100
0000
,
0010
0000
1000
0001
1000
0000
0001
1000
0001
0000
0000
0000
0010
0000
0000
0000
,
0100
0000
0000
0000
0001
0000
0010
0000
0000
0000
0001
0010
0200
0000
0000
0000
,
0000
0000
0000
1300
0000
0010
1000
0100
,
1000
0000
0000
0010
0000
0001
0100
0000
,
0001
0000
0000
1000
0000
0000
1000
0000
,
1100
0000
0000
0000
0000
0000
0100
0000
0000
0100
1000
0000
0001
0000
0000
0000
,
0000
0000
0000
1000
0000
0010
0100
0000
,
0000
0000
0000
0010
0000
1000
0001
0000
,
0000
0010
0000
0001
0100
0000
0010
1000
,
0010
0000
0100
0001
,
0010
0000
0000
0100
0000
0000
0010
0000
,
0000
0001
1000
0001
0100
0000
0100
0000
,
1001
0000
0000
0000
0000
0000
0100
1000
0100
0010
0000
0000
,
0001
0000
0000
0001
0100
0000
0000
0010
,
1000
0000
0100
0010
0000
0000
0001
0000
,
0000
0100
0010
0000
0000
0000
1000
0000
,
1010
0000
0000
0100
0000
0010
0100
0000
,
1000
0000
0001
0100
,
0000
0000
0000
0010
1000
0000
0000
0010
,
1000
0000
0002
0023
,
0230
0000
0000
1300
0001
0000
0200
0000
0000
0000
0000
0000
0000
0000
0000
0000
,
0320
0000
0030
0000
,
0200
0000
0000
0300
0001
0000
0000
0000
,
2000
0000
0000
3100
0010
0000
0000
0100
,
1000
0000
0000
0000
0000
0000
0001
0100
0002
0000
0000
0000
0000
0000
0000
0000
,
2003
0000
0000
3010
0000
0000
0000
0000
,
0100
0000
0000
0100
0000
0000
0001
0000
,
0020
0000
0000
0000
,
0030
0000
0000
0001
0000
1000
0001
0000
,
1000
0000
0100
1000
0000
0010
1000
0000
,
0010
0000
0100
0002
0000
0000
0003
0000
,
0100
0000
0000
0000
0000
0020
0000
0000
,
0000
0000
0000
0000
0000
0000
0030
0000
0000
0010
0100
0000
1000
0000
0000
0000
,
1100
0000
0000
0000
;

//--------------- dance-single - ----------------
#NOTES:
     dance-single:
     :
     Hard:
     9:
     0,0,0,0,0:
0000
0000
0000
0000
,
0000
0000
0000
0000
,
0010
0000
0000
0100
0000
1000
0001
0000
0100
0001
0000
0010
0100
0000
1000
0001
,
1000
0000
0100
0010
0000
0000
0001
0000
0000
0010
0100
1000
0010
0100
0001
0000
,
1000
0000
0000
0100
0000
0000
0010
0000
0000
0001
0000
1000
0001
0000
0100
0001
,
0010
0000
0100
0010
0000
0100
1000
0000
0001
0100
0010
1000
0001
0010
0100
0010
,
0001
0000
1000
0010
0000
0000
1000
0000
0001
0010
0000
0001
0100
0000
0010
1000
,
0200
0000
0000
0310
0000
0000
0001
0000
0000
0200
0000
0000
0310
0000
1000
0001
,
0020
0000
0130
1000
0000
0000
0001
0000
0000
1000
0000
0010
1000
0000
0100
0010
,
0001
0000
0100
0001
0010
0100
1000
0010
1000
0000
0000
0000
1001
0000
0000
0000
,
0001
0000
0000
0000
0000
0000
0010
0000
0100
1000
0000
0000
0000
0000
0100
0000
,
0010
0000
0001
1000
0000
0010
0100
0001
,
1000
0000
0100
0000
0000
0000
0010
0000
0001
0000
1000
0000
0010
0100
0001
1000
,
0001
0000
0000
0000
0000
0000
0000
0000
0000
0000
0000
0000
0000
0000
0000
0000
0000
0000
1000
0000
0000
0010
0000
0000
0100
0000
0000
0000
0010
0000
0000
0000
1000
0000
0000
0000
0001
0000
0000
0000
1000
0000
0000
0000
0100
0000
0000
0000
,
0010
0000
0000
0000
0000
0000
0110
0000
1001
0000
0000
0000
0000
0000
1000
0100
,
1000
0000
0010
0100
0000
0001
0001
0000
,
0010
0000
0010
0000
0100
1000
0100
0000
0100
1000
0001
0000
0100
0000
0001
0000
,
0010
0000
0000
0100
0000
0000
1000
0000
0000
0010
0000
0000
1000
0000
0100
0010
,
0100
1000
0000
1000
0000
0000
0010
0100
,
0001
0000
0000
0100
0010
0000
0100
0000
0001
0000
0000
0000
1000
0001
0010
0000
,
0100
0000
0000
0000
1000
0000
0000
0010
0010
0000
0000
0000
0010
0000
0000
0000
,
0100
0000
0010
1000
0001
0000
0000
0001
,
0010
0000
0000
0100
0000
0000
1000
0000
0100
0000
0000
0000
0100
0000
0000
0000
,
0010
0000
0000
0000
0000
0000
0001
0000
1000
0000
0000
0000
1000
0000
0100
0010
,
0001
0000
0000
0000
0100
0000
0010
0000
1000
0010
0000
0010
1000
0000
0001
0000
,
0010
0000
0000
0000
0100
0000
0000
0000
1000
0000
0010
1000
0001
0000
0100
0001
,
0100
0000
0000
0001
1000
0000
0100
0000
0000
0010
0100
0000
1000
0000
0010
1000
,
0001
0000
0000
0100
0000
0000
0010
0000
0000
0000
0000
0000
1000
0000
0001
0000
,
0010
0000
0000
0000
0100
0000
1000
0000
0000
0000
0010
0000
0100
0000
0000
0001
,
1000
0000
0100
0010
0100
0000
1000
0000
0000
0000
0001
0000
1000
0000
0010
0000
,
0100
0000
0000
0001
0000
0000
0010
0000
0000
0010
0100
0000
1000
0000
0000
0000
,
0100
0000
0000
0010
0000
0100
0001
0000
0000
0010
0100
0000
1000
0000
0000
0000
,
0010
0000
0100
0001
0000
0000
0010
0000
0000
0001
0100
0010
1000
0000
0000
0100
,
0010
0000
0000
0100
1000
0000
0001
0000
0100
0000
0001
0000
0010
0000
1000
0000
,
1020
0000
0000
0000
0000
0000
0130
0000
0001
0000
0000
0000
0000
0000
1000
0100
,
0010
0000
0000
0000
0100
0001
1000
0000
0000
0000
1000
0000
0020
0000
0000
0000
,
0130
0010
1000
0000
0000
0000
1000
0000
1000
0000
0200
0000
0310
0001
1000
0010
,
0200
0000
0000
0000
0000
1300
0010
1000
0100
0010
0100
0010
,
0011
0000
0000
1000
0020
0000
0000
0230
,
0310
0000
1000
0002
0000
0000
0103
0000
,
0100
1000
0002
1003
0010
1000
0001
0001
,
2000
0000
0000
0000
0000
0000
0000
0000
0000
0000
0000
0000
0000
0000
0000
0000
0000
0000
0000
0000
0000
0000
0000
0000
3100
0000
0000
0000
0000
0000
0000
0000
0010
0000
0000
0000
0000
0000
0000
0000
0000
0000
0001
0000
0000
1000
0000
0000
,
0020
0000
0130
0000
,
0200
0000
0000
0000
0000
0000
0301
0000
2000
0000
0000
0000
3100
0000
0010
0001
,
0010
0100
0100
1000
1000
0000
0000
0001
,
0001
0000
0000
0000
0100
0010
1000
0000
0001
0000
0010
0000
0100
0000
1000
0000
,
0010
1000
0000
0000
1000
0000
0000
0000
,
0001
0000
0000
0010
0100
0000
0000
0000
1000
0000
0000
1000
0010
0000
0100
0000
,
0001
0000
0000
2000
0000
0000
3100
0000
0020
0000
0000
0000
0031
0000
0000
0000
,
1000
0000
0000
0010
0100
0000
0001
0000
0100
0000
0000
0000
0100
0000
0010
0000
,
1000
0000
0000
0001
0000
0100
0001
1000
0010
0000
0000
0000
0200
0000
0000
0300
,
0002
0000
0000
0000
0000
0000
0003
0000
0000
1000
0000
0000
0001
0000
0000
0000
0000
0000
0010
0000
0000
0000
0000
0000
0000
0000
0000
0001
0000
0000
1000
0000
0000
0000
0000
0000
0010
0000
0000
0000
0000
0000
1000
0000
0001
0000
0100
0000
,
0001
0000
0010
0000
0000
0000
0100
0000
1000
0000
0010
0100
0001
0000
0010
0001
,
0020
0000
0000
0000
0130
0000
0100
0000
1000
0001
0200
0000
0000
0300
0010
0000
,
0010
0000
0000
0000
0100
0000
0020
0000
0000
0000
0030
0000
0000
0000
1000
0100
,
0010
0000
0000
0010
0001
0000
2000
0000
0000
0000
3001
0000
0100
0010
1000
0010
,
1000
0000
0000
0001
2000
0000
3100
0000
0000
0010
0001
0000
0000
0000
0000
1000
,
0010
0000
0100
0001
1000
0000
0100
0000
,
0010
0000
0000
0000
,
0001
0000
0000
0000
0000
0000
0000
0000
1000
0010
0100
0010
1000
0000
0000
0000
,
0100
0000
0000
0000
0010
0000
0000
0001
1000
0000
0000
0000
0010
0000
0100
0010
,
1000
0000
0000
0100
0010
0000
0000
0001
0000
1000
0100
1000
0001
0100
0001
0000
,
0010
0000
0000
0100
1000
0000
0000
0001
0000
0100
0001
0000
0010
0000
0000
0000
,
0100
0000
0000
0000
1000
0000
0000
0010
0000
0100
0001
0000
1000
0001
0001
1000
,
0100
0000
0000
0000
0100
0000
0000
0100
0100
0010
0001
0000
1000
0000
0000
0000
,
1000
0000
0000
0000
0010
0100
0001
1000
0000
0000
0100
0000
0010
0000
0001
0000
,
0010
0000
0000
0000
1000
0000
0000
1000
0010
0100
0001
0000
1000
0000
0000
0000
,
1000
0000
0001
0010
0100
0010
0100
0000
0000
0000
1000
0000
1000
0001
1000
0010
,
0100
0000
0000
0000
0001
1000
0000
0010
0000
0010
0100
0000
0001
0000
0000
0001
,
1000
0000
0000
0000
0000
0000
0001
0010
0100
1000
0000
0000
0010
0000
0000
0100
0000
0000
0001
0000
0000
1000
0000
0000
,
2000
0000
0000
0000
0000
0000
0000
0000
0000
3001
0000
0000
0101
0000
0000
0000
0000
0000
0000
0000
0000
0000
0000
0000
0010
0000
0000
0000
1000
0000
0000
0000
0010
0000
0000
0000
0002
0000
0000
0000
0000
0000
0013
0000
0000
0000
0000
0000
,
0100
0000
1000
0000
1000
0001
0000
0000
0000
0001
0010
0100
1000
0000
1000
0010
,
0200
0000
0000
0000
0301
0010
0010
0001
0200
0000
0000
0000
0310
0000
0000
0010
,
1000
0000
1000
0000
1000
0001
0000
0100
0000
0010
1000
0000
1002
0000
0000
0000
,
0000
0000
0003
1000
0001
0000
0000
0000
0010
0100
0010
0001
0200
0000
0300
0000
,
0002
0000
0103
0010
2000
0000
3001
1000
0010
0000
0002
0000
0203
0000
0300
1000
,
0010
0000
0000
0000
0100
0000
0000
1100
0000
0000
1000
0000
0002
0023
0000
0000
,
0230
0000
0000
2300
0000
0000
3020
0000
0000
0000
2030
0000
3100
0000
0100
0000
,
0002
0000
0000
0000
0000
0000
0010
0003
0000
0200
2300
3010
0100
0001
0100
0010
,
1000
0000
0000
0100
0010
0001
0200
0000
0301
0000
0010
0000
0100
0000
1000
0000
,
1000
0000
0000
0001
0100
0000
0100
0000
0000
0000
0000
0000
0100
0000
0000
0000
,
0100
0010
0010
0100
0100
1000
1000
0000
,
1000
0000
0000
0001
0100
0000
0010
0000
0000
0100
0001
0000
0001
0000
0000
0010
,
0100
0000
0010
0001
1000
0000
0010
0100
0001
1000
0000
0100
0010
0001
1000
0010
,
0100
0000
0000
0000
0100
0000
0100
0100
0001
0010
0100
1000
0100
0000
0010
0000
,
0001
0000
0000
2000
0000
0000
3020
0000
0000
0130
0002
0000
0023
0030
0200
0300
,
0100
0000
0000
0000
0100
0000
0020
0000
0000
0000
0031
0000
1000
0000
1000
0010
,
1000
0000
0000
0001
0100
0100
0010
1000
,
0001
0020
0000
0130
1000
0000
0010
0000
0000
1000
0001
0000
1000
0000
0200
0000
,
0000
0000
0310
0001
0000
0000
0200
0300
,
0001
1000
0000
0200
0000
0310
0002
0000
,
0103
0000
0020
0000
0000
0000
0030
0000
1000
0000
0002
1003
0001
0100
0010
0000
,
0100
0000
0000
0001
0000
0000
0000
0000
0000
0000
0000
0000
0000
0000
0000
0000
0000
0000
1000
0000
0010
0000
1000
0000
0001
0000
0000
0000
0000
0000
0000
0000
0000
0000
0000
0000
1000
0000
0000
0000
0000
0000
0000
0000
0000
0000
0000
0000
,
0011
0000
0001
1000
0000
0010
0200
0000
,
0302
0000
0013
0100
0010
0100
1000
0000
0100
1000
0000
0000
0200
0000
0000
0000
,
0310
0000
0000
0000
0000
0001
1000
0100
0010
0001
0100
0000
,
0020
0000
0000
0030
0001
0000
0000
2000
,
3100
0000
0010
0001
0000
0200
0310
0000
,
1000
0001
0020
0000
0000
0130
2000
0000
,
3010
0000
0000
0101
0000
0100
0001
1000
,
0010
1000
0000
0020
0000
0000
0130
0000
0001
0000
0000
0000
1000
0000
0000
0000
,
0200
0000
0000
0310
0000
0000
0001
0000
2000
0000
0000
0000
0000
0000
3010
0100
,
0002
0000
0000
0000
0003
0000
2000
0000
0000
3000
0000
0000
0002
0000
0003
0000
,
0001
0002
0023
0230
0000
0000
0000
0300
,
1200
0000
0000
0000
0000
0000
0000
0300
0100
0000
0000
2000
3020
0000
0000
0000
,
1030
0000
0000
0000
0200
0000
0302
0000
0003
0000
0000
0000
0000
0000
0000
2000
,
3020
0230
0000
0302
0023
0000
0030
0000
,
0200
0000
0300
0000
0000
0010
0001
0100
0001
0100
0001
0100
0001
0100
0001
0000
,
2000
0000
0000
0000
0000
0000
0000
0000
0000
3001
0010
0000
0200
0000
0000
0000
,
2300
0000
0000
0000
3001
0000
0100
0000
0010
1000
0010
0000
1000
0000
0000
0000
,
0200
0000
0000
0310
0001
0000
0200
0000
0000
0000
0310
0000
1000
0000
0001
1000
,
0200
0000
0000
0310
0001
0000
0110
0000
0000
0010
0100
0010
2000
0000
0000
3001
,
0010
0100
1000
0001
0100
0000
0010
1000
0010
0000
0100
0001
1000
0001
0020
0000
,
0230
0000
0000
0000
2300
0000
3002
0000
0000
0203
0000
0000
0320
0000
0000
1030
,
0002
0000
0000
0000
0000
0000
1003
0000
0000
0100
0010
0000
0100
0000
0000
0000
,
0200
0000
0000
0000
0000
0000
1300
0000
0000
0010
0100
0000
0001
0000
0000
0000
,
0200
0000
0000
0300
;
